osu file format v13

[General]
AudioFilename: Song_starlog.mp3
AudioLeadIn: 1100
PreviewTime: 230132
Countdown: 0
SampleSet: Soft
StackLeniency: 0.7
Mode: 0
LetterboxInBreaks: 1
WidescreenStoryboard: 0

[Editor]
Bookmarks: 165136,176565,205136,209958,213708,225136,247993,250672
DistanceSpacing: 1.1
BeatDivisor: 4
GridSize: 4
TimelineZoom: 2.4

[Metadata]
Title:starlog
TitleUnicode:starlog
Artist:ChouCho
ArtistUnicode:ChouCho
Creator:Karia
Version:Easy
Source:Fate/kaleid liner PRISMA☆ILLYA
Tags:Full Version opening Prismaillya Illyasviel von Einzbern Miyu Edelfelt Kadowaki Mai Nazuka Kaori プリズマ☆イリヤ Kocari ちょうちょ
BeatmapID:568024
BeatmapSetID:244684

[Difficulty]
HPDrainRate:2
CircleSize:3
OverallDifficulty:2
ApproachRate:3
SliderMultiplier:0.8
SliderTickRate:1

[Events]
//Background and Video events
0,0,"BG.jpg",0,0
//Break Periods
2,165332,175121
2,213904,223692
//Storyboard Layer 0 (Background)
//Storyboard Layer 1 (Fail)
//Storyboard Layer 2 (Pass)
//Storyboard Layer 3 (Foreground)
//Storyboard Sound Samples

[TimingPoints]
847,357.142857142857,4,2,1,30,1,0
4418,-100,4,2,2,50,0,0
5132,-100,4,2,2,65,0,0
5311,-100,4,2,5,65,0,0
5668,-100,4,2,2,65,0,0
6739,-100,4,2,5,65,0,0
7096,-100,4,2,2,65,0,0
7454,-100,4,2,5,65,0,0
7811,-100,4,2,2,65,0,0
8525,-100,4,2,3,65,0,0
8882,-100,4,2,2,65,0,0
12454,-100,4,2,5,65,0,0
12811,-100,4,2,3,65,0,0
13168,-100,4,2,2,65,0,0
13882,-100,4,2,5,65,0,0
14239,-100,4,2,2,65,0,0
15311,-100,4,2,5,65,0,0
15668,-100,4,2,2,65,0,0
16561,-100,4,2,2,40,0,0
16739,-100,4,2,3,40,0,0
17096,-100,4,2,2,40,0,0
18168,-100,4,2,3,40,0,0
18525,-100,4,2,2,40,0,0
18882,-100,4,2,3,40,0,0
19239,-100,4,2,2,40,0,0
21025,-100,4,2,3,40,0,0
21382,-100,4,2,2,40,0,0
21739,-100,4,2,3,40,0,0
22096,-100,4,2,2,40,0,0
23882,-100,4,2,3,40,0,0
24239,-100,4,2,2,40,0,0
25311,-100,4,2,3,40,0,0
26025,-100,4,2,2,40,0,0
26561,-100,4,2,1,30,0,0
27632,-100,4,2,2,50,0,0
27989,-100,4,2,2,55,0,0
28168,-100,4,2,5,55,0,0
28525,-100,4,2,2,55,0,0
29596,-100,4,2,5,55,0,0
29954,-100,4,2,2,55,0,0
30311,-100,4,2,5,55,0,0
30668,-100,4,2,2,55,0,0
31382,-100,4,2,3,55,0,0
31739,-100,4,2,2,55,0,0
33882,-100,4,2,5,55,0,0
34239,-100,4,2,2,55,0,0
34596,-100,4,2,5,55,0,0
34954,-100,4,2,2,55,0,0
35668,-100,4,2,3,55,0,0
36025,-100,4,2,2,55,0,0
36739,-100,4,2,5,55,0,0
37096,-100,4,2,2,55,0,0
38168,-100,4,2,5,55,0,0
38525,-100,4,2,2,55,0,0
48168,-100,4,2,5,55,0,0
48525,-100,4,2,2,55,0,0
49239,-100,4,2,2,65,0,0
50132,-100,4,2,2,45,0,0
50846,-100,4,2,2,75,0,1
51025,-100,4,2,5,75,0,1
51382,-100,4,2,2,75,0,1
51739,-100,4,2,5,75,0,1
52096,-100,4,2,2,75,0,1
53882,-100,4,2,5,75,0,1
54239,-100,4,2,2,75,0,1
55311,-100,4,2,5,75,0,1
55668,-100,4,2,2,75,0,1
56025,-100,4,2,5,75,0,1
56382,-100,4,2,2,75,0,1
57096,-100,4,2,3,75,0,1
57454,-100,4,2,2,75,0,1
58168,-100,4,2,5,75,0,1
58525,-100,4,2,3,75,0,1
58882,-100,4,2,2,75,0,1
59596,-100,4,2,5,75,0,1
59954,-100,4,2,2,75,0,1
62454,-100,4,2,5,75,0,1
62811,-100,4,2,2,75,0,1
63168,-100,4,2,5,75,0,1
63525,-100,4,2,2,75,0,1
64239,-100,4,2,3,75,0,1
64596,-100,4,2,2,75,0,1
65311,-100,4,2,5,75,0,1
65668,-100,4,2,2,75,0,1
66025,-100,4,2,5,75,0,1
66382,-100,4,2,2,75,0,1
66918,-100,4,2,2,75,0,0
67275,-100,4,2,2,75,0,1
67364,-100,4,2,2,75,0,0
67989,-100,4,2,2,75,0,1
68168,-100,4,2,5,75,0,1
68525,-100,4,2,2,75,0,1
69596,-100,4,2,5,75,0,1
69954,-100,4,2,2,75,0,1
70311,-100,4,2,5,75,0,1
70668,-100,4,2,2,75,0,1
72454,-100,4,2,5,75,0,1
72811,-100,4,2,2,75,0,1
73168,-100,4,2,5,75,0,1
73525,-100,4,2,2,75,0,1
74239,-100,4,2,3,75,0,1
74596,-100,4,2,2,75,0,1
75311,-100,4,2,5,75,0,1
75668,-100,4,2,3,75,0,1
76025,-100,4,2,2,75,0,1
76739,-100,4,2,5,75,0,1
77096,-100,4,2,2,75,0,1
79596,-100,4,2,5,75,0,1
79954,-100,4,2,2,75,0,1
81025,-100,4,2,5,75,0,1
81382,-100,4,2,2,75,0,1
83168,-100,4,2,5,75,0,1
83525,-100,4,2,2,75,0,1
84061,-100,4,2,2,75,0,0
84418,-100,4,2,1,75,0,0
85132,-100,4,2,2,40,0,0
90846,-100,4,2,2,50,0,0
91025,-100,4,2,3,50,0,0
91382,-100,4,2,2,50,0,0
93882,-100,4,2,3,50,0,0
94239,-100,4,2,2,50,0,0
96561,-100,4,2,4,40,0,0
96739,-100,4,2,6,40,0,0
97096,-100,4,2,4,40,0,0
97275,-100,4,2,6,40,0,0
97632,-100,4,2,4,40,0,0
98168,-100,4,2,6,40,0,0
98525,-100,4,2,4,40,0,0
99596,-100,4,2,6,40,0,0
99954,-100,4,2,4,40,0,0
100132,-100,4,2,6,40,0,0
100489,-100,4,2,4,40,0,0
101025,-100,4,2,6,40,0,0
101382,-100,4,2,4,40,0,0
102454,-100,4,2,6,40,0,0
102811,-100,4,2,4,40,0,0
102989,-100,4,2,6,40,0,0
103346,-100,4,2,4,40,0,0
103882,-100,4,2,6,40,0,0
104239,-100,4,2,4,40,0,0
105311,-100,4,2,6,40,0,0
105668,-100,4,2,4,40,0,0
105846,-100,4,2,6,40,0,0
106204,-100,4,2,4,40,0,0
106561,-100,4,2,1,30,0,0
107632,-100,4,2,1,40,0,0
107989,-100,4,2,2,55,0,0
108168,-100,4,2,5,55,0,0
108525,-100,4,2,2,55,0,0
109596,-100,4,2,5,55,0,0
109954,-100,4,2,2,55,0,0
110311,-100,4,2,5,55,0,0
110668,-100,4,2,2,55,0,0
112454,-100,4,2,5,55,0,0
112811,-100,4,2,2,55,0,0
113168,-100,4,2,5,55,0,0
113525,-100,4,2,2,55,0,0
115311,-100,4,2,5,55,0,0
115668,-100,4,2,2,55,0,0
116739,-100,4,2,5,55,0,0
117096,-100,4,2,2,55,0,0
118168,-100,4,2,5,55,0,0
118525,-100,4,2,2,55,0,0
128168,-100,4,2,5,55,0,0
128525,-100,4,2,2,55,0,0
130846,-100,4,2,2,75,0,1
131025,-100,4,2,5,75,0,1
131382,-100,4,2,2,75,0,1
132454,-100,4,2,5,75,0,1
132811,-100,4,2,2,75,0,1
133168,-100,4,2,5,75,0,1
133525,-100,4,2,2,75,0,1
134239,-100,4,2,3,75,0,1
134596,-100,4,2,2,75,0,1
137096,-100,4,2,3,75,0,1
137454,-100,4,2,2,75,0,1
138168,-100,4,2,5,75,0,1
138525,-100,4,2,3,75,0,1
138882,-100,4,2,2,75,0,1
139596,-100,4,2,5,75,0,1
139954,-100,4,2,2,75,0,1
142454,-100,4,2,5,75,0,1
142811,-100,4,2,2,75,0,1
143168,-100,4,2,5,75,0,1
143525,-100,4,2,2,75,0,1
144239,-100,4,2,3,75,0,1
144596,-100,4,2,2,75,0,1
145311,-100,4,2,5,75,0,1
145668,-100,4,2,2,75,0,1
146918,-100,4,2,2,75,0,0
147275,-100,4,2,2,75,0,1
147364,-100,4,2,2,75,0,0
147989,-100,4,2,2,75,0,1
148168,-100,4,2,5,75,0,1
148525,-100,4,2,2,75,0,1
149596,-100,4,2,5,75,0,1
149954,-100,4,2,2,75,0,1
150311,-100,4,2,5,75,0,1
150668,-100,4,2,2,75,0,1
152454,-100,4,2,5,75,0,1
152811,-100,4,2,2,75,0,1
153168,-100,4,2,5,75,0,1
153525,-100,4,2,2,75,0,1
154239,-100,4,2,3,75,0,1
154596,-100,4,2,2,75,0,1
155311,-100,4,2,5,75,0,1
155668,-100,4,2,3,75,0,1
156025,-100,4,2,2,75,0,1
156739,-100,4,2,5,75,0,1
157096,-100,4,2,2,75,0,1
159596,-100,4,2,5,75,0,1
159954,-100,4,2,2,75,0,1
160311,-100,4,2,5,75,0,1
160668,-100,4,2,2,75,0,1
163346,-100,4,2,5,75,0,1
163525,-100,4,2,2,75,0,1
164061,-100,4,2,2,75,0,0
164418,-100,4,2,2,65,0,0
165132,-100,4,2,2,60,0,0
176561,-100,4,2,2,50,0,0
176739,-100,4,2,5,50,0,0
177096,-100,4,2,2,50,0,0
179596,-100,4,2,5,50,0,0
179954,-100,4,2,2,50,0,0
180846,-100,4,2,3,50,0,0
181204,-100,4,2,2,50,0,0
183168,-100,4,2,5,50,0,0
183525,-100,4,2,2,50,0,0
186025,-100,4,2,3,50,0,0
186382,-100,4,2,2,50,0,0
187989,-100,4,2,2,60,0,1
188079,-100,4,2,5,60,0,0
188525,-100,4,2,2,60,0,0
188882,-100,4,2,5,60,0,0
189239,-100,4,2,2,60,0,0
191025,-100,4,2,5,60,0,0
191382,-100,4,2,2,60,0,0
193882,-100,4,2,5,60,0,0
194239,-100,4,2,2,60,0,0
195668,-100,4,2,3,60,0,0
196025,-100,4,2,2,60,0,0
196739,-100,4,2,5,60,0,0
197096,-100,4,2,2,60,0,0
198168,-100,4,2,5,60,0,0
198525,-100,4,2,2,60,0,0
199596,-100,4,2,5,60,0,0
199954,-100,4,2,2,60,0,0
201025,-100,4,2,5,60,0,0
201382,-100,4,2,2,60,0,0
203168,-100,4,2,5,60,0,0
203525,-100,4,2,3,60,0,0
203882,-100,4,2,2,60,0,0
205311,-100,4,2,5,60,0,0
205668,-100,4,2,2,60,0,0
206025,-100,4,2,5,60,0,0
206382,-100,4,2,2,60,0,0
208882,-100,4,2,5,60,0,0
209239,-100,4,2,2,60,0,0
210846,-100,4,2,2,40,0,0
225132,-100,4,2,2,50,0,0
227989,-100,4,2,2,60,0,0
230846,-100,4,2,2,75,0,1
231025,-100,4,2,5,75,0,1
231382,-100,4,2,2,75,0,1
232454,-100,4,2,5,75,0,1
232811,-100,4,2,2,75,0,1
233168,-100,4,2,5,75,0,1
233525,-100,4,2,2,75,0,1
235311,-100,4,2,5,75,0,1
235668,-100,4,2,2,75,0,1
236739,-100,4,2,5,75,0,1
237096,-100,4,2,2,75,0,1
238168,-100,4,2,5,75,0,1
238525,-100,4,2,3,75,0,1
238882,-100,4,2,2,75,0,1
239596,-100,4,2,5,75,0,1
239954,-100,4,2,2,75,0,1
242454,-100,4,2,5,75,0,1
242811,-100,4,2,2,75,0,1
243168,-100,4,2,5,75,0,1
243525,-100,4,2,2,75,0,1
246025,-100,4,2,5,75,0,1
246382,-100,4,2,2,75,0,1
247989,-100,4,2,2,75,0,1
249596,-100,4,2,5,75,0,1
249954,-100,4,2,2,75,0,1
250311,-100,4,2,5,75,0,1
250668,-100,4,2,2,75,0,1
251739,-100,4,2,5,75,0,1
252096,-100,4,2,2,75,0,1
252632,-100,4,2,2,75,0,0
254954,-100,4,2,2,65,0,0
258168,-100,4,2,5,65,0,0
258525,-100,4,2,2,65,0,0
262454,-100,4,2,5,65,0,0
262811,-100,4,2,2,65,0,0
263168,-100,4,2,5,65,0,0
263525,-100,4,2,2,65,0,0
265311,-100,4,2,5,65,0,0
265668,-100,4,2,2,65,0,0
266739,-100,4,2,5,65,0,0
267096,-100,4,2,2,65,0,0
267454,-100,4,2,5,65,0,0
267811,-100,4,2,2,65,0,0
269596,-100,4,2,5,65,0,0
269954,-100,4,2,2,65,0,0
273882,-100,4,2,5,65,0,0
274239,-100,4,2,2,65,0,0
275311,-100,4,2,5,65,0,0
275668,-100,4,2,2,65,0,0
276739,-100,4,2,5,65,0,0
277096,-100,4,2,2,65,0,0
277989,370.37037037037,4,2,2,45,1,0
280951,-100,4,2,1,30,0,0
283914,-100,4,2,2,45,0,0
291692,-100,4,2,1,15,0,0

[Colours]
Combo1 : 255,189,157
Combo2 : 255,255,176
Combo3 : 255,181,255
Combo4 : 185,255,255

[HitObjects]
48,92,847,6,0,P|148:76|176:168,1,200,2|0,0:0|0:0,0:0:0:0:
76,232,2275,2,0,P|87:324|179:334,1,200,2|0,0:0|0:0,0:0:0:0:
355,282,4418,6,0,L|264:276,1,80,8|12,0:0|0:0,0:0:0:0:
268,188,5132,6,0,B|388:196|388:196|436:160,1,160,6|2,0:0|0:0,0:0:0:0:
456,92,6204,1,8,0:0:0:0:
396,28,6561,2,0,B|276:20|276:20|228:56,2,160,2|2|2,0:0|0:0|0:0,0:0:0:0:
456,92,8346,6,0,P|476:172|448:264,1,160,8|8,0:0|0:0,0:0:0:0:
380,284,9418,2,0,L|292:272,1,80,2|12,0:0|0:0,0:0:0:0:
220,304,10132,2,0,L|56:280,1,160,12|6,0:0|0:0,0:0:0:0:
12,208,11204,5,8,0:0:0:0:
88,160,11561,2,0,L|80:76,1,80,2|8,0:0|0:0,0:0:0:0:
168,80,12275,2,0,L|184:224,2,120,2|0|8,0:0|0:0|0:0,0:0:0:0:
236,24,13704,6,0,P|312:8|396:48,1,160,2|2,0:0|0:0,0:0:0:0:
428,116,14775,1,8,0:0:0:0:
356,164,15132,2,0,P|300:172|236:144,2,120,6|4|8,0:0|0:0|0:0,0:0:0:0:
428,116,16561,6,0,B|444:192|444:192|424:296,1,160,2|2,0:0|0:0,0:0:0:0:
348,308,17632,1,2,0:0:0:0:
272,264,17989,2,0,P|192:260|136:320,2,160,2|2|2,0:0|0:0|0:0,0:0:0:0:
360,252,19775,6,0,P|376:214|383:166,2,80,2|2|2,0:0|0:0|0:0,0:0:0:0:
432,304,20846,2,0,P|464:228|468:144,2,160,2|2|2,0:0|0:0|0:0,0:0:0:0:
348,336,22632,5,2,0:0:0:0:
276,288,22989,2,0,B|236:284|236:284|196:296,1,80,2|2,0:0|0:0,0:0:0:0:
124,344,23704,2,0,B|100:288|128:244|128:244|108:180,1,160,2|2,0:0|0:0,0:0:0:0:
80,108,24775,1,2,0:0:0:0:
152,56,25132,6,0,P|216:44|296:64,2,120,2|0|0,0:0|0:0|0:0,0:0:0:0:
80,108,26561,2,0,B|72:164|72:164|80:228,2,120,2|2|4,0:0|0:0|0:3,0:0:0:0:
160,144,27989,6,0,P|236:168|320:128,1,160,6|2,0:0|0:0,0:0:0:0:
368,76,29061,1,8,0:0:0:0:
432,136,29418,2,0,B|456:176|456:176|432:236|468:320,2,160,2|2|2,0:0|0:0|0:0,0:0:0:0:
364,192,31204,6,0,B|308:188|260:204|260:204|196:176,1,160,8|8,0:0|0:0,0:0:0:0:
148,120,32275,2,0,P|135:78|135:34,2,80,2|8|2,0:0|0:0|0:0,0:0:0:0:
232,96,33346,1,8,0:0:0:0:
312,132,33704,6,0,P|364:192|320:264,2,160,2|2|2,0:0|0:0|0:0,0:0:0:0:
236,180,35489,2,0,B|192:183|161:154|161:154|119:182|70:174,1,160,8|8,0:0|0:0,0:0:0:0:
24,116,36561,6,0,P|28:50|129:44,1,160,2|2,0:0|0:0,0:0:0:0:
176,88,37632,1,8,0:0:0:0:
244,32,37989,2,0,P|324:52|416:48,1,160,6|6,0:0|0:0,0:0:0:0:
468,108,39061,1,8,0:0:0:0:
388,140,39418,6,0,B|396:184|396:184|392:220|392:220|400:284,2,120,12|8|8,0:0|0:0|0:0,0:0:0:0:
276,68,41025,2,0,P|216:64|156:100,1,120,8|12,0:0|0:0,0:0:0:0:
124,168,41918,1,12,0:0:0:0:
188,228,42275,6,0,P|248:232|308:196,2,120,12|8|8,0:0|0:0|0:0,0:0:0:0:
76,160,43882,2,0,L|68:296,1,120,8|12,0:0|0:0,0:0:0:0:
116,356,44775,1,12,0:0:0:0:
164,280,45132,6,0,P|244:256|308:308,1,160,6|8,0:0|0:0,0:0:0:0:
476,272,46561,2,0,B|492:220|492:220|472:108,1,160,2|8,0:0|0:0,0:0:0:0:
392,80,47632,1,0,0:0:0:0:
320,132,47989,6,0,L|200:116,1,120,6|6,0:0|0:0,0:0:0:0:
172,288,49239,2,0,L|290:303,1,120,6|6,0:0|0:0,0:0:0:0:
284,216,50132,2,0,L|196:204,1,80,0|4,0:0|0:3,0:0:0:0:
120,184,50846,6,0,P|81:116|136:40,2,160,6|2|2,0:0|0:0|0:0,0:0:0:0:
200,216,52632,2,0,L|292:212,2,80,8|2|8,0:0|0:0|0:0,0:0:0:0:
176,300,53704,6,0,L|344:292,1,160,2|2,0:0|0:0,0:0:0:0:
420,264,54775,1,8,0:0:0:0:
352,208,55132,2,0,P|340:128|408:68,2,160,2|2|2,0:0|0:0|0:0,0:0:0:0:
420,152,56918,6,0,L|264:114,1,160,8|8,0:0|0:0,0:0:0:0:
192,64,57989,2,0,P|136:60|76:88,2,120,2|0|8,0:0|0:0|0:0,0:0:0:0:
265,114,59418,6,0,L|257:302,1,160,2|2,0:0|0:0,0:0:0:0:
200,340,60489,1,8,0:0:0:0:
168,256,60846,2,0,L|80:260,1,80,2|8,0:0|0:0,0:0:0:0:
80,172,61561,2,0,L|159:168,1,80,2|8,0:0|0:0,0:0:0:0:
244,200,62275,6,0,P|284:268|240:348,2,160,6|2|2,0:0|0:0|0:0,0:0:0:0:
160,168,64061,2,0,P|248:176|320:152,1,160,8|8,0:0|0:0,0:0:0:0:
308,68,65132,6,0,P|220:60|148:84,2,160,2|2|2,0:0|0:0|0:0,0:0:0:0:
384,112,66918,1,12,0:0:0:0:
328,180,67275,2,0,B|320:220|320:220|328:276,1,80,12|8,0:0|0:0,0:0:0:0:
400,304,67989,6,0,B|344:296|344:296|292:308|292:308|232:300,1,160,6|2,0:0|0:0,0:0:0:0:
160,268,69061,1,8,0:0:0:0:
80,304,69418,2,0,P|20:256|52:172,2,160,2|2|2,0:0|0:0|0:0,0:0:0:0:
168,288,71204,5,8,0:0:0:0:
252,312,71561,2,0,P|264:264|260:224,1,80,2|8,0:0|0:0,0:0:0:0:
224,156,72275,2,0,L|52:164,2,160,2|2|2,0:0|0:0|0:0,0:0:0:0:
288,96,74061,6,0,P|364:80|412:152,1,160,8|8,0:0|0:0,0:0:0:0:
388,224,75132,2,0,L|248:232,2,120,2|0|8,0:0|0:0|0:0,0:0:0:0:
404,312,76561,6,0,L|236:320,1,160,2|2,0:0|0:0,0:0:0:0:
156,316,77632,1,8,0:0:0:0:
100,248,77989,2,0,P|92:200|96:160,1,80,2|8,0:0|0:0,0:0:0:0:
180,156,78704,2,0,P|188:204|184:244,1,80,2|8,0:0|0:0,0:0:0:0:
156,316,79418,6,0,P|228:280|316:292,1,160,6|2,0:0|0:0,0:0:0:0:
376,336,80489,1,8,0:0:0:0:
448,284,80846,2,0,P|460:208|392:168,1,160,2|2,0:0|0:0,0:0:0:0:
312,184,81918,1,8,0:0:0:0:
228,164,82275,6,0,P|216:120|216:84,1,80,2|8,0:0|0:0,0:0:0:0:
128,76,82989,2,0,P|128:128|144:196,2,120,4|2|8,0:3|0:0|0:0,0:0:0:0:
208,36,84418,2,0,L|300:44,1,80,2|4,0:0|0:3,0:0:0:0:
332,120,85132,6,0,L|476:108,1,120,6|2,0:0|0:0,0:0:0:0:
508,176,86025,1,0,0:0:0:0:
428,212,86382,2,0,B|420:268|452:312|452:312|420:324|372:296,1,160,2|2,0:0|0:0,0:0:0:0:
312,212,87632,1,0,0:0:0:0:
232,252,87989,6,0,P|172:256|108:236,1,120,2|2,0:0|0:0,0:0:0:0:
112,64,89239,2,0,P|188:60|272:88,1,160,2|2,0:0|0:0,0:0:0:0:
400,260,90846,6,0,L|404:76,1,160,6|2,0:0|0:0,0:0:0:0:
340,40,91918,1,2,0:0:0:0:
264,80,92275,2,0,P|224:80|172:60,1,80,2|2,0:0|0:0,0:0:0:0:
104,36,92989,2,0,P|64:41|28:58,1,80,2|2,0:0|0:0,0:0:0:0:
12,144,93704,6,0,L|20:328,1,160,2|2,0:0|0:0,0:0:0:0:
92,352,94775,2,0,L|148:344,1,40,2|2,0:0|0:0,0:0:0:0:
472,140,96561,6,0,L|340:124,2,120,2|2|8,0:0|0:0|0:0,0:0:0:0:
508,220,97989,2,0,P|488:292|396:288,1,160,8|8,0:0|0:0,0:0:0:0:
340,248,99061,1,8,0:0:0:0:
272,304,99418,6,0,B|212:320|212:320|136:300,2,120,10|2|8,0:0|0:0|0:0,0:0:0:0:
340,248,100846,2,0,P|328:168|332:80,1,160,8|8,0:0|0:0,0:0:0:0:
392,24,101918,1,8,0:0:0:0:
464,76,102275,6,0,P|472:136|468:212,2,120,10|2|8,0:0|0:0|0:0,0:0:0:0:
392,24,103704,2,0,L|224:36,1,160,8|8,0:0|0:0,0:0:0:0:
164,88,104775,1,8,0:0:0:0:
84,48,105132,6,0,P|64:112|68:168,2,120,10|2|8,0:0|0:0|0:0,0:0:0:0:
164,88,106561,2,0,P|172:154|200:203,2,120,2|2|4,0:0|0:0|0:3,0:0:0:0:
228,28,107989,6,0,L|392:36,1,160,6|2,0:0|0:0,0:0:0:0:
460,88,109061,1,8,0:0:0:0:
380,128,109418,2,0,L|220:120,2,160,2|2|2,0:0|0:0|0:0,0:0:0:0:
444,188,111204,5,8,0:0:0:0:
360,216,111561,2,0,L|368:296,1,80,2|8,0:0|0:0,0:0:0:0:
308,360,112275,2,0,P|224:368|148:320,2,160,2|2|2,0:0|0:0|0:0,0:0:0:0:
376,304,114061,6,0,L|372:212,2,80,8|2|8,0:0|0:0|0:0,0:0:0:0:
464,292,115132,2,0,L|456:124,1,160,2|2,0:0|0:0,0:0:0:0:
388,80,116204,1,8,0:0:0:0:
324,140,116561,6,0,P|248:164|164:144,1,160,2|2,0:0|0:0,0:0:0:0:
89,114,117632,1,8,0:0:0:0:
28,176,117989,2,0,L|44:360,1,160,6|6,0:0|0:0,0:0:0:0:
128,356,119061,1,8,0:0:0:0:
184,288,119418,6,0,P|236:264|300:276,1,120,12|8,0:0|0:0,0:0:0:0:
412,336,120489,2,0,B|424:288|424:288|408:208,1,120,8|8,0:0|0:0,0:0:0:0:
300,148,121561,2,0,L|200:156,1,80,12|12,0:0|0:0,0:0:0:0:
200,68,122275,6,0,L|324:60,1,120,12|8,0:0|0:0,0:0:0:0:
436,120,123346,2,0,P|460:176|448:244,1,120,8|8,0:0|0:0,0:0:0:0:
340,304,124418,2,0,L|256:296,1,80,12|12,0:0|0:0,0:0:0:0:
184,252,125132,6,0,P|104:264|20:272,2,160,6|8|2,0:0|0:0|0:0,0:0:0:0:
264,288,126918,1,0,0:0:0:0:
336,236,127275,2,0,P|344:196|340:148,1,80,8|8,0:0|0:0,0:0:0:0:
428,140,127989,6,0,P|432:216|420:272,1,120,6|6,0:0|0:0,0:0:0:0:
248,252,129239,2,0,P|244:176|256:120,1,120,6|6,0:0|0:0,0:0:0:0:
332,100,130132,2,0,L|420:104,1,80,0|4,0:0|0:3,0:0:0:0:
436,20,130846,6,0,L|248:12,1,160,6|2,0:0|0:0,0:0:0:0:
204,64,131918,1,8,0:0:0:0:
120,32,132275,2,0,P|44:40|36:132,2,160,2|2|2,0:0|0:0|0:0,0:0:0:0:
180,96,134061,6,0,L|176:256,1,160,8|8,0:0|0:0,0:0:0:0:
244,312,135132,2,0,P|288:308|328:292,1,80,2|8,0:0|0:0,0:0:0:0:
400,256,135846,2,0,P|439:259|477:273,2,80,2|8|2,0:0|0:0|0:0,0:0:0:0:
324,212,136918,6,0,B|304:116|304:116|328:48,1,160,8|8,0:0|0:0,0:0:0:0:
244,24,137989,2,0,P|188:20|120:36,2,120,2|0|8,0:0|0:0|0:0,0:0:0:0:
268,108,139418,6,0,P|196:132|112:116,1,160,2|2,0:0|0:0,0:0:0:0:
44,64,140489,1,8,0:0:0:0:
16,148,140846,2,0,L|24:236,1,80,2|8,0:0|0:0,0:0:0:0:
80,296,141561,2,0,P|120:304|160:300,1,80,2|8,0:0|0:0,0:0:0:0:
236,256,142275,6,0,P|312:244|404:264,2,160,6|2|2,0:0|0:0|0:0,0:0:0:0:
156,224,144061,2,0,P|114:159|172:84,1,160,8|8,0:0|0:0,0:0:0:0:
228,52,145132,6,0,L|396:60,1,160,2|2,0:0|0:0,0:0:0:0:
456,116,146204,1,8,0:0:0:0:
372,148,146561,2,0,L|280:144,1,80,2|12,0:0|0:0,0:0:0:0:
292,232,147275,2,0,B|384:236,1,80,12|8,0:0|0:0,0:0:0:0:
404,316,147989,6,0,P|324:328|240:300,1,160,6|2,0:0|0:0,0:0:0:0:
188,240,149061,1,8,0:0:0:0:
128,304,149418,2,0,B|140:248|140:248|104:208|112:136,2,160,2|2|2,0:0|0:0|0:0,0:0:0:0:
205,346,151204,5,8,0:0:0:0:
268,284,151561,2,0,P|307:286|346:296,1,80,2|8,0:0|0:0,0:0:0:0:
396,224,152275,2,0,P|324:200|232:204,2,160,2|2|2,0:0|0:0|0:0,0:0:0:0:
452,292,154061,6,0,P|444:208|460:116,1,160,8|8,0:0|0:0,0:0:0:0:
392,72,155132,2,0,B|332:64|332:64|252:80,2,120,2|0|8,0:0|0:0|0:0,0:0:0:0:
411,158,156561,6,0,B|335:174|335:174|247:158,1,160,2|2,0:0|0:0,0:0:0:0:
184,104,157632,1,8,0:0:0:0:
112,156,157989,2,0,P|103:194|100:240,2,80,2|8|2,0:0|0:0|0:0,0:0:0:0:
192,192,159061,1,8,0:0:0:0:
184,104,159418,6,0,P|104:128|24:116,2,160,6|2|2,0:0|0:0|0:0,0:0:0:0:
240,36,161204,1,8,0:0:0:0:
304,96,161561,2,0,L|308:196,1,80,2|8,0:0|0:0,0:0:0:0:
368,240,162275,6,0,P|408:240|460:224,1,80,2|8,0:0|0:0,0:0:0:0:
476,312,162989,2,0,P|417:326|356:328,2,120,4|2|8,0:3|0:0|0:0,0:0:0:0:
504,228,164418,2,0,L|496:136,1,80,0|0,0:0|0:3,0:0:0:0:
488,60,165132,5,4,0:0:0:0:
96,96,176561,6,0,L|292:80,1,160,6|2,0:0|0:0,0:0:0:0:
336,124,177632,1,8,0:0:0:0:
424,108,177989,2,0,P|432:144|432:192,1,80,2|8,0:0|0:0,0:0:0:0:
384,260,178704,2,0,P|349:274|302:282,1,80,2|8,0:0|0:0,0:0:0:0:
220,268,179418,6,0,B|140:256|140:256|96:272,1,120,6|6,0:0|0:0,0:0:0:0:
96,92,180668,2,0,B|176:104|176:104|220:88,1,120,6|8,0:0|0:0,0:0:0:0:
288,48,181561,2,0,P|332:48|380:64,1,80,8|2,0:0|0:0,0:0:0:0:
436,112,182275,6,0,L|428:204,1,80,6|8,0:0|0:0,0:0:0:0:
364,252,182989,2,0,L|380:388,2,120,2|6|8,0:0|0:0|0:0,0:0:0:0:
300,192,184418,2,0,P|251:192|213:207,1,80,2|8,0:0|0:0,0:0:0:0:
144,240,185132,6,0,P|104:234|68:216,1,80,6|8,0:0|0:0,0:0:0:0:
8,152,185846,2,0,L|16:24,1,120,2|8,0:0|0:0,0:0:0:0:
232,64,187275,2,0,L|226:162,1,80,2|2,0:0|0:0,0:0:0:0:
276,216,187989,6,0,P|356:232|424:180,2,160,6|2|2,0:0|0:0|0:0,0:0:0:0:
216,152,189775,1,8,0:0:0:0:
140,200,190132,2,0,P|144:244|144:284,1,80,2|8,0:0|0:0,0:0:0:0:
60,300,190846,6,0,P|60:228|48:136,1,160,2|2,0:0|0:0,0:0:0:0:
112,80,191918,1,8,0:0:0:0:
184,132,192275,2,0,P|228:132|264:120,1,80,2|8,0:0|0:0,0:0:0:0:
340,80,192989,2,0,P|379:82|417:96,1,80,2|8,0:0|0:0,0:0:0:0:
476,160,193704,6,0,L|468:336,1,160,2|2,0:0|0:0,0:0:0:0:
380,328,194775,2,0,L|384:236,1,80,8|2,0:0|0:0,0:0:0:0:
340,172,195489,2,0,P|264:152|196:208,1,160,8|8,0:0|0:0,0:0:0:0:
164,276,196561,6,0,P|165:194|143:113,1,160,2|2,0:0|0:0,0:0:0:0:
64,88,197632,1,8,0:0:0:0:
0,148,197989,2,0,P|-3:210|16:275,2,120,6|6|8,0:0|0:0|0:0,0:0:0:0:
64,88,199418,6,0,L|248:100,1,160,6|2,0:0|0:0,0:0:0:0:
284,160,200489,1,8,0:0:0:0:
352,104,200846,2,0,P|424:120|428:204,1,160,2|2,0:0|0:0,0:0:0:0:
368,256,201918,1,8,0:0:0:0:
288,220,202275,6,0,P|248:221|209:233,1,80,2|8,0:0|0:0,0:0:0:0:
128,268,202989,2,0,P|76:264|8:240,2,120,2|0|8,0:0|0:0|0:0,0:0:0:0:
200,216,204418,2,0,L|204:128,1,80,2|8,0:0|0:0,0:0:0:0:
288,112,205132,6,0,L|280:280,2,160,2|2|2,0:0|0:0|0:0,0:0:0:0:
364,68,206918,1,8,0:0:0:0:
396,152,207275,2,0,L|496:144,1,80,2|8,0:0|0:0,0:0:0:0:
488,232,207989,6,0,L|408:238,1,80,2|8,0:0|0:0,0:0:0:0:
328,272,208704,2,0,L|196:260,1,120,2|8,0:0|0:0,0:0:0:0:
120,248,209596,1,8,0:0:0:0:
36,276,209954,2,0,P|12:224|32:144,1,120,8|4,0:0|0:3,0:0:0:0:
256,192,210846,12,6,213704,0:0:0:0:
412,184,225132,6,0,L|420:36,2,120,6|0|0,0:0|0:0|0:0,0:0:0:0:
360,256,226561,2,0,P|366:294|368:348,2,80,6|0|0,0:0|0:0|0:0,0:0:0:0:
284,208,227632,1,0,0:0:0:0:
212,256,227989,6,0,P|136:248|120:160,2,160,6|0|2,0:0|0:0|0:0,0:0:0:0:
284,208,229775,1,2,0:0:0:0:
356,260,230132,2,0,L|352:352,1,80,2|2,0:0|0:0,0:0:0:0:
440,356,230846,6,0,L|444:192,1,160,6|2,0:0|0:0,0:0:0:0:
384,132,231918,1,8,0:0:0:0:
304,168,232275,2,0,P|228:176|144:148,2,160,2|2|2,0:0|0:0|0:0,0:0:0:0:
276,84,234061,6,0,P|236:76|192:76,2,80,8|2|8,0:0|0:0|0:0,0:0:0:0:
304,168,235132,2,0,L|296:336,1,160,2|2,0:0|0:0,0:0:0:0:
380,360,236204,1,8,0:0:0:0:
370,272,236561,6,0,P|306:236|214:288,1,160,6|2,0:0|0:0,0:0:0:0:
156,312,237632,1,8,0:0:0:0:
84,260,237989,2,0,B|76:188|76:188|88:136,2,120,2|0|8,0:0|0:0|0:0,0:0:0:0:
168,232,239418,6,0,B|212:224|212:224|280:236|280:236|336:228,1,160,2|2,0:0|0:0,0:0:0:0:
404,188,240489,1,8,0:0:0:0:
332,136,240846,2,0,L|336:56,1,80,2|8,0:0|0:0,0:0:0:0:
248,48,241561,2,0,L|244:128,1,80,8|8,0:0|0:0,0:0:0:0:
172,180,242275,6,0,B|124:188|96:160|96:160|72:192|20:192,2,160,6|2|2,0:0|0:0|0:0,0:0:0:0:
252,144,244061,2,0,P|292:140|336:148,2,80,8|2|8,0:0|0:0|0:0,0:0:0:0:
180,192,245132,6,0,L|184:276,1,80,2|8,0:0|0:0,0:0:0:0:
96,280,245846,2,0,L|92:148,2,120,2|6|8,0:0|0:0|0:0,0:0:0:0:
176,320,247275,2,0,P|220:328|260:324,1,80,12|8,0:0|0:0,0:0:0:0:
340,304,247989,6,0,P|378:281|406:253,1,80,8|8,0:0|0:0,0:0:0:0:
452,184,248704,2,0,L|444:88,1,80,8|8,0:0|0:0,0:0:0:0:
376,52,249418,2,0,P|296:52|280:128,2,160,8|8|2,0:0|0:0|0:0,0:0:0:0:
448,104,251204,5,8,0:0:0:0:
452,192,251561,2,0,L|448:328,2,120,4|6|8,0:3|0:0|0:0,0:0:0:0:
156,120,254954,6,0,P|108:136|96:240,1,160,6|8,0:0|0:0,0:0:0:0:
148,300,256025,2,0,L|296:296,1,120,2|2,0:0|0:0,0:0:0:0:
352,268,256918,2,0,L|448:264,2,80,8|2|8,0:0|0:0|0:0,0:0:0:0:
284,212,257989,6,0,B|260:144|280:100|280:100|240:72,1,160,2|2,0:0|0:0,0:0:0:0:
156,96,259061,1,8,0:0:0:0:
72,76,259418,2,0,B|60:112|60:112|56:168,1,80,2|12,0:0|0:0,0:0:0:0:
56,240,260132,2,0,P|80:308|176:308,1,160,12|6,0:0|0:0,0:0:0:0:
244,288,261204,5,8,0:0:0:0:
328,312,261561,2,0,P|338:273|338:227,1,80,2|8,0:0|0:0,0:0:0:0:
420,196,262275,2,0,P|428:268|404:360,2,160,2|2|2,0:0|0:0|0:0,0:0:0:0:
356,136,264061,6,0,L|256:148,1,80,8|2,0:0|0:0,0:0:0:0:
200,192,264775,1,8,0:0:0:0:
120,160,265132,2,0,P|108:100|112:24,2,120,6|6|2,0:0|0:0|0:0,0:0:0:0:
200,192,266561,6,0,P|132:188|60:256,2,160,6|2|0,0:0|0:0|0:0,0:0:0:0:
272,244,268346,2,0,P|316:240|356:224,1,80,8|2,0:0|0:0,0:0:0:0:
380,144,269061,1,8,0:0:0:0:
460,180,269418,6,0,P|512:236|464:324,1,160,2|2,0:0|0:0,0:0:0:0:
404,336,270489,1,8,0:0:0:0:
324,300,270846,2,0,L|328:216,1,80,2|12,0:0|0:0,0:0:0:0:
256,168,271561,2,0,P|176:192|92:188,1,160,12|6,0:0|0:0,0:0:0:0:
52,116,272632,6,0,L|60:24,2,80,8|2|8,0:0|0:0|0:0,0:0:0:0:
12,196,273704,2,0,B|16:304|16:304|60:344,1,160,2|2,0:0|0:0,0:0:0:0:
136,308,274775,1,8,0:0:0:0:
216,340,275132,6,0,B|254:305|254:305|258:197,1,160,2|2,0:0|0:0,0:0:0:0:
212,120,276204,1,8,0:0:0:0:
280,64,276561,2,0,P|344:52|408:80,2,120,6|6|8,0:0|0:0|0:0,0:0:0:0:
220,124,277989,6,0,B|152:132|152:132|96:112,1,120,2|2,0:0|0:0,0:0:0:0:
32,64,278914,1,0,0:0:0:0:
0,148,279285,2,0,P|0:192|12:236,1,80,2|2,0:0|0:0,0:0:0:0:
72,288,280026,1,0,0:0:0:0:
288,336,280951,6,0,P|340:340|412:312,1,120,2|2,0:0|0:0,0:0:0:0:
392,144,282248,2,0,P|312:140|236:176,1,160,2|2,0:0|0:0,0:0:0:0:
200,252,283359,2,0,L|208:308,1,40
124,324,283914,6,0,B|112:248|112:248|124:200,1,120,2|2,0:0|0:0,0:0:0:0:
144,120,284840,1,0,0:0:0:0:
220,164,285211,2,0,P|260:160|312:144,1,80,2|0,0:0|0:0,0:0:0:0:
352,80,285951,1,2,0:0:0:0:
488,252,286877,6,0,P|436:256|360:240,1,120,2|2,0:0|0:0,0:0:0:0:
240,124,288174,2,0,P|160:124|76:160,1,160,2|2,0:0|0:0,0:0:0:0:
256,192,289285,12,0,292989,0:0:0:0:
