osu file format v14

[General]
AudioFilename: Song_starlog.mp3
AudioLeadIn: 1100
PreviewTime: 130132
Countdown: 0
SampleSet: Soft
StackLeniency: 0.4
Mode: 3
LetterboxInBreaks: 0
SpecialStyle: 0
WidescreenStoryboard: 1

[Editor]
DistanceSpacing: 1.3
BeatDivisor: 4
GridSize: 4
TimelineZoom: 2.699999

[Metadata]
Title:starlog
TitleUnicode:starlog
Artist:ChouCho
ArtistUnicode:ちょうちょ
Creator:17VA
Version:Insane
Source:Fate/kaleid liner PRISMA☆ILLYA
Tags:opening Prismaillya Illyasviel von Einzbern Miyu Edelfelt Kadowaki Mai Nazuka Kaori プリズマ☆イリヤ LordRaika
BeatmapID:599617
BeatmapSetID:254713

[Difficulty]
HPDrainRate:8.5
CircleSize:7
OverallDifficulty:6.6
ApproachRate:10
SliderMultiplier:1.72
SliderTickRate:1

[Events]
//Background and Video events
0,0,"bg.jpg",0,0
//Break Periods
//Storyboard Layer 0 (Background)
//Storyboard Layer 1 (Fail)
//Storyboard Layer 2 (Pass)
//Storyboard Layer 3 (Foreground)
//Storyboard Sound Samples
Sample,204418,0,"soft-hitwhistle.wav",70
Sample,204418,0,"soft-hitwhistle.wav",70

[TimingPoints]
847,357.142857142857,4,2,1,0,1,0
5132,-100,4,2,1,0,0,1
5221,-100,4,2,1,0,0,0
16561,-200,4,2,1,0,0,0
27632,-333.333333333333,4,2,1,0,0,0
27811,-133.333333333333,4,2,1,0,0,0
27900,-66.6666666666667,4,2,1,0,0,0
27989,-100,4,2,1,0,0,0
45132,-133.333333333333,4,2,1,0,0,0
47989,-100,4,2,1,0,0,0
50846,-100,4,2,1,0,0,1
85132,-100,4,2,1,0,0,0
94954,-50,4,2,1,0,0,0
96204,-100,4,2,1,0,0,0
96561,-200,4,2,1,0,0,0
107632,-333.333333333333,4,2,1,0,0,0
107811,-133.333333333333,4,2,1,0,0,0
107900,-66.6666666666667,4,2,1,0,0,0
107989,-100,4,2,1,0,0,0
125132,-133.333333333333,4,2,1,0,0,0
127989,-100,4,2,1,0,0,0
129775,-0.1,4,2,1,0,0,0
129998,-133.333333333333,4,2,1,0,0,0
130713,-227.272727272727,4,2,1,0,0,0
130757,-59.8802395209581,4,2,1,0,0,0
130846,-100,4,2,1,0,0,1
164775,-250,4,2,1,0,0,0
164775,-250,4,2,1,0,0,0
164954,-133.333333333333,4,2,1,0,0,0
165043,-66.6666666666667,4,2,1,0,0,0
165132,-200,4,2,1,0,0,0
175132,-100,4,2,1,0,0,0
186382,-0.1,4,2,1,0,0,0
186471,-100,4,2,1,0,0,0
186650,-555.555555555556,4,2,1,0,0,0
186873,-200,4,2,1,0,0,0
186918,-142.857142857143,4,2,1,0,0,0
186963,-100,4,2,1,0,0,0
210579,-33.3333333333333,4,2,1,0,0,0
210668,-66.6666666666667,4,2,1,0,0,0
210757,-133.333333333333,4,2,1,0,0,0
210846,-200,4,2,1,0,0,0
224820,-66.6666666666667,4,2,1,0,0,0
225043,-100,4,2,1,0,0,0
225132,-123.456790123457,4,2,1,0,0,0
230846,-100,4,2,1,0,0,1
252632,-0.1,4,2,1,0,0,0
252632,-0.1,4,2,1,0,0,0
254329,-1000,4,2,1,0,0,0
254730,-200,4,2,1,0,0,0
254775,-133.333333333333,4,2,1,0,0,0
254820,-100,4,2,1,0,0,0
277989,370.37037037037,4,2,1,0,1,0

[Colours]
Combo1 : 255,189,157
Combo2 : 255,255,176
Combo3 : 255,181,255
Combo4 : 185,255,255

[HitObjects]
109,192,713,5,0,0:0:0:0:
182,192,787,5,0,0:0:0:0:
256,192,817,1,0,0:0:0:0:
329,192,846,1,0,0:0:0:0:
402,192,846,1,0,0:0:0:0:
36,192,846,1,0,0:0:0:0:
475,192,1204,1,0,0:0:0:0:
109,192,1382,1,0,0:0:0:0:
256,192,1382,1,0,0:0:0:0:
36,192,1739,1,0,0:0:0:0:
182,192,1739,128,0,2275:0:0:0:0:
36,192,2275,1,0,0:0:0:0:
256,192,2275,1,0,0:0:0:0:
475,192,2275,1,0,0:0:0:0:
329,192,2454,1,0,0:0:0:0:
109,192,2454,1,0,0:0:0:0:
475,192,2632,1,0,0:0:0:0:
256,192,2632,1,0,0:0:0:0:
36,192,2811,1,0,0:0:0:0:
182,192,2811,1,0,0:0:0:0:
402,192,3168,128,0,4418:0:0:0:0:
109,192,3168,128,0,4418:0:0:0:0:
256,192,3704,128,0,4418:0:0:0:0:
36,192,4418,1,0,0:0:0:0:
182,192,4418,1,0,0:0:0:0:
329,192,4418,1,0,0:0:0:0:
475,192,4418,1,0,0:0:0:0:
182,192,4596,128,0,4775:0:0:0:0:
109,192,4686,128,0,4864:0:0:0:0:
36,192,4775,128,0,4954:0:0:0:70:soft-hitclap.wav
256,192,4775,128,0,4954:0:0:0:0:
402,192,4775,1,0,0:0:0:0:
475,192,4775,1,0,0:0:0:0:
329,192,4864,128,0,5043:0:0:0:0:
402,192,4954,128,0,5132:0:0:0:0:
475,192,5043,128,0,5132:0:0:0:0:
182,192,5132,128,0,5668:0:0:0:70:soft-hitwhistle.wav
36,192,5132,1,0,0:0:0:70:cymbol.wav
256,192,5311,1,0,0:0:0:0:
109,192,5489,1,0,0:0:0:70:soft-hitclap.wav
475,192,5489,1,0,0:0:0:0:
329,192,5489,1,0,0:0:0:0:
402,192,5668,128,0,5846:0:0:0:0:
256,192,5668,1,0,0:0:0:0:
36,192,5846,1,0,0:0:0:70:soft-hitwhistle.wav
256,192,6025,128,0,6204:0:0:0:0:
329,192,6025,1,0,0:0:0:0:
182,192,6204,1,0,0:0:0:70:soft-hitclap.wav
475,192,6204,1,0,0:0:0:0:
402,192,6204,1,0,0:0:0:0:
109,192,6382,128,0,7275:0:0:0:0:
329,192,6382,1,0,0:0:0:0:
36,192,6561,1,0,0:0:0:70:soft-hitwhistle.wav
402,192,6561,1,0,0:0:0:0:
256,192,6739,1,0,0:0:0:0:
182,192,6918,1,0,0:0:0:70:soft-hitclap.wav
402,192,6918,1,0,0:0:0:0:
475,192,6918,1,0,0:0:0:0:
256,192,7096,1,0,0:0:0:0:
36,192,7275,1,0,0:0:0:70:soft-hitwhistle.wav
402,192,7275,1,0,0:0:0:0:
182,192,7454,128,0,7632:0:0:0:0:
109,192,7543,128,0,7721:0:0:0:0:
402,192,7632,1,0,0:0:0:70:soft-hitclap.wav
475,192,7632,1,0,0:0:0:0:
36,192,7632,128,0,7811:0:0:0:0:
256,192,7632,128,0,7811:0:0:0:0:
329,192,7721,128,0,7900:0:0:0:0:
402,192,7811,128,0,7989:0:0:0:0:
475,192,7900,128,0,7989:0:0:0:0:
182,192,7989,128,0,8525:0:0:0:70:soft-hitwhistle.wav
36,192,7989,1,0,0:0:0:0:
256,192,8168,1,0,0:0:0:0:
109,192,8346,1,0,0:0:0:70:soft-hitclap.wav
329,192,8346,1,0,0:0:0:0:
475,192,8346,1,0,0:0:0:0:
402,192,8525,128,0,8704:0:0:0:0:
256,192,8525,1,0,0:0:0:0:
36,192,8704,1,0,0:0:0:70:soft-hitwhistle.wav
256,192,8882,128,0,9061:0:0:0:0:
329,192,8882,1,0,0:0:0:0:
402,192,9061,1,0,0:0:0:70:soft-hitclap.wav
475,192,9061,1,0,0:0:0:0:
182,192,9061,1,0,0:0:0:0:
109,192,9239,128,0,9775:0:0:0:0:
329,192,9239,1,0,0:0:0:0:
36,192,9418,1,0,0:0:0:70:soft-hitwhistle.wav
256,192,9418,1,0,0:0:0:0:cymbol.wav
475,192,9418,1,0,0:0:0:0:
182,192,9596,1,0,0:0:0:0:
402,192,9775,128,0,9954:0:0:0:0:cymbol.wav
329,192,9775,1,0,0:0:0:0:
36,192,9775,1,0,0:0:0:0:
475,192,9775,1,0,0:0:0:0:
36,192,10132,128,0,10400:0:0:0:70:soft-hitclap.wav
256,192,10132,128,0,10400:0:0:0:0:
475,192,10132,128,0,10400:0:0:0:0:
182,192,10400,128,0,10846:0:0:0:70:soft-hitclap.wav
329,192,10400,128,0,10846:0:0:0:0:
36,192,10668,128,0,10846:0:0:0:70:soft-hitclap.wav
475,192,10668,128,0,10846:0:0:0:0:
109,192,10846,128,0,11204:0:0:0:70:soft-hitwhistle.wav
256,192,10846,1,0,0:0:0:0:
402,192,10846,128,0,11204:0:0:0:0:
256,192,11025,1,0,0:0:0:0:
475,192,11204,128,0,11918:0:0:0:70:soft-hitclap.wav
36,192,11204,1,0,0:0:0:0:
182,192,11204,1,0,0:0:0:0:
329,192,11204,1,0,0:0:0:0:
256,192,11382,1,0,0:0:0:0:
329,192,11561,128,0,11918:0:0:0:70:soft-hitwhistle.wav
36,192,11561,1,0,0:0:0:0:
256,192,11739,1,0,0:0:0:0:
402,192,11918,128,0,13704:0:0:0:70:soft-hitclap.wav
109,192,11918,1,0,0:0:0:0:
182,192,11918,1,0,0:0:0:0:
256,192,12096,1,0,0:0:0:0:
109,192,12275,128,0,12811:0:0:0:70:soft-hitwhistle.wav
36,192,12275,1,0,0:0:0:0:
256,192,12454,1,0,0:0:0:0:
36,192,12632,1,0,0:0:0:70:soft-hitclap.wav
329,192,12632,1,0,0:0:0:0:
475,192,12632,1,0,0:0:0:0:
182,192,12811,128,0,13346:0:0:0:0:
256,192,12811,1,0,0:0:0:0:
36,192,12989,1,0,0:0:0:70:soft-hitwhistle.wav
256,192,13168,1,0,0:0:0:0:
36,192,13346,128,0,13704:0:0:0:70:soft-hitclap.wav
109,192,13346,1,0,0:0:0:0:
475,192,13346,1,0,0:0:0:0:
329,192,13525,1,0,0:0:0:0:
256,192,13704,128,0,14239:0:0:0:70:soft-hitwhistle.wav
109,192,13704,1,0,0:0:0:0:
402,192,13882,1,0,0:0:0:0:
36,192,14061,1,0,0:0:0:70:soft-hitclap.wav
182,192,14061,1,0,0:0:0:0:
109,192,14239,128,0,14775:0:0:0:0:
402,192,14239,1,0,0:0:0:0:
182,192,14418,1,0,0:0:0:70:soft-hitwhistle.wav
329,192,14596,1,0,0:0:0:0:
402,192,14775,128,0,15132:0:0:0:70:soft-hitclap.wav
36,192,14775,1,0,0:0:0:0:
182,192,14775,1,0,0:0:0:0:
329,192,14954,1,0,0:0:0:70:soft-hitclap.wav
256,192,15043,1,0,0:0:0:70:soft-hitclap.wav
36,192,15132,128,0,16471:0:0:0:70:soft-hitwhistle.wav
182,192,15132,128,0,15489:0:0:0:70:cymbol.wav
329,192,15311,128,0,15489:0:0:0:0:
475,192,15489,1,0,0:0:0:70:soft-hitwhistle.wav
256,192,15489,128,0,15757:0:0:0:0:
109,192,15668,128,0,16471:0:0:0:70:cymbol.wav
182,192,15668,128,0,15757:0:0:0:0:
402,192,16025,1,0,0:0:0:70:soft-hitclap.wav
402,192,16114,1,0,0:0:0:70:soft-hitclap.wav
402,192,16204,1,0,0:0:0:70:soft-hitclap.wav
256,192,16204,1,0,0:0:0:0:
36,192,16561,1,0,0:0:0:70:soft-hitwhistle.wav
256,192,16561,1,0,0:0:0:0:
475,192,16561,1,0,0:0:0:0:
36,192,16918,1,0,0:0:0:70:soft-hitwhistle.wav
36,192,17275,1,0,0:0:0:70:soft-hitwhistle.wav
36,192,17632,1,0,0:0:0:70:soft-hitwhistle.wav
402,192,17989,1,0,0:0:0:70:soft-hitwhistle.wav
36,192,17989,1,0,0:0:0:0:
402,192,18346,1,0,0:0:0:70:soft-hitwhistle.wav
402,192,18704,1,0,0:0:0:70:soft-hitwhistle.wav
402,192,19061,1,0,0:0:0:70:soft-hitwhistle.wav
402,192,19418,1,0,0:0:0:70:soft-hitwhistle.wav
182,192,19418,1,0,0:0:0:0:
182,192,19775,1,0,0:0:0:70:soft-hitwhistle.wav
182,192,20132,1,0,0:0:0:70:soft-hitwhistle.wav
182,192,20489,1,0,0:0:0:70:soft-hitwhistle.wav
36,192,20846,1,0,0:0:0:70:soft-hitwhistle.wav
182,192,20846,1,0,0:0:0:0:
475,192,20846,128,0,21561:0:0:0:0:
36,192,21204,1,0,0:0:0:70:soft-hitwhistle.wav
36,192,21561,1,0,0:0:0:70:soft-hitwhistle.wav
402,192,21561,128,0,22275:0:0:0:0:
36,192,21918,1,0,0:0:0:70:soft-hitwhistle.wav
36,192,22275,1,0,0:0:0:70:soft-hitwhistle.wav
182,192,22275,1,0,0:0:0:0:
329,192,22275,128,0,23704:0:0:0:0:
182,192,22632,1,0,0:0:0:70:soft-hitwhistle.wav
182,192,22989,1,0,0:0:0:70:soft-hitwhistle.wav
182,192,23346,1,0,0:0:0:70:soft-hitwhistle.wav
402,192,23704,1,0,0:0:0:70:soft-hitwhistle.wav
182,192,23704,1,0,0:0:0:0:
402,192,24061,1,0,0:0:0:70:soft-hitwhistle.wav
109,192,24239,1,0,0:0:0:0:
402,192,24418,1,0,0:0:0:70:soft-hitwhistle.wav
402,192,24775,1,0,0:0:0:70:soft-hitwhistle.wav
402,192,25132,1,0,0:0:0:70:soft-hitwhistle.wav
182,192,25132,1,0,0:0:0:0:
182,192,25489,1,0,0:0:0:70:soft-hitwhistle.wav
329,192,25668,1,0,0:0:0:0:
182,192,25846,1,0,0:0:0:70:soft-hitwhistle.wav
182,192,26204,5,0,0:0:0:70:soft-hitwhistle.wav
329,192,26561,1,0,0:0:0:70:soft-hitfinish.wav
36,192,26561,128,0,27096:0:0:0:0:
182,192,27096,128,0,27632:0:0:0:0:
475,192,27096,1,0,0:0:0:0:
256,192,27632,1,0,0:0:0:70:soft-hitclap.wav
402,192,27632,1,0,0:0:0:0:
109,192,27632,128,0,27989:0:0:0:0:
36,192,27989,1,0,0:0:0:70:soft-hitwhistle.wav
329,192,27989,1,0,0:0:0:70:cymbol.wav
475,192,27989,1,0,0:0:0:0:
256,192,28168,1,0,0:0:0:0:
36,192,28346,1,0,0:0:0:70:soft-hitclap.wav
402,192,28346,1,0,0:0:0:0:
256,192,28525,1,0,0:0:0:0:
36,192,28704,1,0,0:0:0:70:soft-hitwhistle.wav
256,192,28882,1,0,0:0:0:0:
36,192,29061,1,0,0:0:0:70:soft-hitclap.wav
402,192,29061,1,0,0:0:0:0:
256,192,29239,1,0,0:0:0:0:
182,192,29418,1,0,0:0:0:70:soft-hitwhistle.wav
36,192,29418,1,0,0:0:0:0:
256,192,29596,1,0,0:0:0:0:
329,192,29775,1,0,0:0:0:70:soft-hitclap.wav
109,192,29775,1,0,0:0:0:0:
256,192,29954,1,0,0:0:0:0:
182,192,30132,1,0,0:0:0:70:soft-hitwhistle.wav
256,192,30311,1,0,0:0:0:0:
329,192,30489,1,0,0:0:0:70:soft-hitclap.wav
109,192,30489,1,0,0:0:0:0:
256,192,30668,1,0,0:0:0:0:
402,192,30846,1,0,0:0:0:70:soft-hitwhistle.wav
182,192,30846,1,0,0:0:0:0:
36,192,30846,1,0,0:0:0:0:
329,192,31025,1,0,0:0:0:0:
109,192,31204,1,0,0:0:0:70:soft-hitclap.wav
475,192,31204,1,0,0:0:0:0:
256,192,31382,1,0,0:0:0:0:
402,192,31561,1,0,0:0:0:70:soft-hitwhistle.wav
256,192,31739,1,0,0:0:0:0:
109,192,31918,1,0,0:0:0:70:soft-hitclap.wav
475,192,31918,1,0,0:0:0:0:
329,192,32096,1,0,0:0:0:0:
182,192,32275,1,0,0:0:0:70:soft-hitwhistle.wav
36,192,32275,1,0,0:0:0:0:
402,192,32275,128,0,33704:0:0:0:0:
256,192,32454,1,0,0:0:0:0:
329,192,32632,1,0,0:0:0:70:soft-hitclap.wav
475,192,32632,1,0,0:0:0:0:
182,192,32811,1,0,0:0:0:0:
36,192,32989,1,0,0:0:0:70:soft-hitwhistle.wav
256,192,32989,128,0,33704:0:0:0:0:
109,192,33168,1,0,0:0:0:0:
182,192,33346,1,0,0:0:0:70:soft-hitclap.wav
475,192,33346,1,0,0:0:0:0:
109,192,33525,1,0,0:0:0:0:
36,192,33704,128,0,34239:0:0:0:70:soft-hitwhistle.wav
182,192,33704,1,0,0:0:0:0:
329,192,33704,1,0,0:0:0:0:
402,192,33882,1,0,0:0:0:0:
109,192,34061,1,0,0:0:0:70:soft-hitclap.wav
475,192,34061,1,0,0:0:0:0:
329,192,34239,1,0,0:0:0:0:
182,192,34418,1,0,0:0:0:70:soft-hitwhistle.wav
256,192,34596,1,0,0:0:0:0:
329,192,34775,1,0,0:0:0:70:soft-hitclap.wav
36,192,34775,1,0,0:0:0:0:
182,192,34954,1,0,0:0:0:0:
109,192,35132,1,0,0:0:0:70:soft-hitwhistle.wav
475,192,35132,1,0,0:0:0:0:
256,192,35132,1,0,0:0:0:0:
329,192,35311,1,0,0:0:0:0:
182,192,35489,1,0,0:0:0:70:soft-hitclap.wav
36,192,35489,1,0,0:0:0:0:
329,192,35668,1,0,0:0:0:0:
109,192,35846,1,0,0:0:0:70:soft-hitwhistle.wav
329,192,36025,1,0,0:0:0:0:
182,192,36204,1,0,0:0:0:70:soft-hitclap.wav
36,192,36204,1,0,0:0:0:0:
329,192,36382,1,0,0:0:0:0:
256,192,36561,1,0,0:0:0:70:soft-hitwhistle.wav
109,192,36561,1,0,0:0:0:0:
475,192,36561,1,0,0:0:0:0:
402,192,36739,1,0,0:0:0:0:
36,192,36918,1,0,0:0:0:70:soft-hitclap.wav
329,192,36918,1,0,0:0:0:0:
182,192,37096,1,0,0:0:0:0:
402,192,37275,1,0,0:0:0:70:soft-hitwhistle.wav
256,192,37454,1,0,0:0:0:0:
329,192,37632,1,0,0:0:0:70:soft-hitclap.wav
36,192,37632,1,0,0:0:0:0:
475,192,37632,128,0,37989:0:0:0:0:
182,192,37811,1,0,0:0:0:0:
36,192,37989,1,0,0:0:0:70:soft-hitwhistle.wav
109,192,37989,1,0,0:0:0:70:cymbol.wav
402,192,37989,128,0,39418:0:0:0:0:
256,192,37989,128,0,38704:0:0:0:0:
475,192,38346,1,0,0:0:0:70:soft-hitclap.wav
109,192,38346,1,0,0:0:0:0:
36,192,38704,1,0,0:0:0:70:cymbol.wav
182,192,38704,128,0,39418:0:0:0:0:
329,192,38704,128,0,39418:0:0:0:0:
475,192,39061,1,0,0:0:0:70:soft-hitclap.wav
109,192,39061,1,0,0:0:0:0:
475,192,39418,1,0,0:0:0:70:cymbol.wav
256,192,39418,1,0,0:0:0:0:
36,192,39418,128,0,39864:0:0:0:0:
109,192,39418,128,0,39864:0:0:0:0:
402,192,39596,1,0,0:0:0:0:
402,192,39775,1,0,0:0:0:0:
36,192,39954,128,0,40400:0:0:0:70:soft-hitclap.wav
109,192,39954,128,0,40400:0:0:0:0:
182,192,39954,1,0,0:0:0:0:
402,192,40132,1,0,0:0:0:0:
402,192,40311,1,0,0:0:0:0:
109,192,40489,128,0,40936:0:0:0:70:soft-hitclap.wav
36,192,40489,128,0,40936:0:0:0:0:
182,192,40489,1,0,0:0:0:0:
402,192,40668,1,0,0:0:0:0:
402,192,40846,1,0,0:0:0:0:
36,192,41025,128,0,41471:0:0:0:70:soft-hitclap.wav
109,192,41025,128,0,41471:0:0:0:0:
182,192,41025,1,0,0:0:0:0:
402,192,41204,1,0,0:0:0:0:
402,192,41382,1,0,0:0:0:0:
182,192,41561,128,0,41829:0:0:0:70:soft-hitclap.wav
256,192,41561,1,0,0:0:0:70:cymbol.wav
109,192,41561,128,0,41829:0:0:0:0:
36,192,41561,1,0,0:0:0:0:
475,192,41561,1,0,0:0:0:0:
256,192,41918,1,0,0:0:0:70:soft-hitclap.wav
36,192,41918,1,0,0:0:0:70:cymbol.wav
329,192,41918,128,0,42186:0:0:0:0:
402,192,41918,128,0,42186:0:0:0:0:
475,192,41918,1,0,0:0:0:0:
402,192,42275,128,0,42721:0:0:0:70:soft-hitclap.wav
256,192,42275,1,0,0:0:0:70:cymbol.wav
36,192,42275,1,0,0:0:0:0:
475,192,42275,128,0,42721:0:0:0:0:
329,192,42275,1,0,0:0:0:0:
109,192,42454,1,0,0:0:0:0:
109,192,42632,1,0,0:0:0:0:
402,192,42811,128,0,43257:0:0:0:70:soft-hitclap.wav
475,192,42811,128,0,43257:0:0:0:0:
329,192,42811,1,0,0:0:0:0:
109,192,42989,1,0,0:0:0:0:
109,192,43168,1,0,0:0:0:0:
475,192,43346,128,0,43793:0:0:0:70:soft-hitclap.wav
402,192,43346,128,0,43793:0:0:0:0:
329,192,43346,1,0,0:0:0:0:
109,192,43525,1,0,0:0:0:0:
109,192,43704,1,0,0:0:0:0:
475,192,43882,128,0,44329:0:0:0:70:soft-hitclap.wav
402,192,43882,128,0,44329:0:0:0:0:
329,192,43882,1,0,0:0:0:0:
109,192,44061,1,0,0:0:0:0:
109,192,44239,1,0,0:0:0:0:
36,192,44418,128,0,44686:0:0:0:70:soft-hitclap.wav
109,192,44418,128,0,44686:0:0:0:70:cymbol.wav
256,192,44418,1,0,0:0:0:0:
475,192,44418,128,0,44686:0:0:0:0:
402,192,44418,128,0,44686:0:0:0:0:
36,192,44775,128,0,45043:0:0:0:70:soft-hitclap.wav
402,192,44775,128,0,45043:0:0:0:70:cymbol.wav
256,192,44775,1,0,0:0:0:0:
475,192,44775,128,0,45043:0:0:0:0:
109,192,44775,128,0,45043:0:0:0:0:
36,192,45132,1,0,0:0:0:70:cymbol.wav
475,192,45132,1,0,0:0:0:0:
109,192,45132,1,0,0:0:0:0:
256,192,45132,1,0,0:0:0:0:
402,192,45132,1,0,0:0:0:0:
182,192,45311,1,0,0:0:0:0:
256,192,45489,1,0,0:0:0:0:
329,192,45668,1,0,0:0:0:0:
256,192,45846,1,0,0:0:0:70:soft-hitclap.wav
475,192,45846,1,0,0:0:0:0:
36,192,45846,1,0,0:0:0:0:
109,192,45846,128,0,46561:0:0:0:0:
402,192,46025,1,0,0:0:0:0:
182,192,46204,1,0,0:0:0:0:
329,192,46382,1,0,0:0:0:0:
36,192,46561,1,0,0:0:0:70:soft-hitwhistle.wav
182,192,46561,1,0,0:0:0:0:
402,192,46561,128,0,47275:0:0:0:0:
329,192,46739,1,0,0:0:0:70:soft-hitclap.wav
256,192,46739,1,0,0:0:0:0:
182,192,47096,1,0,0:0:0:70:soft-hitwhistle.wav
36,192,47096,1,0,0:0:0:0:
329,192,47275,1,0,0:0:0:70:soft-hitclap.wav
109,192,47275,1,0,0:0:0:0:
256,192,47275,128,0,47989:0:0:0:0:
475,192,47275,1,0,0:0:0:0:
402,192,47454,1,0,0:0:0:0:
36,192,47632,1,0,0:0:0:0:
109,192,47811,1,0,0:0:0:0:
182,192,47989,128,0,48704:0:0:0:70:soft-hitwhistle.wav
475,192,47989,1,0,0:0:0:70:cymbol.wav
36,192,47989,1,0,0:0:0:0:
329,192,47989,1,0,0:0:0:0:
402,192,48168,1,0,0:0:0:0:
256,192,48346,1,0,0:0:0:70:soft-hitclap.wav
109,192,48346,1,0,0:0:0:0:
329,192,48525,1,0,0:0:0:70:soft-hitwhistle.wav
402,192,48525,128,0,49239:0:0:0:70:cymbol.wav
36,192,48882,128,0,49061:0:0:0:0:
182,192,49061,128,0,49239:0:0:0:0:
475,192,49239,1,0,0:0:0:70:cymbol.wav
329,192,49239,128,0,49775:0:0:0:0:
109,192,49596,1,0,0:0:0:0:
402,192,49775,1,0,0:0:0:70:soft-hitclap.wav
475,192,49775,1,0,0:0:0:0:
475,192,50132,128,0,50489:0:0:0:0:
109,192,50489,1,0,0:0:0:70:soft-hitwhistle.wav
256,192,50489,1,0,0:0:0:70:soft-hitclap.wav
402,192,50489,128,0,50846:0:0:0:0:
182,192,50846,1,0,0:0:0:70:soft-hitwhistle.wav
329,192,50846,128,0,51918:0:0:0:70:cymbol.wav
36,192,50846,1,0,0:0:0:0:
475,192,50846,1,0,0:0:0:0:
109,192,51025,1,0,0:0:0:0:
182,192,51204,1,0,0:0:0:70:soft-hitwhistle.wav
256,192,51204,1,0,0:0:0:70:soft-hitclap.wav
402,192,51204,1,0,0:0:0:0:
109,192,51382,1,0,0:0:0:0:
182,192,51561,1,0,0:0:0:70:soft-hitwhistle.wav
475,192,51561,1,0,0:0:0:0:
36,192,51739,1,0,0:0:0:0:
475,192,51918,1,0,0:0:0:70:soft-hitwhistle.wav
109,192,51918,1,0,0:0:0:70:soft-hitclap.wav
182,192,51918,1,0,0:0:0:0:
256,192,52096,1,0,0:0:0:0:
329,192,52275,1,0,0:0:0:70:soft-hitwhistle.wav
36,192,52275,1,0,0:0:0:0:
109,192,52275,128,0,52989:0:0:0:0:
182,192,52454,1,0,0:0:0:0:
36,192,52632,1,0,0:0:0:70:soft-hitwhistle.wav
256,192,52632,1,0,0:0:0:70:soft-hitclap.wav
402,192,52632,1,0,0:0:0:0:
182,192,52811,1,0,0:0:0:0:
36,192,52989,1,0,0:0:0:70:soft-hitwhistle.wav
256,192,52989,128,0,53704:0:0:0:0:
475,192,52989,1,0,0:0:0:0:
329,192,53168,1,0,0:0:0:0:
109,192,53346,1,0,0:0:0:70:soft-hitwhistle.wav
402,192,53346,1,0,0:0:0:70:soft-hitclap.wav
329,192,53525,1,0,0:0:0:0:
36,192,53704,1,0,0:0:0:70:soft-hitwhistle.wav
182,192,53704,1,0,0:0:0:0:
402,192,53704,128,0,54418:0:0:0:0:
329,192,53882,1,0,0:0:0:0:
256,192,54061,1,0,0:0:0:70:soft-hitwhistle.wav
109,192,54061,1,0,0:0:0:70:soft-hitclap.wav
475,192,54061,1,0,0:0:0:0:
329,192,54239,1,0,0:0:0:0:
256,192,54418,1,0,0:0:0:70:soft-hitwhistle.wav
36,192,54418,1,0,0:0:0:0:
475,192,54418,128,0,55132:0:0:0:0:
109,192,54596,1,0,0:0:0:0:
36,192,54775,1,0,0:0:0:70:soft-hitwhistle.wav
182,192,54775,1,0,0:0:0:70:soft-hitclap.wav
402,192,54775,1,0,0:0:0:0:
109,192,54954,1,0,0:0:0:0:
182,192,55132,128,0,55846:0:0:0:70:soft-hitwhistle.wav
256,192,55132,1,0,0:0:0:0:
36,192,55132,1,0,0:0:0:0:
402,192,55132,1,0,0:0:0:0:
329,192,55311,1,0,0:0:0:0:
475,192,55489,1,0,0:0:0:70:soft-hitwhistle.wav
256,192,55489,1,0,0:0:0:70:soft-hitclap.wav
109,192,55489,1,0,0:0:0:0:
329,192,55668,1,0,0:0:0:0:
36,192,55846,1,0,0:0:0:70:soft-hitwhistle.wav
256,192,55846,1,0,0:0:0:0:
109,192,55846,128,0,56561:0:0:0:0:
329,192,56025,1,0,0:0:0:0:
36,192,56204,1,0,0:0:0:70:soft-hitwhistle.wav
256,192,56204,1,0,0:0:0:70:soft-hitclap.wav
475,192,56204,1,0,0:0:0:0:
182,192,56382,1,0,0:0:0:0:
329,192,56561,128,0,57632:0:0:0:70:soft-hitwhistle.wav
402,192,56561,1,0,0:0:0:0:
36,192,56561,1,0,0:0:0:0:
182,192,56739,1,0,0:0:0:0:
256,192,56918,1,0,0:0:0:70:soft-hitwhistle.wav
475,192,56918,1,0,0:0:0:70:soft-hitclap.wav
36,192,56918,1,0,0:0:0:0:
109,192,57096,1,0,0:0:0:0:
36,192,57275,1,0,0:0:0:70:soft-hitwhistle.wav
182,192,57275,1,0,0:0:0:0:
109,192,57454,1,0,0:0:0:0:
475,192,57632,1,0,0:0:0:70:soft-hitwhistle.wav
256,192,57632,1,0,0:0:0:70:soft-hitclap.wav
36,192,57632,1,0,0:0:0:0:
182,192,57811,1,0,0:0:0:0:
36,192,57989,1,0,0:0:0:70:soft-hitwhistle.wav
109,192,57989,128,0,58346:0:0:0:0:
329,192,57989,1,0,0:0:0:0:
256,192,58168,1,0,0:0:0:0:
475,192,58346,1,0,0:0:0:70:soft-hitwhistle.wav
329,192,58346,1,0,0:0:0:70:soft-hitclap.wav
36,192,58346,1,0,0:0:0:0:
402,192,58525,128,0,58882:0:0:0:0:
182,192,58525,1,0,0:0:0:0:
256,192,58704,1,0,0:0:0:70:soft-hitwhistle.wav
109,192,58704,1,0,0:0:0:0:
182,192,58882,1,0,0:0:0:0:
36,192,59061,1,0,0:0:0:70:soft-hitwhistle.wav
256,192,59061,1,0,0:0:0:70:soft-hitclap.wav
329,192,59061,128,0,59418:0:0:0:0:
475,192,59061,1,0,0:0:0:0:
109,192,59239,1,0,0:0:0:0:
475,192,59418,1,0,0:0:0:70:soft-hitwhistle.wav
36,192,59418,1,0,0:0:0:0:
182,192,59418,128,0,59775:0:0:0:0:
329,192,59596,1,0,0:0:0:0:
475,192,59775,1,0,0:0:0:70:soft-hitwhistle.wav
402,192,59775,128,0,59954:0:0:0:70:soft-hitclap.wav
256,192,59775,1,0,0:0:0:0:
36,192,59775,1,0,0:0:0:0:
109,192,59954,128,0,60311:0:0:0:0:
329,192,59954,1,0,0:0:0:0:
402,192,60132,1,0,0:0:0:70:soft-hitwhistle.wav
182,192,60132,1,0,0:0:0:0:
256,192,60311,1,0,0:0:0:0:
329,192,60489,128,0,60846:0:0:0:70:soft-hitwhistle.wav
475,192,60489,1,0,0:0:0:70:soft-hitclap.wav
182,192,60489,1,0,0:0:0:0:
36,192,60489,1,0,0:0:0:0:
109,192,60668,1,0,0:0:0:0:
36,192,60846,1,0,0:0:0:70:soft-hitwhistle.wav
475,192,60846,128,0,61204:0:0:0:0:
182,192,60846,1,0,0:0:0:0:
256,192,61025,1,0,0:0:0:0:
329,192,61204,1,0,0:0:0:70:soft-hitwhistle.wav
402,192,61204,128,0,61561:0:0:0:70:soft-hitclap.wav
109,192,61204,1,0,0:0:0:0:
182,192,61204,1,0,0:0:0:0:
36,192,61382,1,0,0:0:0:0:
182,192,61561,1,0,0:0:0:70:soft-hitwhistle.wav
475,192,61561,1,0,0:0:0:0:
109,192,61739,1,0,0:0:0:70:soft-hitclap.wav
329,192,61739,1,0,0:0:0:0:
182,192,61829,1,0,0:0:0:70:soft-hitclap.wav
402,192,61829,1,0,0:0:0:0:
109,192,61918,1,0,0:0:0:70:soft-hitclap.wav
329,192,61918,1,0,0:0:0:0:
402,192,62007,1,0,0:0:0:70:soft-hitclap.wav
182,192,62007,1,0,0:0:0:0:
329,192,62096,1,0,0:0:0:70:soft-hitclap.wav
36,192,62096,1,0,0:0:0:0:
475,192,62186,1,0,0:0:0:70:soft-hitclap.wav
182,192,62186,1,0,0:0:0:0:
329,192,62275,1,0,0:0:0:70:soft-hitwhistle.wav
36,192,62275,1,0,0:0:0:70:cymbol.wav
256,192,62454,1,0,0:0:0:0:
402,192,62632,1,0,0:0:0:70:soft-hitclap.wav
36,192,62632,1,0,0:0:0:0:
182,192,62632,1,0,0:0:0:0:
329,192,62721,1,0,0:0:0:0:
256,192,62811,1,0,0:0:0:0:
182,192,62900,1,0,0:0:0:0:
402,192,62989,1,0,0:0:0:70:soft-hitwhistle.wav
109,192,62989,1,0,0:0:0:0:
256,192,63168,1,0,0:0:0:0:
329,192,63346,1,0,0:0:0:70:soft-hitclap.wav
36,192,63346,1,0,0:0:0:0:
475,192,63346,1,0,0:0:0:0:
182,192,63436,1,0,0:0:0:0:
256,192,63525,1,0,0:0:0:0:
329,192,63614,1,0,0:0:0:0:
182,192,63704,1,0,0:0:0:70:soft-hitwhistle.wav
36,192,63704,1,0,0:0:0:0:
256,192,63882,1,0,0:0:0:0:
329,192,64061,1,0,0:0:0:70:soft-hitclap.wav
475,192,64061,1,0,0:0:0:0:
109,192,64061,1,0,0:0:0:0:
182,192,64150,1,0,0:0:0:0:
256,192,64239,1,0,0:0:0:0:
329,192,64329,1,0,0:0:0:0:
402,192,64418,1,0,0:0:0:70:soft-hitwhistle.wav
109,192,64418,1,0,0:0:0:0:
256,192,64596,1,0,0:0:0:0:
475,192,64775,1,0,0:0:0:70:soft-hitclap.wav
329,192,64775,1,0,0:0:0:0:
36,192,64775,1,0,0:0:0:0:
182,192,64864,1,0,0:0:0:0:
256,192,64954,1,0,0:0:0:0:
329,192,65043,1,0,0:0:0:0:
182,192,65132,1,0,0:0:0:70:soft-hitwhistle.wav
36,192,65132,1,0,0:0:0:0:
402,192,65132,128,0,65489:0:0:0:0:
256,192,65311,1,0,0:0:0:0:
329,192,65489,1,0,0:0:0:70:soft-hitclap.wav
475,192,65489,1,0,0:0:0:0:
109,192,65489,1,0,0:0:0:0:
256,192,65668,1,0,0:0:0:0:
36,192,65846,1,0,0:0:0:70:soft-hitwhistle.wav
475,192,65846,1,0,0:0:0:0:
402,192,65936,1,0,0:0:0:0:
109,192,65936,1,0,0:0:0:0:
329,192,66025,1,0,0:0:0:0:
182,192,66025,1,0,0:0:0:0:
402,192,66114,1,0,0:0:0:0:
109,192,66114,1,0,0:0:0:0:
475,192,66204,1,0,0:0:0:70:soft-hitclap.wav
36,192,66204,1,0,0:0:0:0:
256,192,66204,1,0,0:0:0:0:
182,192,66382,1,0,0:0:0:0:
402,192,66382,1,0,0:0:0:0:
109,192,66471,1,0,0:0:0:0:
329,192,66471,1,0,0:0:0:0:
36,192,66561,128,0,66918:0:0:0:70:soft-hitwhistle.wav
256,192,66561,1,0,0:0:0:0:
475,192,66561,1,0,0:0:0:0:
256,192,66739,1,0,0:0:0:0:
109,192,66918,1,0,0:0:0:70:cymbol.wav
475,192,66918,128,0,67275:0:0:0:0:
329,192,66918,128,0,67275:0:0:0:0:
182,192,67275,1,0,0:0:0:70:soft-hitclap.wav
256,192,67275,1,0,0:0:0:30:cymbol.wav
36,192,67275,1,0,0:0:0:0:
329,192,67543,1,0,0:0:0:70:soft-hitclap.wav
475,192,67543,1,0,0:0:0:30:cymbol.wav
256,192,67543,1,0,0:0:0:0:
402,192,67811,1,0,0:0:0:70:soft-hitclap.wav
109,192,67811,1,0,0:0:0:30:cymbol.wav
256,192,67811,1,0,0:0:0:0:
182,192,67989,1,0,0:0:0:70:soft-hitwhistle.wav
329,192,67989,128,0,69061:0:0:0:70:cymbol.wav
36,192,67989,1,0,0:0:0:0:
475,192,67989,1,0,0:0:0:0:
109,192,68168,1,0,0:0:0:0:
256,192,68346,1,0,0:0:0:70:soft-hitwhistle.wav
402,192,68346,1,0,0:0:0:70:soft-hitclap.wav
36,192,68346,1,0,0:0:0:0:
109,192,68525,1,0,0:0:0:0:
182,192,68704,1,0,0:0:0:70:soft-hitwhistle.wav
475,192,68704,1,0,0:0:0:0:
36,192,68882,1,0,0:0:0:0:
109,192,69061,1,0,0:0:0:70:soft-hitwhistle.wav
256,192,69061,1,0,0:0:0:70:soft-hitclap.wav
475,192,69061,1,0,0:0:0:0:
182,192,69239,1,0,0:0:0:0:
36,192,69418,1,0,0:0:0:70:soft-hitwhistle.wav
402,192,69418,1,0,0:0:0:0:
109,192,69418,128,0,70132:0:0:0:0:
256,192,69596,1,0,0:0:0:0:
36,192,69775,1,0,0:0:0:70:soft-hitwhistle.wav
329,192,69775,1,0,0:0:0:70:soft-hitclap.wav
475,192,69775,1,0,0:0:0:0:
182,192,69954,1,0,0:0:0:0:
256,192,70132,128,0,70846:0:0:0:70:soft-hitwhistle.wav
402,192,70132,1,0,0:0:0:0:
36,192,70132,1,0,0:0:0:0:
182,192,70311,1,0,0:0:0:0:
109,192,70489,1,0,0:0:0:70:soft-hitwhistle.wav
402,192,70489,1,0,0:0:0:70:soft-hitclap.wav
329,192,70668,1,0,0:0:0:0:
36,192,70846,1,0,0:0:0:70:soft-hitwhistle.wav
182,192,70846,1,0,0:0:0:0:
402,192,70846,128,0,71561:0:0:0:0:
109,192,71025,1,0,0:0:0:0:
182,192,71204,1,0,0:0:0:70:soft-hitwhistle.wav
329,192,71204,1,0,0:0:0:70:soft-hitclap.wav
475,192,71204,1,0,0:0:0:0:
109,192,71382,1,0,0:0:0:0:
475,192,71561,128,0,72275:0:0:0:70:soft-hitwhistle.wav
256,192,71561,1,0,0:0:0:0:
36,192,71561,1,0,0:0:0:0:
329,192,71739,1,0,0:0:0:0:
182,192,71918,1,0,0:0:0:70:soft-hitwhistle.wav
36,192,71918,1,0,0:0:0:70:soft-hitclap.wav
402,192,71918,1,0,0:0:0:0:
109,192,72096,1,0,0:0:0:0:
256,192,72275,1,0,0:0:0:70:soft-hitwhistle.wav
402,192,72275,1,0,0:0:0:0:
182,192,72275,128,0,72989:0:0:0:0:
36,192,72275,1,0,0:0:0:0:
329,192,72454,1,0,0:0:0:0:
256,192,72632,1,0,0:0:0:70:soft-hitwhistle.wav
109,192,72632,1,0,0:0:0:70:soft-hitclap.wav
475,192,72632,1,0,0:0:0:0:
402,192,72811,1,0,0:0:0:0:
256,192,72989,1,0,0:0:0:70:soft-hitwhistle.wav
109,192,72989,128,0,73704:0:0:0:0:
36,192,72989,1,0,0:0:0:0:
329,192,73168,1,0,0:0:0:0:
36,192,73346,1,0,0:0:0:70:soft-hitwhistle.wav
475,192,73346,1,0,0:0:0:70:soft-hitclap.wav
256,192,73346,1,0,0:0:0:0:
182,192,73525,1,0,0:0:0:0:
402,192,73704,1,0,0:0:0:70:soft-hitwhistle.wav
36,192,73704,1,0,0:0:0:0:
329,192,73704,128,0,74775:0:0:0:0:
182,192,73882,1,0,0:0:0:0:
475,192,74061,1,0,0:0:0:70:soft-hitwhistle.wav
256,192,74061,1,0,0:0:0:70:soft-hitclap.wav
36,192,74061,1,0,0:0:0:0:
182,192,74239,1,0,0:0:0:0:
402,192,74418,1,0,0:0:0:70:soft-hitwhistle.wav
36,192,74418,1,0,0:0:0:0:
109,192,74596,1,0,0:0:0:0:
256,192,74775,1,0,0:0:0:70:soft-hitwhistle.wav
475,192,74775,1,0,0:0:0:70:soft-hitclap.wav
36,192,74775,1,0,0:0:0:0:
182,192,74954,1,0,0:0:0:0:
329,192,75132,1,0,0:0:0:70:soft-hitwhistle.wav
36,192,75132,1,0,0:0:0:0:
109,192,75132,128,0,75489:0:0:0:0:
256,192,75311,1,0,0:0:0:0:
329,192,75489,1,0,0:0:0:70:soft-hitwhistle.wav
36,192,75489,1,0,0:0:0:70:soft-hitclap.wav
475,192,75489,1,0,0:0:0:0:
256,192,75668,1,0,0:0:0:0:
402,192,75668,128,0,76025:0:0:0:0:
329,192,75846,1,0,0:0:0:70:soft-hitwhistle.wav
109,192,75846,1,0,0:0:0:0:
182,192,76025,1,0,0:0:0:0:
256,192,76204,1,0,0:0:0:70:soft-hitwhistle.wav
36,192,76204,1,0,0:0:0:70:soft-hitclap.wav
329,192,76204,128,0,76561:0:0:0:0:
475,192,76204,1,0,0:0:0:0:
109,192,76382,1,0,0:0:0:0:
475,192,76561,1,0,0:0:0:70:soft-hitwhistle.wav
182,192,76561,128,0,76918:0:0:0:0:
36,192,76561,1,0,0:0:0:0:
329,192,76739,1,0,0:0:0:0:
256,192,76918,1,0,0:0:0:70:soft-hitwhistle.wav
36,192,76918,1,0,0:0:0:70:soft-hitclap.wav
402,192,76918,128,0,77096:0:0:0:0:
475,192,76918,1,0,0:0:0:0:
329,192,77096,1,0,0:0:0:0:
109,192,77096,128,0,77454:0:0:0:0:
182,192,77275,1,0,0:0:0:70:soft-hitwhistle.wav
402,192,77275,1,0,0:0:0:0:
256,192,77454,1,0,0:0:0:0:
36,192,77632,1,0,0:0:0:70:soft-hitwhistle.wav
475,192,77632,1,0,0:0:0:70:soft-hitclap.wav
329,192,77632,128,0,77989:0:0:0:0:
182,192,77632,1,0,0:0:0:0:
256,192,77811,1,0,0:0:0:0:
475,192,77989,128,0,78346:0:0:0:70:soft-hitwhistle.wav
36,192,77989,1,0,0:0:0:0:
182,192,77989,1,0,0:0:0:0:
256,192,78168,1,0,0:0:0:0:
182,192,78346,1,0,0:0:0:70:soft-hitwhistle.wav
329,192,78346,1,0,0:0:0:70:soft-hitclap.wav
36,192,78346,1,0,0:0:0:0:
402,192,78346,128,0,78704:0:0:0:0:
109,192,78525,1,0,0:0:0:0:
182,192,78704,1,0,0:0:0:0:
475,192,78704,1,0,0:0:0:0:
109,192,78882,1,0,0:0:0:70:soft-hitclap.wav
256,192,78882,1,0,0:0:0:0:
475,192,79061,1,0,0:0:0:70:soft-hitwhistle.wav
329,192,79061,1,0,0:0:0:70:soft-hitclap.wav
36,192,79061,1,0,0:0:0:0:
109,192,79239,1,0,0:0:0:70:soft-hitclap.wav
256,192,79239,1,0,0:0:0:0:
182,192,79329,1,0,0:0:0:70:soft-hitclap.wav
329,192,79329,1,0,0:0:0:0:
109,192,79418,1,0,0:0:0:70:soft-hitwhistle.wav
402,192,79418,128,0,80132:0:0:0:70:cymbol.wav
36,192,79418,1,0,0:0:0:0:
256,192,79418,128,0,79775:0:0:0:0:
182,192,79596,1,0,0:0:0:0:
475,192,79775,1,0,0:0:0:70:soft-hitclap.wav
36,192,79775,1,0,0:0:0:0:
109,192,79775,1,0,0:0:0:0:
182,192,79954,1,0,0:0:0:0:
475,192,80132,1,0,0:0:0:70:soft-hitwhistle.wav
109,192,80132,128,0,80846:0:0:0:0:
256,192,80132,1,0,0:0:0:0:
402,192,80311,1,0,0:0:0:0:
329,192,80489,1,0,0:0:0:70:soft-hitclap.wav
36,192,80489,1,0,0:0:0:0:
475,192,80489,1,0,0:0:0:0:
256,192,80489,128,0,80846:0:0:0:0:
402,192,80668,1,0,0:0:0:0:
329,192,80846,128,0,81204:0:0:0:70:soft-hitwhistle.wav
36,192,80846,1,0,0:0:0:0:
475,192,80846,128,0,81561:0:0:0:0:
182,192,80846,1,0,0:0:0:0:
256,192,81025,1,0,0:0:0:0:
36,192,81204,1,0,0:0:0:70:soft-hitclap.wav
182,192,81204,1,0,0:0:0:0:
402,192,81204,1,0,0:0:0:0:
256,192,81382,1,0,0:0:0:0:
402,192,81561,1,0,0:0:0:70:soft-hitwhistle.wav
36,192,81561,128,0,82275:0:0:0:0:
109,192,81561,1,0,0:0:0:0:
256,192,81739,1,0,0:0:0:0:
329,192,81918,1,0,0:0:0:70:soft-hitclap.wav
475,192,81918,1,0,0:0:0:0:
182,192,81918,128,0,82275:0:0:0:0:
109,192,81918,1,0,0:0:0:0:
402,192,82096,1,0,0:0:0:0:
256,192,82275,1,0,0:0:0:70:soft-hitwhistle.wav
475,192,82275,128,0,83346:0:0:0:0:
109,192,82275,1,0,0:0:0:0:
329,192,82454,1,0,0:0:0:0:
36,192,82632,1,0,0:0:0:70:soft-hitclap.wav
402,192,82632,1,0,0:0:0:0:
182,192,82632,1,0,0:0:0:0:
109,192,82811,128,0,83704:0:0:0:0:
329,192,82811,1,0,0:0:0:0:
182,192,82989,1,0,0:0:0:70:soft-hitclap.wav
256,192,83079,1,0,0:0:0:70:soft-hitclap.wav
329,192,83168,1,0,0:0:0:70:soft-hitclap.wav
402,192,83257,1,0,0:0:0:70:soft-hitclap.wav
36,192,83346,1,0,0:0:0:70:soft-hitclap.wav
182,192,83346,1,0,0:0:0:0:
329,192,83346,1,0,0:0:0:0:
256,192,83525,1,0,0:0:0:70:soft-hitwhistle.wav
402,192,83525,128,0,84061:0:0:0:70:cymbol.wav
475,192,83525,1,0,0:0:0:0:
182,192,83882,128,0,84061:0:0:0:0:
475,192,84061,1,0,0:0:0:70:soft-hitclap.wav
36,192,84061,1,0,0:0:0:0:
109,192,84061,1,0,0:0:0:0:
329,192,84061,1,0,0:0:0:0:
256,192,84418,1,0,0:0:0:0:
402,192,84448,1,0,0:0:0:0:
256,192,84775,1,0,0:0:0:0:
402,192,84805,1,0,0:0:0:0:
182,192,85043,1,0,0:0:0:0:
256,192,85088,1,0,0:0:0:0:
402,192,85132,1,0,0:0:0:70:soft-hitwhistle.wav
109,192,85132,1,0,0:0:0:0:
329,192,85132,1,0,0:0:0:0:
256,192,85311,1,0,0:0:0:0:
475,192,85489,1,0,0:0:0:0:
329,192,85489,1,0,0:0:0:0:
182,192,85668,1,0,0:0:0:70:soft-hitwhistle.wav
402,192,85668,1,0,0:0:0:0:
36,192,85668,1,0,0:0:0:0:
256,192,86025,1,0,0:0:0:0:
109,192,86025,1,0,0:0:0:0:
475,192,86382,128,0,87632:0:0:0:70:soft-hitwhistle.wav
329,192,86382,1,0,0:0:0:0:
256,192,86739,128,0,87096:0:0:0:0:
36,192,86918,128,0,87632:0:0:0:0:
182,192,87096,128,0,87632:0:0:0:70:soft-hitwhistle.wav
329,192,87096,128,0,87632:0:0:0:0:
109,192,87989,128,0,89061:0:0:0:70:soft-hitwhistle.wav
402,192,87989,128,0,89061:0:0:0:0:
256,192,88525,128,0,89061:0:0:0:70:soft-hitwhistle.wav
36,192,89239,128,0,90489:0:0:0:70:soft-hitwhistle.wav
182,192,89239,1,0,0:0:0:0:
256,192,89596,128,0,89954:0:0:0:0:
475,192,89775,128,0,90489:0:0:0:0:
182,192,89954,128,0,90489:0:0:0:70:soft-hitwhistle.wav
329,192,89954,128,0,90489:0:0:0:0:
36,192,90846,1,0,0:0:0:70:soft-hitwhistle.wav
182,192,90846,1,0,0:0:0:0:
256,192,90846,1,0,0:0:0:0:
329,192,90846,1,0,0:0:0:0:
475,192,90846,1,0,0:0:0:0:
109,192,91204,1,0,0:0:0:70:soft-hitwhistle.wav
402,192,91204,1,0,0:0:0:0:
256,192,91382,1,0,0:0:0:0:
109,192,91561,1,0,0:0:0:70:soft-hitwhistle.wav
402,192,91561,1,0,0:0:0:0:
256,192,91739,1,0,0:0:0:0:
475,192,91918,1,0,0:0:0:70:soft-hitwhistle.wav
36,192,91918,1,0,0:0:0:0:
256,192,92096,1,0,0:0:0:0:
329,192,92275,1,0,0:0:0:70:soft-hitwhistle.wav
182,192,92275,1,0,0:0:0:0:
256,192,92454,1,0,0:0:0:0:
109,192,92632,1,0,0:0:0:70:soft-hitwhistle.wav
402,192,92632,1,0,0:0:0:0:
256,192,92811,1,0,0:0:0:0:
182,192,92989,1,0,0:0:0:70:soft-hitwhistle.wav
329,192,92989,1,0,0:0:0:0:
256,192,93168,1,0,0:0:0:0:
109,192,93346,1,0,0:0:0:70:soft-hitwhistle.wav
402,192,93346,1,0,0:0:0:0:
256,192,93525,1,0,0:0:0:0:soft-hitwhistle.wav
182,192,93704,1,0,0:0:0:70:soft-hitwhistle.wav
475,192,93704,128,0,94864:0:0:0:0:
329,192,93704,1,0,0:0:0:0:
256,192,93882,1,0,0:0:0:0:soft-hitwhistle.wav
109,192,94061,1,0,0:0:0:70:soft-hitwhistle.wav
402,192,94061,1,0,0:0:0:0:
36,192,94239,128,0,94864:0:0:0:0:soft-hitwhistle.wav
256,192,94239,1,0,0:0:0:0:
182,192,94418,1,0,0:0:0:70:soft-hitwhistle.wav
329,192,94418,1,0,0:0:0:0:
256,192,94596,1,0,0:0:0:0:soft-hitwhistle.wav
182,192,94775,1,0,0:0:0:70:soft-hitwhistle.wav
329,192,94775,1,0,0:0:0:0:
256,192,94954,1,0,0:0:0:0:soft-hitwhistle.wav
36,192,94954,1,0,0:0:0:0:
475,192,94954,1,0,0:0:0:0:
182,192,96561,5,0,0:0:0:70:soft-hitwhistle.wav
402,192,96561,1,0,0:0:0:0:
36,192,96561,1,0,0:0:0:0:
402,192,96918,1,0,0:0:0:0:
109,192,97096,1,0,0:0:0:70:soft-hitwhistle.wav
402,192,97275,1,0,0:0:0:0:
402,192,97632,1,0,0:0:0:0:
329,192,97989,1,0,0:0:0:0:
329,192,98346,1,0,0:0:0:0:
329,192,98704,1,0,0:0:0:0:
329,192,99061,1,0,0:0:0:0:
402,192,99418,1,0,0:0:0:70:soft-hitwhistle.wav
109,192,99418,1,0,0:0:0:0:
109,192,99775,1,0,0:0:0:0:
402,192,99954,1,0,0:0:0:70:soft-hitwhistle.wav
109,192,100132,1,0,0:0:0:0:
109,192,100489,1,0,0:0:0:0:
329,192,100846,1,0,0:0:0:0:
329,192,101204,1,0,0:0:0:0:
182,192,101561,1,0,0:0:0:0:
182,192,101918,1,0,0:0:0:0:
402,192,102275,1,0,0:0:0:70:soft-hitwhistle.wav
402,192,102632,1,0,0:0:0:0:
109,192,102811,1,0,0:0:0:70:soft-hitwhistle.wav
402,192,102989,1,0,0:0:0:0:
402,192,103346,1,0,0:0:0:0:
182,192,103704,1,0,0:0:0:0:
182,192,104061,1,0,0:0:0:0:
182,192,104418,1,0,0:0:0:0:
182,192,104775,1,0,0:0:0:0:
329,192,105132,1,0,0:0:0:70:soft-hitwhistle.wav
329,192,105489,1,0,0:0:0:0:
182,192,105668,1,0,0:0:0:70:soft-hitwhistle.wav
329,192,105846,1,0,0:0:0:0:
329,192,106204,1,0,0:0:0:0:
36,192,106561,1,0,0:0:0:70:soft-hitfinish.wav
109,192,106561,128,0,107096:0:0:0:0:
329,192,107096,128,0,107632:0:0:0:0:
402,192,107096,1,0,0:0:0:0:
182,192,107632,128,0,107989:0:0:0:70:soft-hitclap.wav
36,192,107632,1,0,0:0:0:0:
256,192,107632,1,0,0:0:0:0:
475,192,107632,1,0,0:0:0:0:
36,192,107989,128,0,108168:0:0:0:70:soft-hitwhistle.wav
109,192,107989,1,0,0:0:0:70:cymbol.wav
475,192,107989,1,0,0:0:0:0:
329,192,107989,128,0,108346:0:0:0:0:
109,192,108168,128,0,108346:0:0:0:0:
182,192,108168,1,0,0:0:0:0:
402,192,108346,1,0,0:0:0:70:soft-hitclap.wav
182,192,108346,128,0,108525:0:0:0:0:
256,192,108346,1,0,0:0:0:0:
475,192,108346,1,0,0:0:0:0:
109,192,108525,128,0,108704:0:0:0:0:
329,192,108525,1,0,0:0:0:0:
36,192,108704,128,0,109418:0:0:0:70:soft-hitwhistle.wav
182,192,108704,1,0,0:0:0:0:
475,192,108704,128,0,108882:0:0:0:0:
256,192,108882,1,0,0:0:0:0:
329,192,108882,128,0,109061:0:0:0:0:
475,192,109061,128,0,109239:0:0:0:70:soft-hitclap.wav
109,192,109061,1,0,0:0:0:0:
402,192,109061,1,0,0:0:0:0:
256,192,109239,1,0,0:0:0:0:
329,192,109239,128,0,109418:0:0:0:0:
475,192,109418,128,0,109596:0:0:0:70:soft-hitwhistle.wav
402,192,109418,1,0,0:0:0:0:
182,192,109418,128,0,109775:0:0:0:0:
109,192,109418,1,0,0:0:0:0:
329,192,109596,1,0,0:0:0:0:
402,192,109596,128,0,109775:0:0:0:0:
36,192,109775,1,0,0:0:0:70:soft-hitclap.wav
256,192,109775,1,0,0:0:0:0:
329,192,109775,128,0,109954:0:0:0:0:
109,192,109775,1,0,0:0:0:0:
182,192,109954,1,0,0:0:0:0:
402,192,109954,128,0,110132:0:0:0:0:
329,192,110132,1,0,0:0:0:70:soft-hitwhistle.wav
475,192,110132,128,0,110846:0:0:0:0:
36,192,110132,128,0,110311:0:0:0:0:
256,192,110311,1,0,0:0:0:0:
182,192,110311,128,0,110489:0:0:0:0:
36,192,110489,128,0,110668:0:0:0:70:soft-hitclap.wav
402,192,110489,1,0,0:0:0:0:
109,192,110489,1,0,0:0:0:0:
256,192,110668,1,0,0:0:0:0:
182,192,110668,128,0,110846:0:0:0:0:
36,192,110846,128,0,111382:0:0:0:70:soft-hitwhistle.wav
109,192,110846,1,0,0:0:0:0:
402,192,110846,1,0,0:0:0:0:
329,192,111025,128,0,111561:0:0:0:0:
182,192,111204,128,0,111739:0:0:0:70:soft-hitclap.wav
256,192,111204,1,0,0:0:0:0:
475,192,111382,128,0,111918:0:0:0:0:
36,192,111561,128,0,111739:0:0:0:70:soft-hitwhistle.wav
329,192,111739,128,0,111918:0:0:0:0:
182,192,111918,128,0,112096:0:0:0:70:soft-hitclap.wav
256,192,111918,1,0,0:0:0:0:
475,192,112096,128,0,112275:0:0:0:0:
109,192,112275,128,0,112989:0:0:0:70:soft-hitwhistle.wav
36,192,112275,1,0,0:0:0:0:
329,192,112275,1,0,0:0:0:0:
256,192,112454,1,0,0:0:0:0:
329,192,112632,1,0,0:0:0:70:soft-hitclap.wav
475,192,112632,1,0,0:0:0:0:
36,192,112632,1,0,0:0:0:0:
256,192,112811,1,0,0:0:0:0:
402,192,112989,128,0,113704:0:0:0:70:soft-hitwhistle.wav
36,192,112989,1,0,0:0:0:0:
475,192,112989,1,0,0:0:0:0:
256,192,113168,1,0,0:0:0:0:
475,192,113346,1,0,0:0:0:70:soft-hitclap.wav
36,192,113346,1,0,0:0:0:0:
182,192,113346,1,0,0:0:0:0:
256,192,113525,1,0,0:0:0:0:
475,192,113704,1,0,0:0:0:70:soft-hitwhistle.wav
36,0,113704,128,0,115132:0:0:0:0:
182,192,113704,1,0,0:0:0:0:
329,192,113704,1,0,0:0:0:0:
109,0,113882,128,0,114061:0:0:0:0:
256,192,113882,1,0,0:0:0:0:
329,192,114061,1,0,0:0:0:70:soft-hitclap.wav
182,192,114061,1,0,0:0:0:0:
475,192,114239,1,0,0:0:0:0:
182,0,114239,128,0,114418:0:0:0:0:
109,192,114418,1,0,0:0:0:70:soft-hitwhistle.wav
256,192,114418,1,0,0:0:0:0:
402,192,114418,1,0,0:0:0:0:
182,192,114596,1,0,0:0:0:0:
256,0,114596,128,0,114775:0:0:0:0:
475,192,114775,1,0,0:0:0:70:soft-hitclap.wav
329,192,114775,1,0,0:0:0:0:
109,192,114775,1,0,0:0:0:0:
329,0,114954,128,0,115132:0:0:0:0:
402,192,114954,1,0,0:0:0:0:
256,192,115132,1,0,0:0:0:70:soft-hitwhistle.wav
182,192,115132,1,0,0:0:0:0:
475,192,115132,1,0,0:0:0:0:
109,0,115132,128,0,116561:0:0:0:0:
36,192,115311,1,0,0:0:0:0:
475,0,115311,128,0,115489:0:0:0:0:
402,192,115489,1,0,0:0:0:70:soft-hitclap.wav
329,192,115489,1,0,0:0:0:0:
256,192,115489,1,0,0:0:0:0:
182,192,115668,1,0,0:0:0:0:
402,0,115668,128,0,115846:0:0:0:0:
36,192,115846,1,0,0:0:0:70:soft-hitwhistle.wav
329,192,115846,1,0,0:0:0:0:
256,192,115846,1,0,0:0:0:0:
329,0,116025,128,0,116204:0:0:0:0:
475,192,116025,1,0,0:0:0:0:
182,192,116204,1,0,0:0:0:70:soft-hitclap.wav
256,192,116204,1,0,0:0:0:0:
36,192,116204,1,0,0:0:0:0:
256,0,116382,128,0,116561:0:0:0:0:
402,192,116382,1,0,0:0:0:0:
475,192,116561,128,0,117096:0:0:0:70:soft-hitwhistle.wav
36,192,116561,1,0,0:0:0:0:
329,192,116561,1,0,0:0:0:0:
182,192,116739,128,0,117275:0:0:0:0:
256,192,116918,1,0,0:0:0:70:soft-hitclap.wav
329,192,116918,128,0,117454:0:0:0:0:
36,192,117096,128,0,117632:0:0:0:0:
475,192,117275,128,0,117454:0:0:0:70:soft-hitwhistle.wav
182,192,117454,128,0,117632:0:0:0:0:
256,192,117632,1,0,0:0:0:70:soft-hitclap.wav
329,192,117632,128,0,117811:0:0:0:0:
36,192,117811,128,0,117989:0:0:0:0:
402,192,117989,128,0,118704:0:0:0:70:soft-hitwhistle.wav
182,192,117989,1,0,0:0:0:70:cymbol.wav
475,192,117989,1,0,0:0:0:0:
329,192,118168,1,0,0:0:0:0:
36,192,118346,1,0,0:0:0:70:soft-hitclap.wav
256,192,118346,1,0,0:0:0:0:
475,192,118346,1,0,0:0:0:0:
182,192,118525,1,0,0:0:0:0:
109,192,118704,128,0,119418:0:0:0:70:soft-hitwhistle.wav
329,192,118704,1,0,0:0:0:70:cymbol.wav
36,192,118704,1,0,0:0:0:0:
475,192,118704,1,0,0:0:0:0:
182,192,118882,1,0,0:0:0:0:
36,192,119061,1,0,0:0:0:70:soft-hitclap.wav
256,192,119061,1,0,0:0:0:0:
402,192,119061,1,0,0:0:0:0:
329,192,119239,1,0,0:0:0:0:
36,192,119418,1,0,0:0:0:70:soft-hitclap.wav
182,192,119418,1,0,0:0:0:70:cymbol.wav
402,192,119418,128,0,119775:0:0:0:0:
475,192,119418,128,0,119775:0:0:0:0:
109,192,119596,1,0,0:0:0:0:
256,192,119596,1,0,0:0:0:0:
182,192,119775,1,0,0:0:0:0:
329,192,119775,1,0,0:0:0:0:
475,192,119954,1,0,0:0:0:70:soft-hitclap.wav
329,192,119954,1,0,0:0:0:0:
109,192,119954,128,0,120311:0:0:0:0:
36,192,119954,128,0,120311:0:0:0:0:
402,192,120132,1,0,0:0:0:0:
256,192,120132,1,0,0:0:0:0:
329,192,120311,1,0,0:0:0:0:
182,192,120311,1,0,0:0:0:0:
329,192,120489,128,0,120846:0:0:0:70:soft-hitclap.wav
36,192,120489,1,0,0:0:0:0:
109,192,120489,1,0,0:0:0:0:
475,192,120489,128,0,120846:0:0:0:0:
109,192,120668,1,0,0:0:0:0:
182,192,120668,1,0,0:0:0:0:
182,192,120846,1,0,0:0:0:0:
256,192,120846,1,0,0:0:0:0:
182,192,121025,128,0,121382:0:0:0:70:soft-hitclap.wav
36,192,121025,128,0,121382:0:0:0:0:
475,192,121025,1,0,0:0:0:0:
402,192,121025,1,0,0:0:0:0:
402,192,121204,1,0,0:0:0:0:
329,192,121204,1,0,0:0:0:0:
329,192,121382,1,0,0:0:0:0:
256,192,121382,1,0,0:0:0:0:
36,192,121561,128,0,121829:0:0:0:70:soft-hitclap.wav
475,192,121561,128,0,121829:0:0:0:70:cymbol.wav
256,192,121561,128,0,121829:0:0:0:0:
109,192,121561,1,0,0:0:0:0:
402,192,121561,1,0,0:0:0:0:
109,192,121918,128,0,122186:0:0:0:70:soft-hitclap.wav
256,192,121918,128,0,122186:0:0:0:70:cymbol.wav
402,192,121918,128,0,122186:0:0:0:0:
36,192,121918,1,0,0:0:0:0:
475,192,121918,1,0,0:0:0:0:
36,0,122275,128,0,122721:0:0:0:70:soft-hitclap.wav
182,0,122275,128,0,122721:0:0:0:0:
256,192,122275,1,0,0:0:0:0:
329,192,122275,1,0,0:0:0:0:
402,192,122454,1,0,0:0:0:0:
329,192,122454,1,0,0:0:0:0:
402,192,122632,1,0,0:0:0:0:
475,192,122632,1,0,0:0:0:0:
256,192,122811,1,0,0:0:0:70:soft-hitclap.wav
109,0,122811,128,0,123257:0:0:0:0:
182,192,122811,1,0,0:0:0:0:
36,0,122811,128,0,123257:0:0:0:0:
256,192,122989,1,0,0:0:0:0:
329,192,122989,1,0,0:0:0:0:
402,192,123168,1,0,0:0:0:0:
329,192,123168,1,0,0:0:0:0:
329,0,123346,128,0,123793:0:0:0:70:soft-hitclap.wav
256,192,123346,1,0,0:0:0:0:
475,0,123346,128,0,123793:0:0:0:0:
182,192,123346,1,0,0:0:0:0:
109,192,123525,1,0,0:0:0:0:
182,192,123525,1,0,0:0:0:0:
109,192,123704,1,0,0:0:0:0:
36,192,123704,1,0,0:0:0:0:
329,192,123882,1,0,0:0:0:70:soft-hitclap.wav
402,0,123882,128,0,124329:0:0:0:0:
475,0,123882,128,0,124329:0:0:0:0:
256,192,123882,1,0,0:0:0:0:
182,192,124061,1,0,0:0:0:0:
256,192,124061,1,0,0:0:0:0:
182,192,124239,1,0,0:0:0:0:
109,192,124239,1,0,0:0:0:0:
36,192,124418,128,0,124686:0:0:0:70:soft-hitclap.wav
256,192,124418,128,0,125043:0:0:0:70:cymbol.wav
475,192,124418,128,0,124686:0:0:0:0:
109,192,124418,128,0,124686:0:0:0:0:
402,192,124418,128,0,124686:0:0:0:0:
36,192,124775,128,0,125043:0:0:0:70:soft-hitclap.wav
182,192,124775,128,0,125043:0:0:0:70:cymbol.wav
329,192,124775,128,0,125043:0:0:0:0:
475,192,124775,128,0,125043:0:0:0:0:
36,192,125132,128,0,125489:0:0:0:70:soft-hitwhistle.wav
329,192,125132,1,0,0:0:0:0:
475,192,125132,1,0,0:0:0:0:
182,192,125311,128,0,125668:0:0:0:0:
329,192,125489,128,0,125846:0:0:0:0:
475,192,125668,128,0,126025:0:0:0:0:
109,192,125846,128,0,126204:0:0:0:70:soft-hitclap.wav
182,192,125846,1,0,0:0:0:0:
36,192,125846,1,0,0:0:0:0:
256,192,126025,128,0,126204:0:0:0:0:
402,192,126204,128,0,126561:0:0:0:0:
256,192,126382,128,0,126561:0:0:0:0:
109,192,126561,128,0,127275:0:0:0:70:soft-hitwhistle.wav
36,192,126561,1,0,0:0:0:0:
256,192,126739,1,0,0:0:0:70:soft-hitclap.wav
182,192,126739,1,0,0:0:0:0:
329,192,126918,128,0,127275:0:0:0:0:
475,192,127096,128,0,127275:0:0:0:0:
182,192,127096,1,0,0:0:0:0:
256,192,127275,1,0,0:0:0:70:soft-hitclap.wav
36,192,127275,1,0,0:0:0:0:
402,192,127275,128,0,127632:0:0:0:0:
256,192,127632,1,0,0:0:0:70:soft-hitclap.wav
36,192,127632,128,0,127989:0:0:0:0:
182,192,127989,128,0,128704:0:0:0:70:soft-hitwhistle.wav
329,192,127989,1,0,0:0:0:70:cymbol.wav
475,192,127989,1,0,0:0:0:0:
402,192,128168,1,0,0:0:0:0:
256,192,128346,1,0,0:0:0:70:soft-hitclap.wav
36,192,128346,1,0,0:0:0:0:
475,192,128525,1,0,0:0:0:70:soft-hitwhistle.wav
329,192,128525,1,0,0:0:0:70:cymbol.wav
402,192,128525,128,0,129239:0:0:0:0:
36,192,128882,128,0,129061:0:0:0:0:
182,192,129061,128,0,129239:0:0:0:0:
475,192,129239,1,0,0:0:0:70:cymbol.wav
329,192,129239,128,0,129775:0:0:0:0:
36,192,129418,128,0,129775:0:0:0:0:
109,192,129507,128,0,129775:0:0:0:0:
182,192,129596,128,0,129775:0:0:0:0:
256,192,129686,128,0,129775:0:0:0:0:
402,192,129775,1,0,0:0:0:70:soft-hitclap.wav
475,192,129775,1,0,0:0:0:0:
475,192,130132,128,0,130221:0:0:0:0:
256,192,130132,128,0,130221:0:0:0:0:
36,192,130132,128,0,130221:0:0:0:0:
256,192,130489,128,0,130579:0:0:0:0:
109,192,130489,128,0,130579:0:0:0:0:
402,192,130489,128,0,130579:0:0:0:0:
329,192,130846,128,0,131918:0:0:0:70:soft-hitwhistle.wav
36,192,130846,1,0,0:0:0:70:cymbol.wav
182,192,130846,1,0,0:0:0:0:
475,192,130846,1,0,0:0:0:0:
256,192,131025,1,0,0:0:0:0:
36,192,131204,1,0,0:0:0:70:soft-hitclap.wav
402,192,131204,1,0,0:0:0:0:
475,192,131204,1,0,0:0:0:0:
109,192,131293,1,0,0:0:0:0:
182,192,131382,1,0,0:0:0:0:
256,192,131471,1,0,0:0:0:0:
109,192,131561,1,0,0:0:0:70:soft-hitwhistle.wav
475,192,131561,1,0,0:0:0:0:
182,192,131739,1,0,0:0:0:0:
36,192,131918,1,0,0:0:0:70:soft-hitclap.wav
475,192,131918,1,0,0:0:0:0:
402,192,131918,1,0,0:0:0:0:
109,192,132007,1,0,0:0:0:0:
182,192,132096,1,0,0:0:0:0:
256,192,132186,1,0,0:0:0:0:
109,192,132275,128,0,132989:0:0:0:70:soft-hitwhistle.wav
475,192,132275,1,0,0:0:0:0:
329,192,132275,1,0,0:0:0:0:
182,192,132454,1,0,0:0:0:0:
36,192,132632,1,0,0:0:0:70:soft-hitclap.wav
475,192,132632,1,0,0:0:0:0:
256,192,132632,1,0,0:0:0:0:
402,192,132721,1,0,0:0:0:0:
329,192,132811,1,0,0:0:0:0:
402,192,132900,1,0,0:0:0:0:
256,192,132989,128,0,133704:0:0:0:70:soft-hitwhistle.wav
36,192,132989,1,0,0:0:0:0:
475,192,132989,1,0,0:0:0:0:
182,192,133168,1,0,0:0:0:0:
36,192,133346,1,0,0:0:0:70:soft-hitclap.wav
329,192,133346,1,0,0:0:0:0:
475,192,133346,1,0,0:0:0:0:
109,192,133436,1,0,0:0:0:0:
182,192,133525,1,0,0:0:0:0:
109,192,133614,1,0,0:0:0:0:
402,192,133704,128,0,134418:0:0:0:70:soft-hitwhistle.wav
36,192,133704,1,0,0:0:0:0:
329,192,133704,1,0,0:0:0:0:
475,192,133704,1,0,0:0:0:0:
182,192,133882,1,0,0:0:0:0:
329,192,134061,1,0,0:0:0:70:soft-hitclap.wav
36,192,134061,1,0,0:0:0:0:
475,192,134061,1,0,0:0:0:0:
109,192,134150,1,0,0:0:0:0:
182,192,134239,1,0,0:0:0:0:
256,192,134329,1,0,0:0:0:0:
475,192,134418,128,0,135132:0:0:0:70:soft-hitwhistle.wav
36,192,134418,1,0,0:0:0:0:
329,192,134418,1,0,0:0:0:0:
256,192,134596,1,0,0:0:0:0:
109,192,134775,1,0,0:0:0:70:soft-hitclap.wav
402,192,134775,1,0,0:0:0:0:
329,192,134775,1,0,0:0:0:0:
182,192,134864,1,0,0:0:0:0:
256,192,134954,1,0,0:0:0:0:
329,192,135043,1,0,0:0:0:0:
182,192,135132,128,0,135846:0:0:0:70:soft-hitwhistle.wav
36,192,135132,1,0,0:0:0:0:
402,192,135132,1,0,0:0:0:0:
256,192,135221,1,0,0:0:0:0:
109,192,135311,1,0,0:0:0:0:
36,192,135489,1,0,0:0:0:70:soft-hitclap.wav
256,192,135489,1,0,0:0:0:0:
329,192,135489,1,0,0:0:0:0:
475,192,135579,1,0,0:0:0:0:
329,192,135668,1,0,0:0:0:0:
475,192,135757,1,0,0:0:0:0:
109,192,135846,128,0,136561:0:0:0:70:soft-hitwhistle.wav
36,192,135846,1,0,0:0:0:0:
256,192,135846,1,0,0:0:0:0:
402,192,136025,1,0,0:0:0:0:
329,192,136204,1,0,0:0:0:70:soft-hitclap.wav
475,192,136204,1,0,0:0:0:0:
36,192,136204,1,0,0:0:0:0:
256,192,136293,1,0,0:0:0:0:
182,192,136382,1,0,0:0:0:0:
256,192,136471,1,0,0:0:0:0:
329,192,136561,128,0,137632:0:0:0:70:soft-hitwhistle.wav
36,192,136561,128,0,136918:0:0:0:0:
475,192,136561,1,0,0:0:0:0:
109,192,136739,128,0,136918:0:0:0:0:
402,192,136739,1,0,0:0:0:0:
182,192,136918,128,0,137275:0:0:0:70:soft-hitclap.wav
256,192,136918,1,0,0:0:0:0:
475,192,136918,1,0,0:0:0:0:
109,192,137096,128,0,137275:0:0:0:0:
402,192,137096,1,0,0:0:0:0:
36,192,137275,128,0,137454:0:0:0:70:soft-hitwhistle.wav
475,192,137275,1,0,0:0:0:0:
182,192,137454,128,0,137632:0:0:0:0:
402,192,137454,1,0,0:0:0:0:
36,192,137632,128,0,137811:0:0:0:70:soft-hitclap.wav
475,192,137632,1,0,0:0:0:0:
256,192,137632,1,0,0:0:0:0:
329,192,137721,1,0,0:0:0:0:
182,192,137811,128,0,137989:0:0:0:0:
402,192,137811,1,0,0:0:0:0:
256,192,137900,1,0,0:0:0:0:
109,192,137989,128,0,138346:0:0:0:70:soft-hitwhistle.wav
329,192,137989,1,0,0:0:0:0:
475,192,137989,1,0,0:0:0:0:
36,192,137989,1,0,0:0:0:0:
256,192,138168,1,0,0:0:0:0:
402,192,138168,1,0,0:0:0:0:
36,192,138346,1,0,0:0:0:70:soft-hitclap.wav
182,192,138346,1,0,0:0:0:0:
475,192,138346,1,0,0:0:0:0:
402,192,138525,128,0,138882:0:0:0:0:
329,192,138525,1,0,0:0:0:0:
36,192,138704,1,0,0:0:0:70:soft-hitwhistle.wav
256,192,138704,1,0,0:0:0:0:
182,192,138882,1,0,0:0:0:0:
329,192,139061,128,0,139418:0:0:0:70:soft-hitclap.wav
36,192,139061,1,0,0:0:0:0:
256,192,139061,1,0,0:0:0:0:
475,192,139061,1,0,0:0:0:0:
109,192,139239,1,0,0:0:0:0:
402,192,139239,1,0,0:0:0:0:
182,192,139418,128,0,139775:0:0:0:70:soft-hitwhistle.wav
36,192,139418,1,0,0:0:0:0:
256,192,139418,1,0,0:0:0:0:
329,192,139596,1,0,0:0:0:0:
475,192,139596,1,0,0:0:0:0:
402,192,139775,128,0,139954:0:0:0:70:soft-hitclap.wav
256,192,139775,1,0,0:0:0:0:
329,192,139864,1,0,0:0:0:0:
109,192,139954,128,0,140311:0:0:0:0:
182,192,139954,1,0,0:0:0:0:
256,192,140043,1,0,0:0:0:0:
329,192,140132,1,0,0:0:0:70:soft-hitwhistle.wav
475,192,140132,1,0,0:0:0:0:
36,192,140311,1,0,0:0:0:0:
182,192,140311,1,0,0:0:0:0:
329,192,140489,128,0,140846:0:0:0:70:soft-hitclap.wav
402,192,140489,1,0,0:0:0:0:
109,192,140489,1,0,0:0:0:0:
256,192,140579,1,0,0:0:0:0:
402,192,140668,1,0,0:0:0:0:
256,192,140757,1,0,0:0:0:0:
475,192,140846,128,0,141204:0:0:0:70:soft-hitwhistle.wav
36,192,140846,1,0,0:0:0:0:
182,192,140846,1,0,0:0:0:0:
256,192,141025,1,0,0:0:0:0:
402,192,141025,1,0,0:0:0:0:
402,192,141204,128,0,141561:0:0:0:70:soft-hitclap.wav
36,192,141204,1,0,0:0:0:0:
256,192,141204,1,0,0:0:0:0:
109,192,141293,1,0,0:0:0:0:
182,192,141382,1,0,0:0:0:0:
256,192,141471,1,0,0:0:0:0:
329,192,141561,1,0,0:0:0:70:soft-hitwhistle.wav
475,192,141561,1,0,0:0:0:0:
36,192,141561,1,0,0:0:0:0:
109,192,141739,1,0,0:0:0:70:soft-hitclap.wav
402,192,141739,1,0,0:0:0:0:
182,192,141829,1,0,0:0:0:70:soft-hitclap.wav
329,192,141829,1,0,0:0:0:0:
475,192,141918,1,0,0:0:0:70:soft-hitclap.wav
36,192,141918,1,0,0:0:0:0:
402,192,142007,1,0,0:0:0:70:soft-hitclap.wav
109,192,142007,1,0,0:0:0:0:
329,192,142096,1,0,0:0:0:70:soft-hitclap.wav
182,192,142096,1,0,0:0:0:0:
402,192,142186,1,0,0:0:0:70:soft-hitclap.wav
109,192,142186,1,0,0:0:0:0:
475,192,142275,1,0,0:0:0:70:soft-hitwhistle.wav
36,192,142275,1,0,0:0:0:70:cymbol.wav
256,192,142275,1,0,0:0:0:0:
109,192,142364,1,0,0:0:0:0:
182,192,142454,1,0,0:0:0:0:
402,192,142454,1,0,0:0:0:0:
256,192,142543,1,0,0:0:0:0:
36,192,142632,1,0,0:0:0:70:soft-hitclap.wav
329,192,142632,1,0,0:0:0:0:
475,192,142632,1,0,0:0:0:0:
256,192,142721,1,0,0:0:0:0:
182,192,142811,1,0,0:0:0:0:
402,192,142811,1,0,0:0:0:0:
256,192,142900,1,0,0:0:0:0:
329,192,142989,1,0,0:0:0:70:soft-hitwhistle.wav
36,192,142989,1,0,0:0:0:0:
402,192,143079,1,0,0:0:0:0:
329,192,143168,1,0,0:0:0:0:
109,192,143168,1,0,0:0:0:0:
256,192,143257,1,0,0:0:0:0:
36,192,143346,1,0,0:0:0:70:soft-hitclap.wav
475,192,143346,1,0,0:0:0:0:
182,192,143346,1,0,0:0:0:0:
109,192,143436,1,0,0:0:0:0:
182,192,143525,1,0,0:0:0:0:
402,192,143525,1,0,0:0:0:0:
256,192,143614,1,0,0:0:0:0:
475,192,143704,128,0,144061:0:0:0:70:soft-hitwhistle.wav
36,192,143704,1,0,0:0:0:0:
329,192,143704,1,0,0:0:0:0:
402,192,143882,128,0,144061:0:0:0:0:
182,192,143882,1,0,0:0:0:0:
329,192,144061,128,0,144418:0:0:0:70:soft-hitclap.wav
36,192,144061,1,0,0:0:0:0:
256,192,144061,1,0,0:0:0:0:
109,192,144061,1,0,0:0:0:0:
402,192,144239,128,0,144418:0:0:0:0:
182,192,144239,1,0,0:0:0:0:
36,192,144418,128,0,144775:0:0:0:70:soft-hitwhistle.wav
256,192,144418,1,0,0:0:0:0:
475,192,144418,1,0,0:0:0:0:
109,192,144596,128,0,144775:0:0:0:0:
402,192,144596,1,0,0:0:0:0:
182,192,144775,128,0,145132:0:0:0:70:soft-hitclap.wav
329,192,144775,1,0,0:0:0:0:
475,192,144775,1,0,0:0:0:0:
256,192,144775,1,0,0:0:0:0:
109,192,144954,128,0,145132:0:0:0:0:
402,192,144954,1,0,0:0:0:0:
36,192,145132,1,0,0:0:0:70:soft-hitwhistle.wav
256,192,145132,1,0,0:0:0:0:
475,192,145132,1,0,0:0:0:0:
402,192,145221,1,0,0:0:0:0:
329,192,145311,1,0,0:0:0:0:
109,192,145311,1,0,0:0:0:0:
256,192,145400,1,0,0:0:0:0:
475,192,145489,1,0,0:0:0:70:soft-hitclap.wav
182,192,145489,1,0,0:0:0:0:
36,192,145489,1,0,0:0:0:0:
256,192,145579,1,0,0:0:0:0:
329,192,145668,1,0,0:0:0:0:
109,192,145668,1,0,0:0:0:0:
256,192,145757,1,0,0:0:0:0:
475,192,145846,1,0,0:0:0:70:soft-hitwhistle.wav
182,192,145846,1,0,0:0:0:0:
109,192,145936,1,0,0:0:0:0:
182,192,146025,1,0,0:0:0:0:
402,192,146025,1,0,0:0:0:0:
256,192,146114,1,0,0:0:0:0:
36,192,146204,1,0,0:0:0:70:soft-hitclap.wav
329,192,146204,1,0,0:0:0:0:
475,192,146204,1,0,0:0:0:0:
402,192,146293,1,0,0:0:0:0:
329,192,146382,1,0,0:0:0:0:
109,192,146382,1,0,0:0:0:0:
256,192,146471,1,0,0:0:0:0:
36,192,146561,128,0,147186:0:0:0:70:soft-hitwhistle.wav
475,192,146561,128,0,147186:0:0:0:70:cymbol.wav
182,192,146561,1,0,0:0:0:0:
329,192,146561,1,0,0:0:0:0:
109,192,146739,128,0,146829:0:0:0:0:
402,192,146739,128,0,146829:0:0:0:0:
182,192,146829,128,0,146918:0:0:0:0:
329,192,146829,128,0,146918:0:0:0:0:
256,192,146918,128,0,147186:0:0:0:70:soft-hitclap.wav
36,192,147275,1,0,0:0:0:70:soft-hitclap.wav
256,192,147275,1,0,0:0:0:0:
475,192,147275,1,0,0:0:0:0:
182,192,147275,1,0,0:0:0:0:
329,192,147275,1,0,0:0:0:0:
109,192,147543,1,0,0:0:0:70:soft-hitclap.wav
256,192,147543,1,0,0:0:0:0:
402,192,147543,1,0,0:0:0:0:
36,192,147811,1,0,0:0:0:70:soft-hitclap.wav
475,192,147811,1,0,0:0:0:0:
256,192,147811,1,0,0:0:0:0:
329,192,147989,128,0,149061:0:0:0:70:soft-hitwhistle.wav
182,192,147989,1,0,0:0:0:70:cymbol.wav
475,192,147989,1,0,0:0:0:0:
36,192,147989,1,0,0:0:0:0:
402,192,148168,1,0,0:0:0:0:
109,192,148168,1,0,0:0:0:0:
182,192,148346,1,0,0:0:0:70:soft-hitclap.wav
36,192,148346,1,0,0:0:0:0:
475,192,148346,1,0,0:0:0:0:
109,192,148436,1,0,0:0:0:0:
402,192,148525,1,0,0:0:0:0:
256,192,148525,1,0,0:0:0:0:
182,192,148614,1,0,0:0:0:0:
36,192,148704,1,0,0:0:0:70:soft-hitwhistle.wav
475,192,148704,1,0,0:0:0:0:
109,192,148882,1,0,0:0:0:0:
475,192,148882,1,0,0:0:0:0:
256,192,149061,1,0,0:0:0:70:soft-hitclap.wav
402,192,149061,1,0,0:0:0:0:
36,192,149061,1,0,0:0:0:0:
475,192,149150,1,0,0:0:0:0:
329,192,149239,1,0,0:0:0:0:
182,192,149239,1,0,0:0:0:0:
475,192,149329,1,0,0:0:0:0:
256,192,149418,1,0,0:0:0:70:soft-hitwhistle.wav
109,192,149418,128,0,150132:0:0:0:0:
36,192,149418,1,0,0:0:0:0:
402,192,149596,1,0,0:0:0:0:
182,192,149596,1,0,0:0:0:0:
256,192,149775,1,0,0:0:0:70:soft-hitclap.wav
475,192,149775,1,0,0:0:0:0:
36,192,149775,1,0,0:0:0:0:
402,192,149864,1,0,0:0:0:0:
182,192,149954,1,0,0:0:0:0:
329,192,149954,1,0,0:0:0:0:
402,192,150043,1,0,0:0:0:0:
36,192,150132,1,0,0:0:0:70:soft-hitwhistle.wav
256,192,150132,128,0,150846:0:0:0:0:
475,192,150132,1,0,0:0:0:0:
329,192,150311,1,0,0:0:0:0:
182,192,150311,1,0,0:0:0:0:
402,192,150489,1,0,0:0:0:70:soft-hitclap.wav
109,192,150489,1,0,0:0:0:0:
36,192,150489,1,0,0:0:0:0:
182,192,150579,1,0,0:0:0:0:
329,192,150668,1,0,0:0:0:0:
475,192,150668,1,0,0:0:0:0:
109,192,150757,1,0,0:0:0:0:
475,192,150846,1,0,0:0:0:70:soft-hitwhistle.wav
36,192,150846,1,0,0:0:0:0:
182,192,150846,1,0,0:0:0:0:
402,192,150846,128,0,151561:0:0:0:0:
109,192,151025,1,0,0:0:0:0:
329,192,151025,1,0,0:0:0:0:
475,192,151204,1,0,0:0:0:70:soft-hitclap.wav
256,192,151204,1,0,0:0:0:0:
36,192,151204,1,0,0:0:0:0:
182,192,151293,1,0,0:0:0:0:
109,192,151382,1,0,0:0:0:0:
329,192,151382,1,0,0:0:0:0:
256,192,151471,1,0,0:0:0:0:
475,192,151561,128,0,152275:0:0:0:70:soft-hitwhistle.wav
182,192,151561,1,0,0:0:0:0:
36,192,151561,1,0,0:0:0:0:
109,192,151739,1,0,0:0:0:0:
329,192,151739,1,0,0:0:0:0:
256,192,151918,1,0,0:0:0:70:soft-hitclap.wav
36,192,151918,1,0,0:0:0:0:
402,192,151918,1,0,0:0:0:0:
182,192,152007,1,0,0:0:0:0:
329,192,152096,1,0,0:0:0:0:
109,192,152096,1,0,0:0:0:0:
256,192,152186,1,0,0:0:0:0:
402,192,152275,1,0,0:0:0:70:soft-hitwhistle.wav
36,192,152275,1,0,0:0:0:0:
182,192,152275,128,0,152989:0:0:0:0:
109,192,152364,1,0,0:0:0:0:
475,192,152454,1,0,0:0:0:0:
329,192,152454,1,0,0:0:0:0:
402,192,152632,1,0,0:0:0:70:soft-hitclap.wav
256,192,152632,1,0,0:0:0:0:
36,192,152632,1,0,0:0:0:0:
475,192,152721,1,0,0:0:0:0:
329,192,152811,1,0,0:0:0:0:
109,192,152811,1,0,0:0:0:0:
475,192,152900,1,0,0:0:0:0:
109,192,152989,128,0,153704:0:0:0:70:soft-hitwhistle.wav
256,192,152989,1,0,0:0:0:0:
36,192,152989,1,0,0:0:0:0:
475,192,153168,1,0,0:0:0:0:
329,192,153168,1,0,0:0:0:0:
36,192,153346,1,0,0:0:0:70:soft-hitclap.wav
256,192,153346,1,0,0:0:0:0:
329,192,153436,1,0,0:0:0:0:
182,192,153525,1,0,0:0:0:0:
402,192,153525,1,0,0:0:0:0:
256,192,153614,1,0,0:0:0:0:
329,192,153704,128,0,154775:0:0:0:70:soft-hitwhistle.wav
36,192,153704,128,0,154061:0:0:0:0:
475,192,153704,1,0,0:0:0:0:
402,192,153882,1,0,0:0:0:0:
109,192,153882,128,0,154061:0:0:0:0:
475,192,154061,1,0,0:0:0:70:soft-hitclap.wav
182,192,154061,128,0,154418:0:0:0:0:
256,192,154061,1,0,0:0:0:0:
402,192,154239,1,0,0:0:0:0:
109,192,154239,128,0,154418:0:0:0:0:
36,192,154418,128,0,154596:0:0:0:70:soft-hitwhistle.wav
475,192,154418,1,0,0:0:0:0:
182,192,154596,128,0,154775:0:0:0:0:
402,192,154596,1,0,0:0:0:0:
475,192,154775,1,0,0:0:0:70:soft-hitclap.wav
256,192,154775,1,0,0:0:0:0:
36,192,154775,128,0,154954:0:0:0:0:
402,192,154954,1,0,0:0:0:0:
182,192,154954,128,0,155132:0:0:0:0:
329,192,155043,1,0,0:0:0:0:
475,192,155132,1,0,0:0:0:70:soft-hitwhistle.wav
109,192,155132,128,0,155489:0:0:0:0:
256,192,155132,1,0,0:0:0:0:
36,192,155132,1,0,0:0:0:0:
402,192,155311,1,0,0:0:0:0:
256,192,155489,1,0,0:0:0:70:soft-hitclap.wav
36,192,155489,1,0,0:0:0:0:
475,192,155489,1,0,0:0:0:0:
329,192,155579,1,0,0:0:0:0:
402,192,155668,128,0,156025:0:0:0:0:
109,192,155668,1,0,0:0:0:0:
256,192,155668,1,0,0:0:0:0:
329,192,155757,1,0,0:0:0:0:
36,192,155846,1,0,0:0:0:70:soft-hitwhistle.wav
182,192,155846,1,0,0:0:0:0:
256,192,156025,1,0,0:0:0:0:
475,192,156025,1,0,0:0:0:0:
182,192,156204,1,0,0:0:0:70:soft-hitclap.wav
475,192,156204,1,0,0:0:0:0:
36,192,156204,1,0,0:0:0:0:
329,192,156204,128,0,156561:0:0:0:0:
256,192,156293,1,0,0:0:0:0:
402,192,156382,1,0,0:0:0:0:
109,192,156382,1,0,0:0:0:0:
256,192,156471,1,0,0:0:0:0:
36,192,156561,1,0,0:0:0:70:soft-hitwhistle.wav
182,192,156561,128,0,156918:0:0:0:0:
475,192,156561,1,0,0:0:0:0:
329,192,156739,1,0,0:0:0:0:
109,192,156739,1,0,0:0:0:0:
402,192,156918,128,0,157096:0:0:0:70:soft-hitclap.wav
475,192,156918,1,0,0:0:0:0:
36,192,156918,1,0,0:0:0:0:
256,192,156918,1,0,0:0:0:0:
329,192,157007,1,0,0:0:0:0:
109,192,157096,128,0,157454:0:0:0:0:
182,192,157096,1,0,0:0:0:0:
475,192,157096,1,0,0:0:0:0:
329,192,157186,1,0,0:0:0:0:
256,192,157275,1,0,0:0:0:70:soft-hitwhistle.wav
36,192,157275,1,0,0:0:0:0:
402,192,157454,1,0,0:0:0:0:
256,192,157454,1,0,0:0:0:0:
182,192,157632,1,0,0:0:0:70:soft-hitclap.wav
36,192,157632,1,0,0:0:0:0:
475,192,157632,1,0,0:0:0:0:
329,192,157632,128,0,157989:0:0:0:0:
256,192,157721,1,0,0:0:0:0:
109,192,157811,1,0,0:0:0:0:
402,192,157811,1,0,0:0:0:0:
256,192,157900,1,0,0:0:0:0:
36,192,157989,1,0,0:0:0:70:soft-hitwhistle.wav
182,192,157989,1,0,0:0:0:0:
475,192,157989,128,0,158346:0:0:0:0:
402,192,158168,1,0,0:0:0:0:
256,192,158168,1,0,0:0:0:0:
256,192,158346,1,0,0:0:0:70:soft-hitclap.wav
36,192,158346,1,0,0:0:0:0:
402,192,158346,128,0,158704:0:0:0:0:
329,192,158436,1,0,0:0:0:0:
182,192,158525,1,0,0:0:0:0:
109,192,158525,1,0,0:0:0:0:
329,192,158614,1,0,0:0:0:0:
475,192,158704,1,0,0:0:0:70:soft-hitwhistle.wav
36,192,158704,1,0,0:0:0:0:
256,192,158704,1,0,0:0:0:0:
109,192,158882,1,0,0:0:0:0:
402,192,158882,1,0,0:0:0:0:
182,192,159061,1,0,0:0:0:70:soft-hitclap.wav
329,192,159061,1,0,0:0:0:0:
36,192,159061,1,0,0:0:0:0:
256,192,159061,1,0,0:0:0:0:
475,192,159061,1,0,0:0:0:0:
109,192,159239,1,0,0:0:0:70:soft-hitclap.wav
402,192,159239,1,0,0:0:0:0:
182,192,159329,1,0,0:0:0:70:soft-hitclap.wav
329,192,159329,1,0,0:0:0:0:
36,192,159418,128,0,159775:0:0:0:70:soft-hitwhistle.wav
256,192,159418,1,0,0:0:0:0:
475,192,159418,1,0,0:0:0:0:
402,192,159596,1,0,0:0:0:0:
182,192,159596,1,0,0:0:0:0:
109,192,159775,128,0,159954:0:0:0:70:soft-hitclap.wav
256,192,159775,1,0,0:0:0:0:
475,192,159775,1,0,0:0:0:0:
402,192,159864,1,0,0:0:0:0:
182,192,159954,128,0,160489:0:0:0:0:
329,192,159954,1,0,0:0:0:0:
402,192,160043,1,0,0:0:0:0:
36,192,160132,1,0,0:0:0:70:soft-hitwhistle.wav
475,192,160132,1,0,0:0:0:0:
109,192,160311,1,0,0:0:0:0:
402,192,160311,1,0,0:0:0:0:
475,192,160489,128,0,160668:0:0:0:70:soft-hitclap.wav
36,192,160489,1,0,0:0:0:0:
256,192,160489,1,0,0:0:0:0:
109,192,160579,1,0,0:0:0:0:
402,192,160668,128,0,161025:0:0:0:0:
329,192,160668,1,0,0:0:0:0:
182,192,160757,1,0,0:0:0:0:
36,192,160846,1,0,0:0:0:70:soft-hitwhistle.wav
256,192,160846,1,0,0:0:0:0:
475,192,160846,1,0,0:0:0:0:
109,192,161025,1,0,0:0:0:0:
329,192,161025,128,0,161114:0:0:0:0:
329,192,161204,128,0,161918:0:0:0:70:soft-hitclap.wav
256,192,161204,1,0,0:0:0:0:
36,192,161204,1,0,0:0:0:0:
475,192,161204,1,0,0:0:0:0:
109,192,161293,1,0,0:0:0:0:
182,192,161382,1,0,0:0:0:0:
109,192,161471,1,0,0:0:0:0:
36,192,161561,1,0,0:0:0:70:soft-hitwhistle.wav
475,192,161561,1,0,0:0:0:0:
182,192,161739,1,0,0:0:0:0:
402,192,161739,1,0,0:0:0:0:
109,192,161918,128,0,162096:0:0:0:70:soft-hitclap.wav
36,192,161918,1,0,0:0:0:0:
256,192,161918,1,0,0:0:0:0:
475,192,161918,1,0,0:0:0:0:
329,192,162007,1,0,0:0:0:0:
402,192,162096,128,0,162275:0:0:0:0:
182,192,162096,1,0,0:0:0:0:
256,192,162186,1,0,0:0:0:0:
36,192,162275,128,0,162632:0:0:0:70:soft-hitwhistle.wav
329,192,162275,1,0,0:0:0:0:
475,192,162275,1,0,0:0:0:0:
109,192,162275,1,0,0:0:0:0:
182,192,162454,1,0,0:0:0:0:
402,192,162454,1,0,0:0:0:0:
109,192,162632,128,0,162811:0:0:0:70:soft-hitclap.wav
256,192,162632,1,0,0:0:0:0:
475,192,162632,1,0,0:0:0:0:
402,192,162721,1,0,0:0:0:0:
256,192,162811,128,0,163257:0:0:0:0:
329,192,162811,1,0,0:0:0:0:
36,192,162989,1,0,0:0:0:70:LR_Drum Rpd.wav
475,192,162989,1,0,0:0:0:0:
109,192,163079,1,0,0:0:0:70:LR_Drum Rpd.wav
402,192,163079,1,0,0:0:0:0:
182,192,163168,1,0,0:0:0:70:LR_Drum Rpd.wav
329,192,163168,1,0,0:0:0:0:
109,192,163257,1,0,0:0:0:70:LR_Drum Rpd.wav
402,192,163257,1,0,0:0:0:0:
36,192,163346,1,0,0:0:0:70:soft-hitclap.wav
475,192,163346,1,0,0:0:0:0:
256,192,163346,1,0,0:0:0:0:
109,192,163525,128,0,163971:0:0:0:70:soft-hitwhistle.wav
402,192,163525,128,0,163971:0:0:0:70:cymbol.wav
256,192,163882,128,0,163971:0:0:0:0:
36,192,164061,1,0,0:0:0:70:soft-hitclap.wav
109,192,164061,1,0,0:0:0:0:
182,192,164061,1,0,0:0:0:0:
329,192,164061,1,0,0:0:0:0:
402,192,164061,1,0,0:0:0:0:
475,192,164061,1,0,0:0:0:0:
256,192,164418,128,0,164775:0:0:0:0:
329,192,164507,128,0,164775:0:0:0:0:
402,192,164596,128,0,164775:0:0:0:0:
475,192,164686,128,0,164775:0:0:0:0:
36,192,164775,128,0,165132:0:0:0:70:soft-hitclap.wav
109,192,164775,1,0,0:0:0:0:
182,192,164775,1,0,0:0:0:0:
182,192,165132,1,0,0:0:0:70:soft-hitfinish.wav
475,192,165132,1,0,0:0:0:0:
402,192,165132,1,0,0:0:0:0:
329,192,165132,1,0,0:0:0:0:
109,192,165311,1,0,0:0:0:0:
36,192,165489,1,0,0:0:0:0:
109,192,165668,1,0,0:0:0:0:
182,192,165846,1,0,0:0:0:0:
109,192,166025,1,0,0:0:0:0:
36,192,166204,1,0,0:0:0:0:
182,192,166561,1,0,0:0:0:0:
256,0,166561,128,0,167275:0:0:0:0:
109,192,166739,1,0,0:0:0:0:
36,192,166918,1,0,0:0:0:0:
109,192,167096,1,0,0:0:0:0:
182,192,167275,1,0,0:0:0:0:
109,192,167454,1,0,0:0:0:0:
36,192,167632,1,0,0:0:0:0:
329,192,167989,1,0,0:0:0:70:soft-hitfinish.wav
36,192,167989,1,0,0:0:0:0:
182,192,167989,1,0,0:0:0:0:
109,192,167989,1,0,0:0:0:0:
402,192,168168,1,0,0:0:0:0:
475,192,168346,1,0,0:0:0:0:
402,192,168525,1,0,0:0:0:0:
329,192,168704,1,0,0:0:0:0:
402,192,168882,1,0,0:0:0:0:
475,192,169061,1,0,0:0:0:0:
329,192,169418,1,0,0:0:0:0:
256,0,169418,128,0,170132:0:0:0:0:
402,192,169596,1,0,0:0:0:0:
475,192,169775,1,0,0:0:0:0:
402,192,169954,1,0,0:0:0:0:
329,192,170132,1,0,0:0:0:0:
402,192,170311,1,0,0:0:0:0:
475,192,170489,1,0,0:0:0:0:
475,192,170846,1,0,0:0:0:70:soft-hitfinish.wav
36,192,170846,1,0,0:0:0:0:
256,192,170846,1,0,0:0:0:0:
109,192,171025,1,0,0:0:0:0:
329,192,171025,1,0,0:0:0:0:
402,192,171204,1,0,0:0:0:0:
182,192,171204,1,0,0:0:0:0:
475,192,171382,1,0,0:0:0:0:
256,192,171382,1,0,0:0:0:0:
36,192,171561,1,0,0:0:0:0:
109,192,171739,1,0,0:0:0:0:
182,192,171918,1,0,0:0:0:0:
182,0,172275,128,0,172989:0:0:0:70:soft-hitfinish.wav
256,192,172275,1,0,0:0:0:0:
36,192,172275,1,0,0:0:0:0:
475,192,172275,1,0,0:0:0:0:
402,192,172454,1,0,0:0:0:0:
329,192,172632,1,0,0:0:0:0:
402,192,172811,1,0,0:0:0:0:
475,192,172989,1,0,0:0:0:70:soft-hitfinish.wav
36,192,172989,1,0,0:0:0:0:
256,192,172989,1,0,0:0:0:0:
109,0,172989,128,0,173704:0:0:0:0:
402,192,173168,1,0,0:0:0:0:
329,192,173346,1,0,0:0:0:0:
329,192,173704,1,0,0:0:0:70:soft-hitfinish.wav
36,0,173704,128,0,174418:0:0:0:0:
256,192,173882,1,0,0:0:0:0:
182,192,174061,1,0,0:0:0:0:
109,192,174239,1,0,0:0:0:0:
182,192,174418,1,0,0:0:0:0:
256,192,174596,1,0,0:0:0:0:
109,192,174775,1,0,0:0:0:0:
402,192,174775,1,0,0:0:0:0:
109,192,174954,1,0,0:0:0:0:
402,192,174954,1,0,0:0:0:0:
36,192,175132,1,0,0:0:0:70:cymbol.wav
182,192,175132,1,0,0:0:0:0:
329,192,175132,1,0,0:0:0:0:
475,192,175132,1,0,0:0:0:0:
109,192,175311,1,0,0:0:0:0:
256,192,175311,1,0,0:0:0:0:
402,192,175311,1,0,0:0:0:0:
36,192,175489,1,0,0:0:0:0:
182,192,175489,1,0,0:0:0:0:
256,192,175489,1,0,0:0:0:0:
329,192,175489,1,0,0:0:0:0:
475,192,175489,1,0,0:0:0:0:
109,192,175668,128,0,176204:0:0:0:70:soft-hitwhistle.wav
402,192,175668,128,0,176204:0:0:0:0:
256,0,176025,1,0,0:0:0:70:soft-hitwhistle.wav
182,192,176204,1,0,0:0:0:70:soft-hitclap.wav
329,192,176204,1,0,0:0:0:0:
475,192,176204,1,0,0:0:0:0:
36,192,176204,1,0,0:0:0:0:
36,192,176561,1,0,0:0:0:70:soft-hitwhistle.wav
256,192,176561,1,0,0:0:0:70:cymbol.wav
475,192,176561,1,0,0:0:0:0:
109,192,176650,1,0,0:0:0:0:
182,192,176739,1,0,0:0:0:0:
402,192,176739,1,0,0:0:0:0:
256,192,176829,1,0,0:0:0:0:
329,192,176918,1,0,0:0:0:70:soft-hitclap.wav
36,192,176918,1,0,0:0:0:0:
109,192,176918,1,0,0:0:0:0:
402,192,177007,1,0,0:0:0:0:
475,192,177096,1,0,0:0:0:0:
182,192,177096,1,0,0:0:0:0:
402,192,177186,1,0,0:0:0:0:
329,192,177275,1,0,0:0:0:70:soft-hitwhistle.wav
36,192,177275,1,0,0:0:0:0:
256,192,177364,1,0,0:0:0:0:
182,192,177454,1,0,0:0:0:0:
402,192,177454,1,0,0:0:0:0:
109,192,177543,1,0,0:0:0:0:
36,192,177632,128,0,177900:0:0:0:70:soft-hitclap.wav
256,192,177632,128,0,177721:0:0:0:0:
475,192,177632,128,0,177900:0:0:0:0:
256,192,177811,128,0,177900:0:0:0:0:
475,192,177989,1,0,0:0:0:70:soft-hitwhistle.wav
256,192,177989,1,0,0:0:0:0:
36,192,177989,1,0,0:0:0:0:
402,192,178079,1,0,0:0:0:0:
329,192,178168,1,0,0:0:0:0:
109,192,178168,1,0,0:0:0:0:
256,192,178257,1,0,0:0:0:0:
182,192,178346,1,0,0:0:0:70:soft-hitclap.wav
475,192,178346,1,0,0:0:0:0:
402,192,178346,1,0,0:0:0:0:
109,192,178436,1,0,0:0:0:0:
36,192,178525,1,0,0:0:0:0:
329,192,178525,1,0,0:0:0:0:
109,192,178614,1,0,0:0:0:0:
475,192,178704,1,0,0:0:0:70:soft-hitwhistle.wav
182,192,178704,1,0,0:0:0:0:
256,192,178793,1,0,0:0:0:0:
329,192,178882,1,0,0:0:0:0:
109,192,178882,1,0,0:0:0:0:
402,192,178971,1,0,0:0:0:0:
36,192,179061,128,0,179150:0:0:0:70:soft-hitclap.wav
256,192,179061,128,0,179329:0:0:0:0:
475,192,179061,128,0,179150:0:0:0:0:
36,192,179239,128,0,179329:0:0:0:0:
475,192,179239,128,0,179329:0:0:0:0:
36,192,179418,1,0,0:0:0:70:soft-hitwhistle.wav
256,192,179418,1,0,0:0:0:70:cymbol.wav
475,192,179418,1,0,0:0:0:0:
182,192,179596,1,0,0:0:0:0:
329,192,179596,1,0,0:0:0:0:
109,192,179775,1,0,0:0:0:70:soft-hitclap.wav
402,192,179775,1,0,0:0:0:0:
256,192,179775,1,0,0:0:0:0:
36,192,179954,128,0,180489:0:0:0:70:soft-hitwhistle.wav
475,192,179954,128,0,180489:0:0:0:70:cymbol.wav
182,192,179954,128,0,180489:0:0:0:0:
329,192,179954,128,0,180489:0:0:0:0:
256,192,180311,1,0,0:0:0:0:
109,192,180489,1,0,0:0:0:70:soft-hitclap.wav
402,192,180489,1,0,0:0:0:0:
109,192,180668,128,0,181025:0:0:0:70:soft-hitwhistle.wav
256,192,180668,1,0,0:0:0:0:
402,192,180668,128,0,181025:0:0:0:0:
36,192,181025,1,0,0:0:0:0:
475,192,181025,1,0,0:0:0:0:
182,192,181204,1,0,0:0:0:70:soft-hitclap.wav
329,192,181204,1,0,0:0:0:70:LR_Drum Rpd.wav
109,192,181382,1,0,0:0:0:70:LR_Drum Rpd.wav
402,192,181382,1,0,0:0:0:0:
109,192,181471,1,0,0:0:0:70:LR_Drum Rpd.wav
402,192,181471,1,0,0:0:0:0:
36,192,181561,1,0,0:0:0:70:LR_Drum Rpd.wav
475,192,181561,1,0,0:0:0:0:
109,192,181650,1,0,0:0:0:70:LR_Drum Rpd.wav
402,192,181650,1,0,0:0:0:0:
182,192,181739,1,0,0:0:0:70:LR_Drum Rpd.wav
329,192,181739,1,0,0:0:0:0:
109,192,181829,1,0,0:0:0:70:LR_Drum Rpd.wav
402,192,181829,1,0,0:0:0:0:
36,192,181918,1,0,0:0:0:70:LR_Drum Rpd.wav
475,192,181918,1,0,0:0:0:0:
256,192,181918,1,0,0:0:0:0:
182,192,182007,1,0,0:0:0:70:LR_Drum Rpd.wav
402,192,182007,1,0,0:0:0:0:
109,192,182096,1,0,0:0:0:70:LR_Drum Rpd.wav
329,192,182096,1,0,0:0:0:0:
36,192,182186,1,0,0:0:0:70:LR_Drum Rpd.wav
256,192,182186,1,0,0:0:0:0:
475,192,182275,128,0,182989:0:0:0:70:soft-hitwhistle.wav
402,192,182275,1,0,0:0:0:0:
182,192,182275,1,0,0:0:0:0:
36,192,182454,1,0,0:0:0:0:
256,192,182454,1,0,0:0:0:0:
182,192,182632,1,0,0:0:0:70:soft-hitclap.wav
329,192,182632,1,0,0:0:0:0:
402,192,182632,1,0,0:0:0:0:
36,192,182811,1,0,0:0:0:0:
109,192,182811,1,0,0:0:0:0:
402,192,182989,128,0,183525:0:0:0:70:soft-hitwhistle.wav
182,192,182989,1,0,0:0:0:0:
256,192,182989,1,0,0:0:0:0:
329,192,182989,1,0,0:0:0:0:
36,192,183168,1,0,0:0:0:0:
475,192,183168,1,0,0:0:0:0:
182,192,183346,1,0,0:0:0:70:soft-hitclap.wav
256,192,183346,1,0,0:0:0:0:
329,192,183525,128,0,184239:0:0:0:70:soft-hitwhistle.wav
475,192,183525,1,0,0:0:0:0:
36,192,183525,128,0,183793:0:0:0:0:
109,192,183525,1,0,0:0:0:0:
182,192,183704,1,0,0:0:0:0:
256,192,183704,1,0,0:0:0:0:
36,192,183882,1,0,0:0:0:0:
402,192,183882,1,0,0:0:0:0:
109,192,184061,1,0,0:0:0:70:soft-hitclap.wav
256,192,184061,1,0,0:0:0:0:
475,192,184061,1,0,0:0:0:0:
182,192,184239,128,0,185132:0:0:0:0:
36,192,184239,1,0,0:0:0:0:
402,192,184239,1,0,0:0:0:0:
329,192,184418,1,0,0:0:0:0:
475,192,184418,1,0,0:0:0:0:
109,192,184596,1,0,0:0:0:0:
256,192,184596,1,0,0:0:0:0:
402,192,184775,1,0,0:0:0:70:soft-hitclap.wav
475,192,184775,128,0,184864:0:0:0:0:
36,192,184775,1,0,0:0:0:0:
402,192,184954,1,0,0:0:0:70:soft-hitwhistle.wav
475,192,184954,128,0,185043:0:0:0:0:
36,192,184954,1,0,0:0:0:0:
109,192,185132,128,0,185846:0:0:0:70:soft-hitwhistle.wav
256,192,185132,1,0,0:0:0:0:
329,192,185132,1,0,0:0:0:0:
475,192,185132,1,0,0:0:0:0:
402,192,185311,1,0,0:0:0:0:
329,192,185400,1,0,0:0:0:0:
182,192,185489,1,0,0:0:0:70:soft-hitclap.wav
36,192,185489,1,0,0:0:0:0:
256,192,185579,1,0,0:0:0:0:
329,192,185668,1,0,0:0:0:0:
402,192,185757,1,0,0:0:0:0:
36,192,185846,128,0,186382:0:0:0:70:soft-hitwhistle.wav
182,192,185846,1,0,0:0:0:0:
475,192,185846,1,0,0:0:0:0:
256,192,185846,1,0,0:0:0:0:
329,192,186025,1,0,0:0:0:0:
402,192,186025,1,0,0:0:0:0:
475,192,186204,1,0,0:0:0:70:soft-hitclap.wav
182,192,186204,1,0,0:0:0:0:
256,192,186382,128,0,186739:0:0:0:70:soft-hitclap.wav
109,192,186382,1,0,0:0:0:70:cymbol.wav
402,192,186382,1,0,0:0:0:0:
109,192,187096,1,0,0:0:0:70:LR_Drum Rpd.wav
402,192,187186,1,0,0:0:0:70:LR_Drum Rpd.wav
109,192,187275,1,0,0:0:0:70:LR_Drum Rpd.wav
256,192,187275,1,0,0:0:0:0:
402,192,187364,1,0,0:0:0:70:LR_Drum Rpd.wav
109,192,187454,1,0,0:0:0:70:LR_Drum Rpd.wav
402,192,187543,1,0,0:0:0:70:LR_Drum Rpd.wav
109,192,187632,1,0,0:0:0:70:LR_Drum Rpd.wav
182,192,187721,1,0,0:0:0:70:LR_Drum Rpd.wav
329,192,187811,1,0,0:0:0:70:LR_Drum Rpd.wav
402,192,187900,1,0,0:0:0:70:LR_Drum Rpd.wav
256,192,187989,1,0,0:0:0:70:soft-hitwhistle.wav
475,192,187989,128,0,188525:0:0:0:0:
36,192,187989,128,0,190132:0:0:0:0:
109,192,187989,1,0,0:0:0:0:
402,192,188168,1,0,0:0:0:0:
329,192,188346,128,0,188525:0:0:0:70:soft-hitclap.wav
109,192,188346,1,0,0:0:0:0:
182,192,188436,1,0,0:0:0:0:
402,192,188525,128,0,189239:0:0:0:0:
256,192,188525,1,0,0:0:0:0:
329,192,188614,1,0,0:0:0:0:
182,192,188704,1,0,0:0:0:70:soft-hitwhistle.wav
182,192,188882,1,0,0:0:0:0:
256,192,189061,1,0,0:0:0:70:soft-hitclap.wav
475,192,189061,1,0,0:0:0:0:
329,192,189239,128,0,189329:0:0:0:0:
109,192,189239,1,0,0:0:0:0:
256,192,189329,128,0,189418:0:0:0:0:
182,192,189418,128,0,190132:0:0:0:70:soft-hitwhistle.wav
475,192,189418,1,0,0:0:0:0:
329,192,189596,1,0,0:0:0:0:
109,192,189775,1,0,0:0:0:70:soft-hitclap.wav
256,192,189775,1,0,0:0:0:0:
475,192,189775,1,0,0:0:0:0:
402,192,189864,1,0,0:0:0:0:
329,192,189954,1,0,0:0:0:0:
256,192,190043,1,0,0:0:0:0:
402,192,190132,128,0,190311:0:0:0:70:soft-hitwhistle.wav
475,192,190132,1,0,0:0:0:0:
109,192,190132,128,0,190846:0:0:0:0:
256,192,190311,128,0,190489:0:0:0:0:
182,192,190489,1,0,0:0:0:70:soft-hitclap.wav
475,192,190489,128,0,190668:0:0:0:0:
329,192,190668,128,0,190846:0:0:0:0:
402,192,190846,128,0,191204:0:0:0:70:soft-hitwhistle.wav
36,192,190846,128,0,192989:0:0:0:0:
475,192,190846,1,0,0:0:0:0:
256,192,190846,1,0,0:0:0:0:
109,192,191025,1,0,0:0:0:0:
182,192,191204,128,0,191382:0:0:0:70:soft-hitclap.wav
256,192,191204,1,0,0:0:0:0:
475,192,191204,1,0,0:0:0:0:
329,192,191382,128,0,191561:0:0:0:0:
402,192,191382,1,0,0:0:0:0:
475,192,191561,128,0,191739:0:0:0:70:soft-hitwhistle.wav
182,192,191561,1,0,0:0:0:0:
256,192,191739,128,0,192275:0:0:0:0:
329,192,191739,1,0,0:0:0:0:
109,192,191918,1,0,0:0:0:70:soft-hitclap.wav
475,192,191918,1,0,0:0:0:0:
182,192,191918,1,0,0:0:0:0:
402,192,192096,1,0,0:0:0:0:
109,192,192275,128,0,192989:0:0:0:70:soft-hitwhistle.wav
182,192,192275,1,0,0:0:0:0:
329,192,192275,1,0,0:0:0:0:
475,192,192275,1,0,0:0:0:0:
402,192,192454,1,0,0:0:0:0:
256,192,192632,1,0,0:0:0:70:soft-hitclap.wav
475,192,192632,1,0,0:0:0:0:
329,192,192632,1,0,0:0:0:0:
402,192,192811,1,0,0:0:0:0:
182,192,192989,1,0,0:0:0:70:soft-hitwhistle.wav
475,192,192989,128,0,193346:0:0:0:0:
256,192,192989,1,0,0:0:0:0:
402,192,193079,128,0,193346:0:0:0:0:
329,192,193168,128,0,193346:0:0:0:0:
256,192,193257,128,0,193346:0:0:0:0:
36,192,193346,128,0,193436:0:0:0:70:soft-hitclap.wav
109,192,193346,128,0,193436:0:0:0:0:
182,192,193346,1,0,0:0:0:0:
36,192,193525,128,0,193614:0:0:0:0:
109,192,193525,128,0,193614:0:0:0:0:
109,192,193704,128,0,193882:0:0:0:70:soft-hitwhistle.wav
36,192,193704,128,0,195132:0:0:0:0:
475,192,193704,1,0,0:0:0:0:
329,192,193704,1,0,0:0:0:0:
256,192,193882,128,0,194061:0:0:0:0:
402,192,193882,1,0,0:0:0:0:
109,192,194061,1,0,0:0:0:70:soft-hitclap.wav
182,192,194061,128,0,194239:0:0:0:0:
329,192,194061,1,0,0:0:0:0:
475,192,194061,1,0,0:0:0:0:
329,192,194239,128,0,194418:0:0:0:0:
402,192,194239,1,0,0:0:0:0:
109,192,194418,1,0,0:0:0:0:
256,192,194418,128,0,194596:0:0:0:0:
402,192,194596,128,0,194775:0:0:0:70:soft-hitwhistle.wav
329,192,194596,1,0,0:0:0:0:
475,192,194775,1,0,0:0:0:70:soft-hitclap.wav
109,192,194775,1,0,0:0:0:0:
256,192,194775,1,0,0:0:0:0:
182,192,194775,128,0,194954:0:0:0:0:
402,192,194954,1,0,0:0:0:0:
329,192,194954,128,0,195132:0:0:0:0:
256,192,195132,128,0,195311:0:0:0:70:soft-hitwhistle.wav
475,192,195132,128,0,196561:0:0:0:0:
109,192,195132,1,0,0:0:0:0:
182,192,195311,1,0,0:0:0:0:
402,192,195311,128,0,195668:0:0:0:0:
36,192,195489,1,0,0:0:0:70:soft-hitclap.wav
256,192,195489,1,0,0:0:0:0:
329,192,195668,128,0,195757:0:0:0:0:
109,192,195668,1,0,0:0:0:0:
256,192,195757,128,0,195846:0:0:0:0:
182,192,195846,128,0,196025:0:0:0:70:soft-hitwhistle.wav
402,192,195846,1,0,0:0:0:0:
36,192,195846,1,0,0:0:0:0:
256,192,196025,1,0,0:0:0:0:
36,192,196025,128,0,196204:0:0:0:0:
402,192,196204,1,0,0:0:0:70:soft-hitclap.wav
109,192,196204,1,0,0:0:0:0:
329,192,196204,128,0,196382:0:0:0:0:
182,192,196293,1,0,0:0:0:0:
256,192,196382,1,0,0:0:0:0:
109,192,196382,128,0,196561:0:0:0:0:
329,192,196471,1,0,0:0:0:0:
402,192,196561,1,0,0:0:0:70:soft-hitwhistle.wav
36,192,196561,128,0,196650:0:0:0:0:
256,192,196561,128,0,196739:0:0:0:0:
182,192,196650,128,0,196739:0:0:0:0:
475,192,196739,128,0,196829:0:0:0:0:
402,192,196739,128,0,196918:0:0:0:0:
329,192,196829,128,0,196918:0:0:0:0:
182,192,196918,128,0,197275:0:0:0:70:soft-hitclap.wav
36,192,196918,128,0,197007:0:0:0:0:
256,192,196918,128,0,197007:0:0:0:0:
109,192,197007,128,0,197096:0:0:0:0:
475,192,197007,128,0,197096:0:0:0:0:
402,192,197096,128,0,197186:0:0:0:0:
329,192,197096,128,0,197186:0:0:0:0:
256,192,197186,128,0,197275:0:0:0:0:
36,192,197186,128,0,197275:0:0:0:0:
475,192,197275,128,0,197632:0:0:0:70:soft-hitwhistle.wav
402,192,197364,128,0,197632:0:0:0:0:
329,192,197454,128,0,197632:0:0:0:0:
256,192,197543,128,0,197632:0:0:0:0:
36,192,197632,128,0,197989:0:0:0:70:soft-hitclap.wav
109,192,197721,128,0,197989:0:0:0:0:
182,192,197811,128,0,197989:0:0:0:0:
256,192,197900,128,0,197989:0:0:0:0:
475,192,197989,128,0,198168:0:0:0:70:soft-hitwhistle.wav
402,192,197989,1,0,0:0:0:70:cymbol.wav
109,192,198168,128,0,198346:0:0:0:0:
182,192,198168,1,0,0:0:0:0:
402,192,198346,128,0,198525:0:0:0:70:soft-hitclap.wav
329,192,198346,1,0,0:0:0:0:
36,192,198525,128,0,199061:0:0:0:70:soft-hitwhistle.wav
109,192,198525,1,0,0:0:0:70:cymbol.wav
256,192,198525,1,0,0:0:0:0:
475,192,198525,128,0,199061:0:0:0:0:
256,192,198882,1,0,0:0:0:70:soft-hitwhistle.wav
182,192,199061,1,0,0:0:0:70:soft-hitclap.wav
329,192,199061,1,0,0:0:0:70:LR_Drum Rpd.wav
329,192,199239,1,0,0:0:0:70:LR_Drum Rpd.wav
402,192,199239,1,0,0:0:0:0:
109,192,199329,1,0,0:0:0:70:LR_Drum Rpd.wav
182,192,199329,1,0,0:0:0:0:
475,192,199418,128,0,199775:0:0:0:70:soft-hitwhistle.wav
36,192,199418,128,0,199507:0:0:0:0:
256,192,199418,1,0,0:0:0:0:
109,192,199507,128,0,199596:0:0:0:0:
182,192,199596,128,0,199686:0:0:0:0:
402,192,199596,1,0,0:0:0:0:
256,192,199686,128,0,199775:0:0:0:0:
402,192,199775,128,0,200132:0:0:0:70:soft-hitclap.wav
36,192,199775,128,0,199864:0:0:0:0:
109,192,199864,128,0,199954:0:0:0:0:
182,192,199954,128,0,200043:0:0:0:0:
329,192,199954,1,0,0:0:0:0:
109,192,200043,128,0,200132:0:0:0:0:
329,192,200132,128,0,200400:0:0:0:70:soft-hitwhistle.wav
36,192,200132,128,0,200221:0:0:0:0:
256,192,200221,128,0,200400:0:0:0:0:
182,192,200311,128,0,200400:0:0:0:0:
475,192,200489,1,0,0:0:0:70:soft-hitclap.wav
36,192,200489,1,0,0:0:0:0:
256,192,200489,1,0,0:0:0:0:
182,192,200489,1,0,0:0:0:0:
329,192,200489,1,0,0:0:0:0:
182,192,200668,128,0,201025:0:0:0:0:
256,192,200846,1,0,0:0:0:70:soft-hitwhistle.wav
36,192,200846,128,0,201204:0:0:0:0:
475,192,200846,128,0,200936:0:0:0:0:
402,192,200936,128,0,201025:0:0:0:0:
329,192,201025,128,0,201114:0:0:0:0:
109,192,201025,1,0,0:0:0:0:
256,192,201114,128,0,201204:0:0:0:0:
109,192,201204,128,0,201561:0:0:0:70:soft-hitclap.wav
475,192,201204,128,0,201293:0:0:0:0:
402,192,201293,128,0,201382:0:0:0:0:
329,192,201382,128,0,201471:0:0:0:0:
182,192,201382,1,0,0:0:0:0:
402,192,201471,128,0,201561:0:0:0:0:
182,192,201561,128,0,201829:0:0:0:70:soft-hitwhistle.wav
475,192,201561,128,0,201650:0:0:0:0:
256,192,201650,128,0,201829:0:0:0:0:
329,192,201739,128,0,201829:0:0:0:0:
256,192,201918,1,0,0:0:0:70:soft-hitclap.wav
475,192,201918,1,0,0:0:0:0:
182,192,201918,1,0,0:0:0:0:
36,192,201918,1,0,0:0:0:0:
329,192,201918,1,0,0:0:0:0:
109,192,202096,1,0,0:0:0:0:
402,192,202096,1,0,0:0:0:0:
109,192,202186,1,0,0:0:0:0:
402,192,202186,1,0,0:0:0:0:
475,192,202275,128,0,202632:0:0:0:70:soft-hitwhistle.wav
36,192,202275,128,0,202364:0:0:0:0:
256,192,202275,128,0,202364:0:0:0:0:
182,192,202364,128,0,202454:0:0:0:0:
329,192,202454,128,0,202632:0:0:0:0:
109,192,202454,128,0,202543:0:0:0:0:
36,192,202543,128,0,202632:0:0:0:0:
402,192,202632,128,0,203168:0:0:0:70:soft-hitclap.wav
182,192,202632,128,0,202811:0:0:0:0:
256,192,202632,128,0,202721:0:0:0:0:
36,192,202811,128,0,203525:0:0:0:0:
329,192,202811,128,0,202989:0:0:0:0:
256,192,202900,128,0,202989:0:0:0:0:
109,192,202989,128,0,203079:0:0:0:70:soft-hitwhistle.wav
182,192,203079,128,0,203168:0:0:0:0:
329,192,203168,128,0,203525:0:0:0:0:
256,192,203168,128,0,203257:0:0:0:0:
182,192,203257,128,0,203346:0:0:0:0:
475,192,203346,128,0,203525:0:0:0:70:soft-hitclap.wav
109,192,203346,128,0,203436:0:0:0:0:
182,192,203436,128,0,203525:0:0:0:0:
402,192,203525,128,0,203882:0:0:0:0:
256,192,203525,128,0,203614:0:0:0:0:
329,192,203614,128,0,203704:0:0:0:0:
182,192,203704,128,0,203793:0:0:0:70:soft-hitwhistle.wav
36,192,203704,1,0,0:0:0:0:
256,192,203793,128,0,203882:0:0:0:0:
109,192,203882,128,0,204239:0:0:0:0:
329,192,203882,128,0,203971:0:0:0:0:
402,192,203971,128,0,204061:0:0:0:0:
329,192,204061,128,0,204150:0:0:0:70:soft-hitclap.wav
256,192,204150,128,0,204239:0:0:0:0:
182,192,204239,128,0,204596:0:0:0:0:
36,192,204239,128,0,205132:0:0:0:0:
475,192,204239,128,0,205132:0:0:0:0:
402,192,204596,128,0,204775:0:0:0:0:
256,192,204596,1,0,0:0:0:0:
109,192,204775,128,0,204954:0:0:0:70:soft-hitclap.wav
256,192,204775,1,0,0:0:0:0:
402,192,204954,128,0,205132:0:0:0:0:
256,192,204954,1,0,0:0:0:0:
329,192,205132,128,0,205251:0:0:0:70:soft-hitwhistle.wav
182,192,205132,128,0,205251:0:0:0:0:
256,192,205251,128,0,205370:0:0:0:0:
109,192,205251,128,0,205370:0:0:0:0:
36,192,205370,128,0,205489:0:0:0:0:
182,192,205370,128,0,205489:0:0:0:0:
256,192,205489,128,0,205608:0:0:0:70:soft-hitclap.wav
402,192,205489,128,0,205608:0:0:0:0:
329,192,205608,128,0,205727:0:0:0:0:
182,192,205608,128,0,205727:0:0:0:0:
256,192,205727,128,0,205846:0:0:0:0:
109,192,205727,128,0,205846:0:0:0:0:
475,192,205846,128,0,205966:0:0:0:70:soft-hitwhistle.wav
329,192,205846,128,0,205966:0:0:0:0:
256,192,205966,128,0,206085:0:0:0:0:
402,192,205966,128,0,206085:0:0:0:0:
182,192,206085,128,0,206204:0:0:0:0:
329,192,206085,128,0,206204:0:0:0:0:
256,192,206204,128,0,206323:0:0:0:70:soft-hitclap.wav
109,192,206204,128,0,206323:0:0:0:0:
36,192,206323,128,0,206442:0:0:0:0:
182,192,206323,128,0,206442:0:0:0:0:
109,192,206442,128,0,206561:0:0:0:0:
256,192,206442,128,0,206561:0:0:0:0:
182,192,206561,128,0,206680:0:0:0:70:soft-hitwhistle.wav
329,192,206561,128,0,206680:0:0:0:0:
402,192,206680,128,0,206799:0:0:0:0:
256,192,206680,128,0,206799:0:0:0:0:
475,192,206799,128,0,206918:0:0:0:0:
329,192,206799,128,0,206918:0:0:0:0:
256,192,206918,128,0,207037:0:0:0:70:soft-hitclap.wav
109,192,206918,128,0,207037:0:0:0:0:
329,192,207037,128,0,207156:0:0:0:0:
182,192,207037,128,0,207156:0:0:0:0:
402,192,207156,128,0,207275:0:0:0:0:
256,192,207156,128,0,207275:0:0:0:0:
182,192,207275,128,0,207394:0:0:0:70:soft-hitwhistle.wav
36,192,207275,128,0,207394:0:0:0:0:
109,192,207394,128,0,207513:0:0:0:0:
256,192,207394,128,0,207513:0:0:0:0:
329,192,207513,128,0,207632:0:0:0:0:
182,192,207513,128,0,207632:0:0:0:0:
36,192,207632,128,0,207870:0:0:0:70:soft-hitclap.wav
475,192,207632,128,0,207870:0:0:0:0:
256,192,207632,128,0,207870:0:0:0:0:
36,192,207989,128,0,208614:0:0:0:70:soft-hitwhistle.wav
475,192,207989,128,0,208108:0:0:0:0:
402,192,208108,128,0,208227:0:0:0:0:
329,192,208227,128,0,208346:0:0:0:0:
109,192,208346,128,0,208466:0:0:0:70:soft-hitclap.wav
182,192,208466,128,0,208585:0:0:0:0:
256,192,208585,128,0,208704:0:0:0:0:
36,192,208704,128,0,209061:0:0:0:70:soft-hitclap.wav
475,192,208704,128,0,208971:0:0:0:0:
329,192,208704,1,0,0:0:0:0:
109,192,208793,128,0,209061:0:0:0:70:soft-hitclap.wav
182,192,208882,128,0,209061:0:0:0:70:soft-hitclap.wav
256,192,208971,128,0,209061:0:0:0:70:soft-hitclap.wav
329,192,209061,1,0,0:0:0:70:soft-hitclap.wav
475,192,209061,1,0,0:0:0:0:
36,192,209239,128,0,209329:0:0:0:70:soft-hitwhistle.wav
256,192,209239,128,0,209329:0:0:0:70:soft-hitclap.wav
475,192,209239,128,0,209329:0:0:0:70:cymbol.wav
109,192,209596,128,0,209686:0:0:0:70:soft-hitwhistle.wav
182,192,209596,128,0,209686:0:0:0:70:soft-hitclap.wav
329,192,209596,128,0,209686:0:0:0:70:cymbol.wav
402,192,209596,128,0,209686:0:0:0:0:
182,192,209954,128,0,210579:0:0:0:70:soft-hitwhistle.wav
329,192,209954,128,0,210579:0:0:0:70:soft-hitclap.wav
256,192,209954,128,0,210043:0:0:0:70:cymbol.wav
36,192,209954,128,0,210043:0:0:0:0:
475,192,209954,128,0,210043:0:0:0:0:
256,192,210489,128,0,210579:0:0:0:70:soft-hitclap.wav
256,192,210846,128,0,213704:0:0:0:0:
182,192,212275,128,0,213704:0:0:0:0:
329,192,212989,128,0,213704:0:0:0:0:
36,192,213704,1,0,0:0:0:70:soft-hitfinish.wav
475,192,213704,1,0,0:0:0:0:
109,192,215132,128,0,215846:0:0:0:0:
402,192,215846,128,0,216561:0:0:0:0:
182,192,216561,128,0,217275:0:0:0:0:
475,192,217275,128,0,217989:0:0:0:0:
329,192,217989,128,0,218704:0:0:0:0:
36,192,218704,128,0,219418:0:0:0:0:
256,192,219418,128,0,220846:0:0:0:70:soft-hitfinish.wav
109,192,220846,128,0,221382:0:0:0:0:
402,192,221382,128,0,221918:0:0:0:0:
182,192,221918,128,0,222275:0:0:0:0:
475,192,222275,128,0,222989:0:0:0:70:soft-hitfinish.wav
109,192,222989,128,0,223168:0:0:0:0:
402,192,223168,128,0,223346:0:0:0:0:
256,192,223346,128,0,224418:0:0:0:0:
475,192,223704,128,0,224775:0:0:0:0:
36,192,224061,128,0,224775:0:0:0:0:
329,192,224418,128,0,224775:0:0:0:0:
182,192,224596,128,0,224775:0:0:0:0:
256,192,224775,1,0,0:0:0:70:soft-hitclap.wav
109,192,225132,128,0,226471:0:0:0:70:cymbol.wav
402,192,225132,128,0,226471:0:0:0:0:
36,192,225132,1,0,0:0:0:0:
475,192,225132,1,0,0:0:0:0:
256,192,225132,1,0,0:0:0:0:
182,192,225489,1,0,0:0:0:0:
329,192,225668,1,0,0:0:0:0:
182,192,225846,1,0,0:0:0:0:
329,192,226025,1,0,0:0:0:0:
182,192,226204,1,0,0:0:0:0:
329,192,226382,1,0,0:0:0:0:
182,192,226561,128,0,227900:0:0:0:70:cymbol.wav
329,192,226561,128,0,227900:0:0:0:0:
36,192,226561,1,0,0:0:0:0:
475,192,226561,1,0,0:0:0:0:
256,192,226561,1,0,0:0:0:0:
109,192,226918,1,0,0:0:0:0:
402,192,227096,1,0,0:0:0:0:
109,192,227275,1,0,0:0:0:0:
402,192,227454,1,0,0:0:0:0:
109,192,227632,1,0,0:0:0:0:
402,192,227811,1,0,0:0:0:0:
36,192,227989,128,0,229329:0:0:0:70:cymbol.wav
475,192,227989,128,0,229329:0:0:0:0:
329,192,227989,1,0,0:0:0:0:
256,192,227989,128,0,229061:0:0:0:0:
182,192,227989,1,0,0:0:0:0:
109,192,228168,1,0,0:0:0:0:
402,192,228346,1,0,0:0:0:0:
182,192,228525,1,0,0:0:0:0:
329,192,228704,1,0,0:0:0:0:
182,192,228882,1,0,0:0:0:0:
402,192,229061,1,0,0:0:0:0:
109,192,229061,1,0,0:0:0:0:
329,192,229150,1,0,0:0:0:0:
182,192,229150,1,0,0:0:0:0:
256,192,229239,1,0,0:0:0:0:
182,192,229329,1,0,0:0:0:0:
329,192,229329,1,0,0:0:0:0:
36,192,229418,1,0,0:0:0:0:
109,192,229418,1,0,0:0:0:0:
402,192,229418,1,0,0:0:0:0:
475,192,229418,1,0,0:0:0:0:
256,192,229596,1,0,0:0:0:0:
36,192,229775,1,0,0:0:0:0:
475,192,229775,1,0,0:0:0:0:
109,192,229864,1,0,0:0:0:0:
402,192,229864,1,0,0:0:0:0:
182,192,229954,1,0,0:0:0:0:
329,192,229954,1,0,0:0:0:0:
109,192,230043,1,0,0:0:0:0:
402,192,230043,1,0,0:0:0:0:
36,192,230132,1,0,0:0:0:0:cymbol.wav
475,192,230132,1,0,0:0:0:0:
256,192,230132,1,0,0:0:0:0:
109,192,230400,1,0,0:0:0:0:cymbol.wav
256,192,230400,1,0,0:0:0:0:
402,192,230400,1,0,0:0:0:0:
182,192,230668,1,0,0:0:0:0:cymbol.wav
329,192,230668,1,0,0:0:0:0:
256,192,230668,1,0,0:0:0:0:
475,192,230846,128,0,231829:0:0:0:70:soft-hitwhistle.wav
36,192,230846,1,0,0:0:0:70:cymbol.wav
256,192,230846,1,0,0:0:0:0:
109,192,230936,1,0,0:0:0:0:
329,192,230936,1,0,0:0:0:0:
182,192,231025,1,0,0:0:0:0:
402,192,231025,1,0,0:0:0:0:
256,192,231114,1,0,0:0:0:0:
36,192,231114,1,0,0:0:0:0:
329,192,231204,1,0,0:0:0:70:soft-hitclap.wav
109,192,231204,1,0,0:0:0:0:
402,192,231293,1,0,0:0:0:0:
329,192,231382,1,0,0:0:0:0:
256,192,231471,1,0,0:0:0:0:
182,192,231561,1,0,0:0:0:70:soft-hitwhistle.wav
36,192,231561,1,0,0:0:0:0:
109,192,231650,1,0,0:0:0:0:
182,192,231739,1,0,0:0:0:0:
256,192,231829,1,0,0:0:0:0:
329,192,231918,1,0,0:0:0:70:soft-hitclap.wav
36,192,231918,1,0,0:0:0:0:
475,192,231918,1,0,0:0:0:0:
182,192,232007,1,0,0:0:0:0:
402,192,232096,1,0,0:0:0:0:
109,192,232186,1,0,0:0:0:0:
256,192,232275,128,0,232989:0:0:0:70:soft-hitwhistle.wav
36,192,232275,128,0,232632:0:0:0:0:
329,192,232275,1,0,0:0:0:0:
475,192,232275,1,0,0:0:0:0:
109,192,232454,128,0,232632:0:0:0:0:
402,192,232454,1,0,0:0:0:0:
182,192,232632,128,0,232989:0:0:0:70:soft-hitclap.wav
475,192,232632,1,0,0:0:0:0:
329,192,232632,1,0,0:0:0:0:
402,192,232811,1,0,0:0:0:0:
109,192,232811,128,0,232989:0:0:0:0:
329,192,232989,128,0,233704:0:0:0:70:soft-hitwhistle.wav
475,192,232989,1,0,0:0:0:70:soft-hitwhistle.wav
36,192,232989,128,0,233346:0:0:0:0:
109,192,233168,128,0,233346:0:0:0:0:
402,192,233168,1,0,0:0:0:0:
182,192,233346,128,0,233704:0:0:0:70:soft-hitclap.wav
475,192,233346,1,0,0:0:0:0:
256,192,233346,1,0,0:0:0:0:
109,192,233525,128,0,233704:0:0:0:0:
402,192,233525,1,0,0:0:0:0:
402,192,233704,128,0,234418:0:0:0:70:soft-hitwhistle.wav
475,192,233704,1,0,0:0:0:0:
36,192,233704,1,0,0:0:0:0:
256,192,233704,1,0,0:0:0:0:
109,192,233793,1,0,0:0:0:0:
182,192,233882,1,0,0:0:0:0:
256,192,233971,1,0,0:0:0:0:
475,192,234061,1,0,0:0:0:70:soft-hitclap.wav
329,192,234061,1,0,0:0:0:0:
36,192,234061,1,0,0:0:0:0:
256,192,234150,1,0,0:0:0:0:
182,192,234239,1,0,0:0:0:0:
109,192,234329,1,0,0:0:0:0:
36,192,234418,128,0,235132:0:0:0:70:soft-hitwhistle.wav
475,192,234418,1,0,0:0:0:0:
329,192,234418,1,0,0:0:0:0:
256,192,234507,1,0,0:0:0:0:
182,192,234596,1,0,0:0:0:0:
109,192,234686,1,0,0:0:0:0:
182,192,234775,1,0,0:0:0:70:soft-hitclap.wav
475,192,234775,1,0,0:0:0:0:
329,192,234775,1,0,0:0:0:0:
256,192,234864,1,0,0:0:0:0:
329,192,234954,1,0,0:0:0:0:
402,192,235043,1,0,0:0:0:0:
182,192,235132,128,0,235846:0:0:0:70:soft-hitwhistle.wav
109,192,235132,1,0,0:0:0:0:
329,192,235132,128,0,235489:0:0:0:0:
256,192,235132,1,0,0:0:0:0:
475,192,235132,1,0,0:0:0:0:
402,192,235311,128,0,235489:0:0:0:0:
36,192,235311,1,0,0:0:0:0:
475,192,235489,128,0,235846:0:0:0:70:soft-hitclap.wav
109,192,235489,1,0,0:0:0:0:
256,192,235489,1,0,0:0:0:0:
402,192,235668,128,0,235846:0:0:0:0:
36,192,235668,1,0,0:0:0:0:
109,192,235846,128,0,236561:0:0:0:70:soft-hitwhistle.wav
329,192,235846,128,0,236204:0:0:0:0:
256,192,235846,1,0,0:0:0:0:
402,192,236025,128,0,236204:0:0:0:0:
36,192,236025,1,0,0:0:0:0:
475,192,236204,128,0,236561:0:0:0:70:soft-hitclap.wav
182,192,236204,1,0,0:0:0:0:
256,192,236204,1,0,0:0:0:0:
402,192,236382,128,0,236561:0:0:0:0:
36,192,236382,1,0,0:0:0:0:
329,192,236561,128,0,237632:0:0:0:70:soft-hitwhistle.wav
36,192,236561,128,0,236650:0:0:0:0:
256,192,236561,1,0,0:0:0:0:
109,192,236650,128,0,236739:0:0:0:0:
182,192,236739,128,0,236829:0:0:0:0:
402,192,236739,1,0,0:0:0:0:
256,192,236829,128,0,236918:0:0:0:0:
36,192,236918,128,0,237007:0:0:0:70:soft-hitclap.wav
402,192,236918,1,0,0:0:0:0:
475,192,236918,1,0,0:0:0:0:
109,192,237007,128,0,237096:0:0:0:0:
182,192,237096,128,0,237186:0:0:0:0:
475,192,237096,1,0,0:0:0:0:
109,192,237186,128,0,237275:0:0:0:0:
36,192,237275,128,0,237364:0:0:0:70:soft-hitwhistle.wav
402,192,237275,1,0,0:0:0:0:
109,192,237364,128,0,237454:0:0:0:0:
182,192,237454,128,0,237543:0:0:0:0:
475,192,237454,1,0,0:0:0:0:
256,192,237543,128,0,237632:0:0:0:0:
36,192,237632,128,0,237721:0:0:0:70:soft-hitclap.wav
402,192,237632,1,0,0:0:0:0:
475,192,237632,1,0,0:0:0:0:
109,192,237721,128,0,237811:0:0:0:0:
182,192,237811,128,0,237900:0:0:0:0:
402,192,237811,1,0,0:0:0:0:
109,192,237900,128,0,237989:0:0:0:0:
329,0,237989,128,0,238257:0:0:0:70:soft-hitwhistle.wav
36,0,237989,128,0,238525:0:0:0:0:
256,192,237989,1,0,0:0:0:0:
475,192,237989,1,0,0:0:0:0:
182,192,238079,1,0,0:0:0:0:
109,192,238168,1,0,0:0:0:0:
475,192,238257,1,0,0:0:0:0:
402,192,238346,1,0,0:0:0:70:soft-hitclap.wav
329,0,238346,128,0,238436:0:0:0:0:
256,192,238436,1,0,0:0:0:0:
475,0,238525,128,0,239329:0:0:0:0:
402,192,238525,1,0,0:0:0:0:
329,0,238525,128,0,238614:0:0:0:0:
256,192,238614,1,0,0:0:0:0:
36,192,238704,1,0,0:0:0:70:soft-hitwhistle.wav
182,0,238704,128,0,238971:0:0:0:0:
109,192,238793,1,0,0:0:0:0:
256,192,238882,1,0,0:0:0:0:
329,192,238971,1,0,0:0:0:0:
402,0,239061,128,0,239329:0:0:0:70:soft-hitclap.wav
36,192,239061,1,0,0:0:0:0:
182,0,239061,128,0,239150:0:0:0:0:
256,192,239150,1,0,0:0:0:0:
36,192,239239,1,0,0:0:0:0:
182,0,239239,128,0,239329:0:0:0:0:
256,192,239329,1,0,0:0:0:0:
36,192,239418,128,0,239596:0:0:0:70:soft-hitwhistle.wav
475,192,239418,128,0,239596:0:0:0:0:
109,192,239507,128,0,239686:0:0:0:0:
402,192,239507,128,0,239686:0:0:0:0:
182,192,239596,128,0,239775:0:0:0:0:
329,192,239596,128,0,239775:0:0:0:0:
256,192,239686,128,0,239864:0:0:0:0:
36,192,239775,128,0,239864:0:0:0:70:soft-hitclap.wav
475,192,239775,128,0,239864:0:0:0:0:soft-hitclap.wav
109,192,239864,128,0,239954:0:0:0:0:
402,192,239864,128,0,239954:0:0:0:0:
182,192,239954,128,0,240043:0:0:0:0:
329,192,239954,128,0,240043:0:0:0:0:
256,192,240043,128,0,240132:0:0:0:0:
36,192,240132,128,0,240311:0:0:0:70:soft-hitwhistle.wav
402,192,240132,128,0,240311:0:0:0:0:
475,192,240132,128,0,240221:0:0:0:0:
182,192,240221,128,0,240400:0:0:0:0:
329,192,240311,128,0,240489:0:0:0:0:
475,192,240400,128,0,240579:0:0:0:0:
36,192,240400,1,0,0:0:0:0:
109,192,240489,128,0,240757:0:0:0:70:soft-hitclap.wav
182,192,240489,1,0,0:0:0:0:
256,192,240579,128,0,240757:0:0:0:0:
329,192,240579,1,0,0:0:0:0:
402,192,240668,128,0,240757:0:0:0:0:
475,192,240668,1,0,0:0:0:0:
36,192,240846,1,0,0:0:0:70:LR_Drum Rpd.wav
182,192,240846,1,0,0:0:0:0:
329,192,240846,1,0,0:0:0:0:
475,192,240846,1,0,0:0:0:0:
256,192,240846,1,0,0:0:0:0:
109,192,241025,1,0,0:0:0:70:LR_Drum Rpd.wav
402,192,241025,1,0,0:0:0:0:
182,192,241114,1,0,0:0:0:70:LR_Drum Rpd.wav
329,192,241114,1,0,0:0:0:0:
36,192,241204,1,0,0:0:0:70:LR_Drum Rpd.wav
475,192,241204,1,0,0:0:0:0:
182,192,241293,1,0,0:0:0:70:LR_Drum Rpd.wav
329,192,241293,1,0,0:0:0:0:
36,192,241382,1,0,0:0:0:70:LR_Drum Rpd.wav
475,192,241382,1,0,0:0:0:0:
182,192,241471,1,0,0:0:0:70:LR_Drum Rpd.wav
329,192,241471,1,0,0:0:0:0:
36,192,241561,1,0,0:0:0:70:LR_Drum Rpd.wav
475,192,241561,1,0,0:0:0:0:
109,192,241739,1,0,0:0:0:70:soft-hitclap.wav
402,192,241739,1,0,0:0:0:0:
109,192,241829,1,0,0:0:0:70:soft-hitclap.wav
402,192,241829,1,0,0:0:0:0:
36,192,241918,1,0,0:0:0:70:soft-hitclap.wav
475,192,241918,1,0,0:0:0:0:
109,192,242007,1,0,0:0:0:70:soft-hitclap.wav
402,192,242007,1,0,0:0:0:0:
182,192,242096,1,0,0:0:0:70:soft-hitclap.wav
329,192,242096,1,0,0:0:0:0:
109,192,242186,1,0,0:0:0:70:soft-hitclap.wav
402,192,242186,1,0,0:0:0:0:
36,192,242275,128,0,242632:0:0:0:70:soft-hitwhistle.wav
256,192,242275,1,0,0:0:0:70:cymbol.wav
475,192,242275,1,0,0:0:0:0:
329,192,242364,1,0,0:0:0:0:
402,192,242454,1,0,0:0:0:0:
109,192,242454,1,0,0:0:0:0:
182,192,242543,1,0,0:0:0:0:
109,192,242632,128,0,242811:0:0:0:70:soft-hitclap.wav
475,192,242632,1,0,0:0:0:0:
256,192,242632,1,0,0:0:0:0:
402,192,242721,1,0,0:0:0:0:
182,192,242811,128,0,243346:0:0:0:0:
329,192,242811,1,0,0:0:0:0:
402,192,242900,1,0,0:0:0:0:
475,192,242989,1,0,0:0:0:70:soft-hitwhistle.wav
36,192,242989,1,0,0:0:0:0:
402,192,243079,1,0,0:0:0:0:
256,192,243168,1,0,0:0:0:0:
109,192,243168,1,0,0:0:0:0:
329,192,243257,1,0,0:0:0:0:
475,192,243346,128,0,243525:0:0:0:70:soft-hitclap.wav
36,192,243346,1,0,0:0:0:0:
402,192,243346,1,0,0:0:0:0:
109,192,243436,1,0,0:0:0:0:
402,192,243525,128,0,243882:0:0:0:0:
182,192,243525,1,0,0:0:0:0:
256,192,243614,1,0,0:0:0:0:
36,192,243704,1,0,0:0:0:70:soft-hitwhistle.wav
329,192,243704,1,0,0:0:0:0:
109,192,243793,1,0,0:0:0:0:
329,192,243882,128,0,243971:0:0:0:0:
182,192,243882,1,0,0:0:0:0:
109,192,243971,1,0,0:0:0:0:
329,192,244061,128,0,244775:0:0:0:70:soft-hitclap.wav
36,192,244061,1,0,0:0:0:0:
475,192,244061,1,0,0:0:0:0:
109,192,244150,1,0,0:0:0:0:
182,192,244239,1,0,0:0:0:0:
256,192,244329,1,0,0:0:0:0:
36,192,244418,1,0,0:0:0:70:soft-hitwhistle.wav
475,192,244418,1,0,0:0:0:0:
109,192,244507,1,0,0:0:0:0:
182,192,244596,1,0,0:0:0:0:
256,192,244686,1,0,0:0:0:0:
109,192,244775,128,0,244954:0:0:0:70:soft-hitclap.wav
475,192,244775,1,0,0:0:0:0:
36,192,244775,1,0,0:0:0:0:
256,192,244864,1,0,0:0:0:0:
402,192,244954,128,0,245132:0:0:0:0:
329,192,244954,1,0,0:0:0:0:
182,192,245043,1,0,0:0:0:0:
36,192,245132,128,0,245489:0:0:0:70:soft-hitwhistle.wav
256,192,245132,1,0,0:0:0:0:
475,192,245132,1,0,0:0:0:0:
402,192,245221,1,0,0:0:0:0:
329,192,245311,1,0,0:0:0:0:
109,192,245311,1,0,0:0:0:0:
182,192,245400,1,0,0:0:0:0:
475,192,245489,1,0,0:0:0:70:soft-hitclap.wav
109,192,245489,128,0,245668:0:0:0:0:
256,192,245489,1,0,0:0:0:0:
402,192,245579,1,0,0:0:0:0:
256,192,245668,128,0,246114:0:0:0:0:
329,192,245668,1,0,0:0:0:0:
182,192,245757,1,0,0:0:0:0:
36,192,245846,1,0,0:0:0:70:soft-hitwhistle.wav
475,192,245846,1,0,0:0:0:0:
402,192,245936,1,0,0:0:0:0:
109,192,245936,1,0,0:0:0:0:
329,192,246025,1,0,0:0:0:0:
182,192,246025,1,0,0:0:0:0:
109,192,246114,1,0,0:0:0:0:
402,192,246114,1,0,0:0:0:0:
36,192,246204,1,0,0:0:0:70:soft-hitclap.wav
256,192,246204,1,0,0:0:0:0:
475,192,246204,1,0,0:0:0:0:
182,192,246382,128,0,246650:0:0:0:70:soft-hitwhistle.wav
329,192,246382,128,0,246650:0:0:0:70:cymbol.wav
36,192,246382,128,0,246829:0:0:0:0:
475,192,246382,128,0,246829:0:0:0:0:
182,192,246739,1,0,0:0:0:70:soft-hitwhistle.wav
329,192,246739,1,0,0:0:0:0:
36,192,246918,1,0,0:0:0:70:soft-hitclap.wav
109,192,246918,1,0,0:0:0:0:
402,192,246918,1,0,0:0:0:0:
475,192,246918,1,0,0:0:0:0:
256,192,246918,1,0,0:0:0:0:
109,192,247275,1,0,0:0:0:70:soft-hitclap.wav
182,192,247275,1,0,0:0:0:0:
256,192,247275,1,0,0:0:0:0:
329,192,247275,1,0,0:0:0:0:
402,192,247275,1,0,0:0:0:0:
109,192,247632,1,0,0:0:0:70:soft-hitclap.wav
182,192,247632,1,0,0:0:0:0:
256,192,247632,1,0,0:0:0:0:
329,192,247632,1,0,0:0:0:0:
402,192,247632,1,0,0:0:0:0:
36,192,247989,1,0,0:0:0:70:soft-hitclap.wav
182,192,247989,1,0,0:0:0:0:
256,192,247989,1,0,0:0:0:0:
329,192,247989,1,0,0:0:0:0:
475,192,247989,1,0,0:0:0:0:
475,192,248346,1,0,0:0:0:70:soft-hitclap.wav
36,192,248346,1,0,0:0:0:0:
182,192,248346,1,0,0:0:0:0:
329,192,248346,1,0,0:0:0:0:
256,192,248346,1,0,0:0:0:0:
475,192,248704,128,0,249239:0:0:0:70:soft-hitclap.wav
36,192,248704,128,0,249239:0:0:0:0:
256,192,248704,128,0,248793:0:0:0:0:
182,192,248704,128,0,248793:0:0:0:0:
329,192,248704,128,0,248793:0:0:0:0:
256,192,248882,1,0,0:0:0:0:
256,192,249061,128,0,249150:0:0:0:70:soft-hitclap.wav
182,192,249061,128,0,249150:0:0:0:0:
329,192,249061,128,0,249150:0:0:0:0:
256,192,249239,1,0,0:0:0:0:
109,192,249418,1,0,0:0:0:70:soft-hitclap.wav
182,192,249418,1,0,0:0:0:0:
256,192,249418,1,0,0:0:0:0:
329,192,249418,1,0,0:0:0:0:
402,192,249418,1,0,0:0:0:0:
109,192,249775,1,0,0:0:0:70:soft-hitclap.wav
182,192,249775,1,0,0:0:0:0:
256,192,249775,1,0,0:0:0:0:
329,192,249775,1,0,0:0:0:0:
402,192,249775,1,0,0:0:0:0:
256,192,250132,128,0,250221:0:0:0:70:soft-hitclap.wav
109,192,250132,128,0,250668:0:0:0:0:
329,192,250132,128,0,250221:0:0:0:0:
402,192,250132,128,0,250668:0:0:0:0:
182,192,250132,128,0,250221:0:0:0:0:
256,192,250311,1,0,0:0:0:0:
182,192,250489,128,0,250579:0:0:0:70:soft-hitclap.wav
256,192,250489,128,0,250579:0:0:0:0:
329,192,250489,128,0,250579:0:0:0:0:
256,192,250668,1,0,0:0:0:0:
182,192,250846,128,0,251114:0:0:0:0:
329,192,250846,128,0,251114:0:0:0:0:
36,192,250846,128,0,251293:0:0:0:0:
475,192,250846,128,0,251293:0:0:0:70:cymbol.wav
256,192,251025,128,0,251114:0:0:0:0:
182,192,251204,128,0,251293:0:0:0:0:
329,192,251204,128,0,251293:0:0:0:70:soft-hitclap.wav
109,192,251204,128,0,252007:0:0:0:0:
402,192,251204,128,0,252007:0:0:0:0:
182,192,251561,1,0,0:0:0:70:LR_Drum Rpd.wav
329,192,251650,1,0,0:0:0:70:LR_Drum Rpd.wav
182,192,251739,1,0,0:0:0:70:LR_Drum Rpd.wav
329,192,251829,1,0,0:0:0:70:LR_Drum Rpd.wav
36,192,251918,128,0,252007:0:0:0:0:
475,192,251918,128,0,252007:0:0:0:0:
256,192,251918,128,0,252007:0:0:0:70:soft-hitclap.wav
256,192,252096,128,0,252632:0:0:0:70:cymbol.wav
109,192,252096,1,0,0:0:0:0:
402,192,252096,1,0,0:0:0:0:
182,192,252454,1,0,0:0:0:0:
329,192,252454,1,0,0:0:0:0:
109,192,252632,1,0,0:0:0:70:soft-hitclap.wav
402,192,252632,1,0,0:0:0:0:
36,192,252632,1,0,0:0:0:0:
475,192,252632,1,0,0:0:0:0:
36,192,254954,128,0,255489:0:0:0:70:soft-hitwhistle.wav
182,192,254954,128,0,255221:0:0:0:70:cymbol.wav
329,192,254954,128,0,255221:0:0:0:0:
475,192,254954,128,0,255489:0:0:0:0:
182,192,255489,1,0,0:0:0:70:soft-hitclap.wav
256,192,255489,1,0,0:0:0:0:
329,192,255489,1,0,0:0:0:0:
402,192,255668,128,0,255846:0:0:0:0:
36,192,255846,1,0,0:0:0:70:soft-hitwhistle.wav
329,192,256025,1,0,0:0:0:0:
256,192,256025,128,0,256204:0:0:0:0:
182,192,256204,1,0,0:0:0:70:soft-hitclap.wav
402,192,256204,1,0,0:0:0:0:
475,192,256204,1,0,0:0:0:0:
109,192,256382,128,0,257275:0:0:0:0:
329,192,256382,1,0,0:0:0:0:
402,192,256561,1,0,0:0:0:70:soft-hitwhistle.wav
36,192,256561,1,0,0:0:0:0:
256,192,256739,1,0,0:0:0:0:
475,192,256918,1,0,0:0:0:70:soft-hitclap.wav
402,192,256918,1,0,0:0:0:0:
182,192,256918,1,0,0:0:0:0:
256,192,257096,1,0,0:0:0:0:
402,192,257275,1,0,0:0:0:70:soft-hitwhistle.wav
36,192,257275,1,0,0:0:0:0:
182,192,257454,128,0,257632:0:0:0:0:
109,192,257543,128,0,257721:0:0:0:0:
36,192,257632,128,0,257811:0:0:0:70:soft-hitclap.wav
402,192,257632,1,0,0:0:0:0:
256,192,257632,128,0,257811:0:0:0:0:
475,192,257632,1,0,0:0:0:0:
329,192,257721,128,0,257900:0:0:0:0:
402,192,257811,128,0,257989:0:0:0:0:
475,192,257900,128,0,257989:0:0:0:0:
36,192,257989,1,0,0:0:0:70:soft-hitwhistle.wav
182,192,257989,128,0,258525:0:0:0:0:
256,192,258168,1,0,0:0:0:0:
329,192,258346,1,0,0:0:0:70:soft-hitclap.wav
475,192,258346,1,0,0:0:0:0:
109,192,258346,1,0,0:0:0:0:
402,192,258525,128,0,258704:0:0:0:0:
256,192,258525,1,0,0:0:0:0:
36,192,258704,1,0,0:0:0:70:soft-hitwhistle.wav
256,192,258882,128,0,259061:0:0:0:0:
329,192,258882,1,0,0:0:0:0:
182,192,259061,1,0,0:0:0:70:soft-hitclap.wav
402,192,259061,1,0,0:0:0:0:
475,192,259061,1,0,0:0:0:0:
109,192,259239,128,0,259775:0:0:0:0:
329,192,259239,1,0,0:0:0:0:
256,192,259418,1,0,0:0:0:70:soft-hitwhistle.wav
475,192,259418,1,0,0:0:0:0:
36,192,259418,1,0,0:0:0:0:
182,192,259596,1,0,0:0:0:0:
402,192,259775,128,0,259954:0:0:0:70:soft-hitclap.wav
36,192,259775,1,0,0:0:0:0:
475,192,259775,1,0,0:0:0:0:
329,192,259775,1,0,0:0:0:0:
36,192,260132,128,0,260400:0:0:0:70:soft-hitclap.wav
256,192,260132,128,0,260400:0:0:0:0:
475,192,260132,128,0,260400:0:0:0:0:
329,192,260400,128,0,260846:0:0:0:70:soft-hitclap.wav
182,192,260400,128,0,260846:0:0:0:0:
475,192,260668,128,0,260846:0:0:0:70:soft-hitclap.wav
36,192,260668,128,0,260846:0:0:0:0:
402,192,260846,128,0,261204:0:0:0:70:soft-hitwhistle.wav
256,192,260846,1,0,0:0:0:0:
109,192,260846,128,0,261204:0:0:0:0:
256,192,261025,1,0,0:0:0:0:
329,192,261204,1,0,0:0:0:70:soft-hitclap.wav
182,192,261204,1,0,0:0:0:0:
475,192,261204,128,0,261918:0:0:0:0:
36,192,261204,1,0,0:0:0:0:
256,192,261382,1,0,0:0:0:0:
36,192,261561,1,0,0:0:0:70:soft-hitwhistle.wav
329,192,261561,128,0,261918:0:0:0:0:
256,192,261739,1,0,0:0:0:0:
109,192,261918,1,0,0:0:0:70:soft-hitclap.wav
182,192,261918,1,0,0:0:0:0:
402,192,261918,128,0,263704:0:0:0:0:
256,192,262096,1,0,0:0:0:0:
36,192,262275,1,0,0:0:0:70:soft-hitwhistle.wav
109,192,262275,128,0,262811:0:0:0:0:
256,192,262454,1,0,0:0:0:0:
329,192,262632,1,0,0:0:0:70:soft-hitclap.wav
475,192,262632,1,0,0:0:0:0:
36,192,262632,1,0,0:0:0:0:
182,192,262811,128,0,263346:0:0:0:0:
256,192,262811,1,0,0:0:0:0:
36,192,262989,1,0,0:0:0:70:soft-hitwhistle.wav
256,192,263168,1,0,0:0:0:0:
109,192,263346,1,0,0:0:0:70:soft-hitclap.wav
475,192,263346,1,0,0:0:0:0:
36,192,263346,128,0,263704:0:0:0:0:
329,192,263525,1,0,0:0:0:0:
109,192,263704,1,0,0:0:0:70:soft-hitwhistle.wav
256,192,263704,128,0,264239:0:0:0:0:
402,192,263882,1,0,0:0:0:0:
182,192,264061,1,0,0:0:0:70:soft-hitclap.wav
36,192,264061,1,0,0:0:0:0:
109,192,264239,128,0,264775:0:0:0:0:
402,192,264239,1,0,0:0:0:0:
182,192,264418,1,0,0:0:0:70:soft-hitwhistle.wav
329,192,264596,1,0,0:0:0:0:
402,192,264775,128,0,265132:0:0:0:70:soft-hitclap.wav
36,192,264775,1,0,0:0:0:0:
182,192,264775,1,0,0:0:0:0:
329,192,264954,1,0,0:0:0:0:
256,192,265043,1,0,0:0:0:0:
36,192,265132,128,0,265668:0:0:0:70:soft-hitwhistle.wav
182,192,265132,128,0,265489:0:0:0:0:
329,192,265311,128,0,265489:0:0:0:0:
256,192,265489,128,0,265668:0:0:0:70:soft-hitclap.wav
475,192,265489,1,0,0:0:0:0:
109,192,265668,128,0,266204:0:0:0:70:soft-hitwhistle.wav
402,192,265668,128,0,266204:0:0:0:0:
329,192,266025,1,0,0:0:0:70:LR_Drum Rpd.wav
182,192,266114,1,0,0:0:0:70:LR_Drum Rpd.wav
329,192,266204,1,0,0:0:0:70:LR_Drum Rpd.wav
475,192,266204,1,0,0:0:0:0:
36,192,266204,1,0,0:0:0:0:
256,192,266293,1,0,0:0:0:70:LR_Drum Rpd.wav
402,192,266293,1,0,0:0:0:0:
182,192,266382,1,0,0:0:0:70:LR_Drum Rpd.wav
329,192,266382,1,0,0:0:0:0:
109,192,266471,1,0,0:0:0:70:LR_Drum Rpd.wav
256,192,266471,1,0,0:0:0:0:
36,192,266561,1,0,0:0:0:70:soft-hitwhistle.wav
182,192,266561,1,0,0:0:0:70:cymbol.wav
475,192,266561,128,0,267096:0:0:0:0:
402,192,266739,1,0,0:0:0:0:
109,192,266918,1,0,0:0:0:70:soft-hitclap.wav
256,192,266918,1,0,0:0:0:0:
36,192,267096,128,0,267275:0:0:0:0:
402,192,267096,1,0,0:0:0:0:
182,192,267275,1,0,0:0:0:70:soft-hitwhistle.wav
109,192,267454,128,0,267632:0:0:0:0:
475,192,267454,1,0,0:0:0:0:
256,192,267632,1,0,0:0:0:70:soft-hitclap.wav
402,192,267632,1,0,0:0:0:0:
182,192,267811,128,0,268704:0:0:0:0:
475,192,267811,1,0,0:0:0:0:
36,192,267989,1,0,0:0:0:70:soft-hitwhistle.wav
402,192,268168,1,0,0:0:0:0:
109,192,268346,1,0,0:0:0:70:soft-hitclap.wav
256,192,268346,1,0,0:0:0:0:
402,192,268525,1,0,0:0:0:0:
36,192,268704,1,0,0:0:0:70:soft-hitwhistle.wav
256,192,268704,1,0,0:0:0:0:
475,192,268704,1,0,0:0:0:0:
182,192,268882,128,0,269061:0:0:0:0:
109,192,268971,128,0,269150:0:0:0:0:
36,192,269061,128,0,269239:0:0:0:70:soft-hitclap.wav
256,192,269061,128,0,269239:0:0:0:0:
475,192,269061,1,0,0:0:0:0:
402,192,269061,1,0,0:0:0:0:
329,192,269150,128,0,269329:0:0:0:0:
402,192,269239,128,0,269418:0:0:0:0:
475,192,269329,128,0,269418:0:0:0:0:
182,192,269418,128,0,269954:0:0:0:70:soft-hitwhistle.wav
36,192,269418,1,0,0:0:0:0:soft-hitwhistle.wav
256,192,269418,1,0,0:0:0:0:
109,192,269596,1,0,0:0:0:0:
475,192,269596,1,0,0:0:0:0:
36,192,269775,1,0,0:0:0:70:soft-hitclap.wav
256,192,269775,1,0,0:0:0:0:soft-hitclap.wav
402,192,269775,1,0,0:0:0:0:
109,192,269954,1,0,0:0:0:0:
475,192,269954,128,0,270132:0:0:0:0:
329,192,269954,1,0,0:0:0:0:
36,192,270132,1,0,0:0:0:70:soft-hitwhistle.wav
256,192,270132,1,0,0:0:0:0:soft-hitwhistle.wav
402,192,270311,128,0,270489:0:0:0:0:
475,192,270311,1,0,0:0:0:0:
182,192,270311,1,0,0:0:0:0:
36,192,270489,1,0,0:0:0:70:soft-hitclap.wav
256,192,270489,1,0,0:0:0:0:
109,192,270579,1,0,0:0:0:0:
329,192,270668,128,0,271204:0:0:0:0:
182,192,270668,1,0,0:0:0:0:
402,192,270668,1,0,0:0:0:0:
109,192,270757,1,0,0:0:0:0:
475,192,270846,1,0,0:0:0:70:soft-hitwhistle.wav
256,192,270846,1,0,0:0:0:0:soft-hitwhistle.wav
36,192,270846,128,0,271204:0:0:0:0:cymbol.wav
109,192,270936,128,0,271204:0:0:0:0:
182,192,271025,128,0,271204:0:0:0:0:
256,192,271114,128,0,271204:0:0:0:0:
402,192,271204,1,0,0:0:0:0:cymbol.wav
475,192,271204,1,0,0:0:0:0:
475,192,271561,128,0,271829:0:0:0:70:soft-hitclap.wav
329,192,271561,128,0,271829:0:0:0:0:
402,192,271561,128,0,271829:0:0:0:0:
109,192,271561,1,0,0:0:0:0:
36,192,271829,128,0,272096:0:0:0:70:soft-hitclap.wav
109,192,271829,128,0,272096:0:0:0:0:
182,192,271829,128,0,272096:0:0:0:0:
256,192,271829,1,0,0:0:0:0:
402,192,272096,128,0,272364:0:0:0:70:soft-hitclap.wav
475,192,272096,128,0,272364:0:0:0:0:
329,192,272096,128,0,272364:0:0:0:0:
109,192,272275,1,0,0:0:0:70:soft-hitwhistle.wav
36,192,272275,128,0,272989:0:0:0:70:cymbol.wav
256,192,272275,1,0,0:0:0:0:
182,192,272454,1,0,0:0:0:0:
402,192,272632,128,0,272989:0:0:0:70:soft-hitclap.wav
109,192,272632,1,0,0:0:0:0:
475,192,272632,1,0,0:0:0:0:
182,192,272721,1,0,0:0:0:0:
256,192,272811,1,0,0:0:0:0:
109,192,272900,1,0,0:0:0:0:
182,192,272989,1,0,0:0:0:70:soft-hitwhistle.wav
329,192,272989,128,0,273346:0:0:0:0:
475,192,272989,1,0,0:0:0:0:
109,192,273168,1,0,0:0:0:0:
256,192,273346,128,0,273704:0:0:0:70:soft-hitclap.wav
182,192,273346,1,0,0:0:0:0:
36,192,273346,1,0,0:0:0:0:
475,192,273346,1,0,0:0:0:0:
402,192,273436,1,0,0:0:0:0:
109,192,273525,1,0,0:0:0:0:
329,192,273525,1,0,0:0:0:0:
402,192,273614,1,0,0:0:0:0:
182,192,273704,1,0,0:0:0:70:soft-hitwhistle.wav
475,192,273704,1,0,0:0:0:0:
36,192,273704,128,0,274775:0:0:0:0:
329,192,273882,1,0,0:0:0:0:
256,192,274061,1,0,0:0:0:70:soft-hitclap.wav
475,192,274061,1,0,0:0:0:0:
109,192,274061,1,0,0:0:0:0:
402,192,274239,128,0,275132:0:0:0:0:
329,192,274239,1,0,0:0:0:0:
256,192,274329,1,0,0:0:0:0:
109,192,274418,1,0,0:0:0:70:soft-hitwhistle.wav
182,192,274418,1,0,0:0:0:0:
329,192,274596,1,0,0:0:0:0:
475,192,274775,1,0,0:0:0:70:soft-hitclap.wav
109,192,274775,1,0,0:0:0:0:
256,192,274775,1,0,0:0:0:0:
182,192,274775,128,0,275132:0:0:0:0:
329,192,274954,1,0,0:0:0:0:
36,192,275132,1,0,0:0:0:70:soft-hitwhistle.wav
109,192,275132,128,0,275846:0:0:0:0:
256,192,275132,1,0,0:0:0:0:
329,192,275311,1,0,0:0:0:0:
36,192,275489,1,0,0:0:0:70:soft-hitclap.wav
182,192,275489,1,0,0:0:0:0:
475,192,275489,1,0,0:0:0:0:
402,192,275668,1,0,0:0:0:0:
329,192,275668,128,0,276204:0:0:0:0:
475,192,275846,1,0,0:0:0:70:soft-hitwhistle.wav
36,192,275846,1,0,0:0:0:0:
402,192,276025,1,0,0:0:0:0:
109,192,276204,1,0,0:0:0:70:soft-hitclap.wav
36,192,276204,128,0,276561:0:0:0:0:
256,192,276204,1,0,0:0:0:0:
475,192,276204,1,0,0:0:0:0:
182,192,276382,1,0,0:0:0:70:soft-hitclap.wav
329,192,276471,1,0,0:0:0:70:soft-hitclap.wav
402,192,276561,128,0,277007:0:0:0:70:soft-hitwhistle.wav
109,192,276561,1,0,0:0:0:70:cymbol.wav
475,192,276561,1,0,0:0:0:0:
256,192,276739,1,0,0:0:0:0:
36,192,276918,1,0,0:0:0:70:soft-hitwhistle.wav
475,192,276918,1,0,0:0:0:0:
182,192,276918,128,0,277096:0:0:0:0:
109,192,276918,1,0,0:0:0:0:
402,192,277096,1,0,0:0:0:70:cymbol.wav
329,192,277096,128,0,277454:0:0:0:0:
36,192,277275,1,0,0:0:0:0:
109,192,277275,128,0,277632:0:0:0:0:
182,192,277454,1,0,0:0:0:70:soft-hitclap.wav
256,192,277454,1,0,0:0:0:0:
402,192,277543,1,0,0:0:0:70:soft-hitclap.wav
475,192,277543,1,0,0:0:0:0:
182,192,277632,128,0,277989:0:0:0:70:soft-hitclap.wav
329,192,277632,128,0,277989:0:0:0:0:
36,192,277632,1,0,0:0:0:0:
402,192,277930,1,0,0:0:0:0:
475,192,277989,1,0,0:0:0:70:soft-hitwhistle.wav
256,192,277989,1,0,0:0:0:70:soft-hitfinish.wav
36,192,277989,1,0,0:0:0:70:cymbol.wav
109,192,278174,1,0,0:0:0:0:
329,192,278174,1,0,0:0:0:0:
475,192,278359,1,0,0:0:0:0:
182,192,278359,1,0,0:0:0:0:
329,192,278544,128,0,278914:0:0:0:70:soft-hitwhistle.wav
36,192,278544,128,0,278914:0:0:0:0:
182,192,278914,1,0,0:0:0:0:
475,192,278914,1,0,0:0:0:0:
329,192,279254,1,0,0:0:0:0:
36,192,279254,1,0,0:0:0:0:
182,192,279285,1,0,0:0:0:70:soft-hitwhistle.wav
475,192,279285,1,0,0:0:0:0:
402,192,279655,1,0,0:0:0:0:
329,192,279840,1,0,0:0:0:0:
475,192,279995,1,0,0:0:0:0:
109,192,280026,1,0,0:0:0:0:soft-hitwhistle.wav
256,192,280026,1,0,0:0:0:0:
182,192,280396,1,0,0:0:0:0:
36,192,280581,1,0,0:0:0:0:
109,192,280951,1,0,0:0:0:0:
402,192,280998,1,0,0:0:0:0:
182,192,281137,1,0,0:0:0:0:
36,192,281322,1,0,0:0:0:0:
256,192,281476,1,0,0:0:0:0:
475,192,281507,1,0,0:0:0:0:
109,192,281877,1,0,0:0:0:0:
256,192,282063,1,0,0:0:0:0:
402,192,282217,1,0,0:0:0:0:
36,192,282248,1,0,0:0:0:0:
182,192,282618,1,0,0:0:0:0:
109,192,282803,1,0,0:0:0:0:
475,192,282989,1,0,0:0:0:0:
256,192,282989,1,0,0:0:0:0:
329,192,283359,1,0,0:0:0:0:
182,192,283544,1,0,0:0:0:0:
402,192,283791,1,0,0:0:0:0:
329,192,283853,1,0,0:0:0:0:
36,192,283914,1,0,0:0:0:70:soft-hitwhistle.wav
475,192,283914,1,0,0:0:0:0:
256,192,283914,1,0,0:0:0:0:
182,192,284100,1,0,0:0:0:0:
402,192,284100,1,0,0:0:0:0:
329,192,284285,1,0,0:0:0:0:
36,192,284285,1,0,0:0:0:0:
182,192,284470,128,0,284840:0:0:0:70:soft-hitwhistle.wav
475,192,284470,128,0,284840:0:0:0:0:
329,192,284840,1,0,0:0:0:0:
36,192,284840,1,0,0:0:0:0:
475,192,285180,1,0,0:0:0:0:
182,192,285180,1,0,0:0:0:0:
329,192,285211,1,0,0:0:0:70:soft-hitwhistle.wav
36,192,285211,1,0,0:0:0:0:
402,192,285581,1,0,0:0:0:0:
256,192,285766,1,0,0:0:0:0:
109,192,285951,1,0,0:0:0:0:
475,192,285951,1,0,0:0:0:0:
182,192,286322,1,0,0:0:0:0:
36,192,286507,1,0,0:0:0:0:
329,192,286847,1,0,0:0:0:0:
109,192,286908,1,0,0:0:0:0:
475,192,286924,1,0,0:0:0:0:
182,192,287063,1,0,0:0:0:0:
36,192,287248,1,0,0:0:0:0:
256,192,287402,1,0,0:0:0:0:
475,192,287433,1,0,0:0:0:0:
109,192,287803,1,0,0:0:0:0:
256,192,287989,1,0,0:0:0:0:
402,192,288143,1,0,0:0:0:0:
36,192,288174,1,0,0:0:0:0:
182,192,288544,1,0,0:0:0:0:
109,192,288729,1,0,0:0:0:0:
256,192,288945,1,0,0:0:0:0:
36,192,288945,1,0,0:0:0:0:
475,192,289377,128,0,296137:0:0:0:70:soft-hitfinish.wav
329,192,289470,128,0,296260:0:0:0:0:
182,192,289593,128,0,296384:0:0:0:0:
36,192,289717,128,0,296507:0:0:0:70:soft-hitfinish.wav
