osu file format v14

[General]
AudioFilename: Yasashisa no Riyuu.mp3
AudioLeadIn: 0
PreviewTime: 59277
Countdown: 0
SampleSet: Soft
StackLeniency: 0.7
Mode: 3
LetterboxInBreaks: 0
SpecialStyle: 0
WidescreenStoryboard: 0

[Editor]
DistanceSpacing: 1
BeatDivisor: 4
GridSize: 4
TimelineZoom: 1.3

[Metadata]
Title:Yasashisa no Riyuu
TitleUnicode:Yasashisa no Riyuu
Artist:ChouCho
ArtistUnicode:ちょうちょ
Creator:bLooD raYNe
Version:4K HD
Source:氷菓
Tags:ちょうちょ opening tv size hyouka AlisceaSparku IrisKit ArcherLove
BeatmapID:870397
BeatmapSetID:398918

[Difficulty]
HPDrainRate:7
CircleSize:4
OverallDifficulty:7
ApproachRate:5
SliderMultiplier:1.4
SliderTickRate:1

[Events]
//Background and Video events
0,0,"BG des.jpg",0,0
//Break Periods
//Storyboard Layer 0 (Background)
//Storyboard Layer 1 (Fail)
//Storyboard Layer 2 (Pass)
//Storyboard Layer 3 (Foreground)
//Storyboard Sound Samples

[TimingPoints]
1142,338.983050847458,4,2,1,40,1,0
22836,-100,4,2,1,30,0,0
32752,-100,4,2,1,40,0,0
59447,-100,4,2,1,40,0,1
78430,-100,4,2,1,40,0,0

[HitObjects]
64,192,1142,128,8,2497:0:0:0:0:
192,192,1311,1,8,0:0:0:0:
448,192,1480,1,8,0:0:0:0:
192,192,1650,1,8,0:0:0:0:
320,192,1819,1,2,0:3:0:0:
448,192,1819,1,8,0:0:0:0:
192,192,1989,1,8,0:0:0:0:
448,192,2158,1,8,0:0:0:0:
192,192,2328,1,8,0:0:0:0:
448,192,2497,128,8,3853:0:0:0:0:
320,192,2667,1,8,0:0:0:0:
64,192,2836,1,8,0:0:0:0:
320,192,3006,1,8,0:0:0:0:
192,192,3175,1,8,0:0:0:0:
64,192,3175,1,2,0:3:0:0:
320,192,3345,1,8,0:0:0:0:
64,192,3514,1,8,0:0:0:0:
320,192,3684,1,8,0:0:0:0:
192,192,3853,128,8,5209:0:0:0:0:
64,192,4023,1,8,0:0:0:0:
448,192,4192,1,8,0:0:0:0:
64,192,4362,1,8,0:0:0:0:
448,192,4531,1,2,0:3:0:0:
320,192,4531,1,8,0:0:0:0:
64,192,4701,1,8,0:0:0:0:
448,192,4870,1,8,0:0:0:0:
64,192,5040,1,8,0:0:0:0:
448,192,5209,128,8,5548:0:0:0:0:
192,192,5379,1,8,0:0:0:0:
64,192,5548,1,8,0:0:0:0:
320,192,5548,128,8,5887:0:0:0:0:
192,192,5718,1,8,0:0:0:0:
64,192,5887,128,8,6226:0:0:0:0:
448,192,5887,1,8,0:0:0:0:
320,192,6057,1,8,0:0:0:0:
192,192,6226,128,8,6565:0:0:0:0:
448,192,6226,1,8,0:0:0:0:
320,192,6396,1,8,0:0:0:0:
64,192,6565,128,8,7921:0:0:0:0:
448,192,6735,1,8,0:0:0:0:
192,192,6904,1,8,0:0:0:0:
448,192,7074,1,8,0:0:0:0:
192,192,7243,1,2,0:3:0:0:
320,192,7243,1,8,0:0:0:0:
448,192,7413,1,8,0:0:0:0:
192,192,7582,1,8,0:0:0:0:
448,192,7752,1,8,0:0:0:0:
448,192,7921,128,8,9192:0:0:0:0:
64,192,8091,1,8,0:0:0:0:
320,192,8260,1,8,0:0:0:0:
64,192,8430,1,8,0:0:0:0:
192,192,8599,1,2,0:3:0:0:
320,192,8599,1,8,0:0:0:0:
64,192,8769,1,8,0:0:0:0:
320,192,8938,1,8,0:0:0:0:
64,192,9108,1,8,0:0:0:0:
320,192,9192,1,8,0:0:0:0:
192,192,9235,1,8,0:0:0:0:
64,192,9277,128,8,10633:0:0:0:0:
192,192,11989,128,4,12328:0:0:0:0:
64,192,11989,1,0,0:0:0:0:
320,192,12328,128,2,12667:0:0:0:0:
448,192,12328,1,0,0:0:0:0:
64,192,12667,1,0,0:0:0:0:
192,192,12667,128,2,13006:0:0:0:0:
448,192,13006,128,0,14362:0:0:0:0:
320,192,13006,1,0,0:0:0:0:
64,192,13175,1,0,0:0:0:0:
192,192,13175,1,2,0:0:0:0:
320,192,13345,1,0,0:0:0:0:
64,192,13684,1,0,0:0:0:0:
320,192,14023,1,0,0:0:0:0:
64,192,14362,1,0,0:0:0:0:
320,192,14701,1,0,0:0:0:0:
448,192,14701,128,4,15040:0:0:0:0:
64,192,15040,128,2,15379:0:0:0:0:
192,192,15040,1,0,0:0:0:0:
448,192,15379,128,2,15718:0:0:0:0:
320,192,15379,1,0,0:0:0:0:
64,192,15718,128,2,16396:0:0:0:0:
192,192,15718,1,0,0:0:0:0:
448,192,15887,1,0,0:0:0:0:
320,192,15887,1,2,0:0:0:0:
192,192,16057,1,0,0:0:0:0:
448,192,16396,128,2,16735:0:0:0:0:
320,192,16396,1,0,0:0:0:0:
64,192,16565,1,0,0:0:0:0:
192,192,16565,1,2,0:0:0:0:
320,192,16735,128,2,17074:0:0:0:0:
192,192,17074,1,0,0:0:0:0:
320,192,17243,1,4,0:0:0:0:
192,192,17413,1,0,0:0:0:0:
64,192,17413,128,4,17752:0:0:0:0:
448,192,17752,128,2,18091:0:0:0:0:
320,192,17752,1,0,0:0:0:0:
192,192,18091,1,0,0:0:0:0:
64,192,18091,128,2,18430:0:0:0:0:
320,192,18430,1,0,0:0:0:0:
448,192,18430,128,2,19108:0:0:0:0:
64,192,18599,1,0,0:0:0:0:
192,192,18599,1,4,0:0:0:0:
320,192,18769,1,0,0:0:0:0:
64,192,19108,1,0,0:0:0:0:
192,192,19447,128,2,20125:0:0:0:0:
320,192,19447,1,0,0:0:0:0:
64,192,19786,1,2,0:0:0:0:
448,192,20125,128,4,21480:0:0:0:0:
320,192,20125,1,0,0:0:0:0:
64,192,20464,1,0,0:0:0:0:
320,192,20803,1,0,0:0:0:0:
64,192,21142,1,0,0:0:0:0:
192,192,21480,1,0,0:0:0:0:
448,192,21650,1,8,0:3:0:0:
64,192,21650,1,0,0:0:0:0:
192,192,21819,1,0,0:0:0:0:
448,192,21989,1,0,0:0:0:0:
320,192,22158,1,0,0:0:0:0:
192,192,22328,1,0,0:0:0:0:
64,192,22497,1,0,0:0:0:0:
448,192,22836,1,8,0:0:0:0:
64,192,23006,1,8,0:0:0:0:
320,192,23175,1,8,0:0:0:0:
64,192,23345,1,8,0:0:0:0:
192,192,23514,1,2,0:3:0:0:
448,192,23514,1,8,0:0:0:0:
320,192,23684,1,8,0:0:0:0:
64,192,23853,1,8,0:0:0:0:
320,192,24023,1,8,0:0:0:0:
448,192,24192,1,8,0:0:0:0:
192,192,24362,1,8,0:0:0:0:
320,192,24531,1,8,0:0:0:0:
192,192,24701,1,8,0:0:0:0:
64,192,24870,1,8,0:0:0:0:
448,192,24870,1,2,0:3:0:0:
320,192,25040,1,8,0:0:0:0:
192,192,25209,1,8,0:0:0:0:
320,192,25379,1,8,0:0:0:0:
64,192,25548,1,8,0:0:0:0:
192,192,25718,1,8,0:0:0:0:
448,192,25887,1,8,0:0:0:0:
192,192,26057,1,8,0:0:0:0:
64,192,26226,1,8,0:0:0:0:
320,192,26226,1,2,0:3:0:0:
448,192,26396,1,8,0:0:0:0:
192,192,26565,1,8,0:0:0:0:
448,192,26735,1,8,0:0:0:0:
64,192,26904,128,8,27243:0:0:0:0:
320,192,27074,1,8,0:0:0:0:
192,192,27243,128,8,27582:0:0:0:0:
448,192,27243,1,8,0:0:0:0:
320,192,27413,1,8,0:0:0:0:
448,192,27582,128,8,27921:0:0:0:0:
64,192,27582,1,8,0:0:0:0:
192,192,27752,1,8,0:0:0:0:
320,192,27921,128,8,28260:0:0:0:0:
64,192,27921,1,8,0:0:0:0:
192,192,28091,1,8,0:0:0:0:
448,192,28260,1,8,0:0:0:0:
320,192,28430,1,8,0:0:0:0:
64,192,28599,1,8,0:0:0:0:
320,192,28769,1,8,0:0:0:0:
192,192,28938,1,2,0:3:0:0:
448,192,28938,1,8,0:0:0:0:
64,192,29108,1,8,0:0:0:0:
320,192,29277,1,8,0:0:0:0:
64,192,29447,1,8,0:0:0:0:
320,192,29616,1,8,0:0:0:0:
192,192,29786,1,8,0:0:0:0:
320,192,29955,1,8,0:0:0:0:
192,192,30125,1,8,0:0:0:0:
64,192,30294,1,2,0:3:0:0:
448,192,30294,1,8,0:0:0:0:
320,192,30464,1,8,0:0:0:0:
192,192,30633,1,8,0:0:0:0:
320,192,30803,1,8,0:0:0:0:
192,192,30972,1,8,0:0:0:0:
64,192,31142,1,8,0:0:0:0:
320,192,31311,1,8,0:0:0:0:
64,192,31480,1,8,0:0:0:0:
192,192,31650,1,2,0:3:0:0:
448,192,31650,1,8,0:0:0:0:
320,192,31819,1,8,0:0:0:0:
64,192,31989,1,8,0:0:0:0:
320,192,32158,1,8,0:0:0:0:
192,192,32328,1,8,0:0:0:0:
448,192,32497,1,8,0:0:0:0:
192,192,32667,1,0,0:0:0:0:
64,192,32836,1,0,0:0:0:0:
192,192,32921,1,0,0:0:0:0:
320,192,33006,1,0,0:0:0:0:
64,192,33175,1,0,0:0:0:0:
448,192,33345,1,0,0:0:0:0:
64,192,33514,1,0,0:0:0:0:
192,192,33684,1,0,0:0:0:0:
320,192,33684,128,4,34701:0:0:0:0:
448,192,34023,1,0,0:0:0:0:
192,192,34192,1,2,0:0:0:0:
448,192,34362,1,0,0:0:0:0:
192,192,34531,1,2,0:0:0:0:
64,192,34701,1,0,0:0:0:0:
192,192,34870,1,8,0:0:0:0:
320,192,34955,1,8,0:0:0:0:
448,192,35040,128,2,36057:0:0:0:0:
64,192,35040,1,0,0:0:0:0:
320,192,35379,1,0,0:0:0:0:
64,192,35548,1,2,0:0:0:0:
320,192,35718,1,0,0:0:0:0:
192,192,35887,1,2,0:0:0:0:
64,192,36057,1,0,0:0:0:0:
320,192,36226,1,8,0:0:0:0:
192,192,36311,1,8,0:0:0:0:
64,192,36396,128,2,37413:0:0:0:0:
448,192,36396,1,0,0:0:0:0:
192,192,36735,1,0,0:0:0:0:
448,192,36904,1,2,0:0:0:0:
192,192,37074,1,0,0:0:0:0:
320,192,37243,1,2,0:0:0:0:
448,192,37413,1,0,0:0:0:0:
320,192,37582,1,8,0:0:0:0:
192,192,37667,1,8,0:0:0:0:
64,192,37752,1,0,0:0:0:0:
448,192,37752,128,2,38091:0:0:0:0:
192,192,37921,1,2,0:0:0:0:
64,192,38091,1,0,0:0:0:0:
192,192,38260,1,8,0:0:0:0:
320,192,38345,1,8,0:0:0:0:
448,192,38430,1,0,0:0:0:0:
64,192,38430,128,2,38769:0:0:0:0:
320,192,38599,1,2,0:0:0:0:
448,192,38769,1,0,0:0:0:0:
64,192,38938,1,2,0:0:0:0:
192,192,39108,128,2,40125:0:0:0:0:
320,192,39108,1,0,0:0:0:0:
64,192,39447,1,0,0:0:0:0:
320,192,39616,1,2,0:0:0:0:
64,192,39786,1,0,0:0:0:0:
448,192,39955,1,2,0:0:0:0:
320,192,40125,1,0,0:0:0:0:
192,192,40294,1,2,0:0:0:0:
320,192,40464,128,2,41480:0:0:0:0:
64,192,40464,1,0,0:0:0:0:
448,192,40803,1,0,0:0:0:0:
192,192,40972,1,2,0:0:0:0:
448,192,41142,1,0,0:0:0:0:
64,192,41311,1,2,0:0:0:0:
192,192,41480,1,0,0:0:0:0:
320,192,41650,1,2,0:0:0:0:
192,192,41819,128,2,42836:0:0:0:0:
448,192,41819,1,0,0:0:0:0:
64,192,42158,1,0,0:0:0:0:
320,192,42328,1,2,0:0:0:0:
64,192,42497,1,0,0:0:0:0:
448,192,42667,1,2,0:0:0:0:
320,192,42836,1,0,0:0:0:0:
64,192,43175,128,2,43514:0:0:0:0:
192,192,43175,1,0,0:0:0:0:
448,192,43514,128,2,43853:0:0:0:0:
320,192,43514,1,0,0:0:0:0:
64,192,43853,128,2,44192:0:0:0:0:
192,192,43853,1,0,0:0:0:0:
320,192,44023,1,0,0:0:0:0:
448,192,44192,1,0,0:0:0:0:
192,192,44192,128,2,44531:0:0:0:0:
320,192,44362,1,0,0:0:0:0:
64,192,44531,1,0,0:0:0:0:
448,192,44701,1,4,0:0:0:0:
320,192,44701,1,8,0:3:0:0:
320,192,45040,1,0,0:0:0:0:
64,192,45209,1,4,0:0:0:0:
192,192,45209,1,8,0:3:0:0:
192,192,45548,1,0,0:0:0:0:
448,192,45548,1,8,0:3:0:0:
320,192,45718,1,2,0:0:0:0:
192,192,45887,128,4,46226:0:0:0:0:
320,192,46226,128,2,46565:0:0:0:0:
64,192,46565,1,8,0:3:0:0:
448,192,46565,128,2,46904:0:0:0:0:
192,192,46904,128,2,47243:0:0:0:0:
320,192,47074,1,2,0:0:0:0:
64,192,47243,128,0,47582:0:0:0:0:
448,192,47413,1,8,0:3:0:0:
320,192,47413,1,0,0:0:0:0:
192,192,47582,128,0,47921:0:0:0:0:
320,192,47752,1,0,0:0:0:0:
64,192,47921,1,8,0:3:0:0:
448,192,47921,128,2,48260:0:0:0:0:
64,192,48260,128,2,48599:0:0:0:0:
192,192,48430,1,0,0:0:0:0:
320,192,48599,128,0,48938:0:0:0:0:
192,192,48938,128,2,49277:0:0:0:0:
320,192,49108,1,0,0:0:0:0:
448,192,49277,1,8,0:3:0:0:
64,192,49277,128,2,49616:0:0:0:0:
320,192,49616,128,2,49955:0:0:0:0:
192,192,49786,1,2,0:0:0:0:
448,192,49955,1,0,0:0:0:0:
64,192,50125,1,8,0:3:0:0:
192,192,50125,1,0,0:0:0:0:
448,192,50294,128,0,50633:0:0:0:0:
64,192,50464,1,0,0:0:0:0:
320,192,50633,1,8,0:3:0:0:
192,192,50633,128,4,50972:0:0:0:0:
448,192,50803,1,0,0:0:0:0:
64,192,50972,1,2,0:0:0:0:
192,192,51142,1,0,0:0:0:0:
320,192,51311,128,0,51650:0:0:0:0:
192,192,51650,128,2,51989:0:0:0:0:
320,192,51819,1,0,0:0:0:0:
448,192,51989,1,8,0:3:0:0:
64,192,51989,128,2,52328:0:0:0:0:
320,192,52328,128,2,52667:0:0:0:0:
192,192,52497,1,0,0:0:0:0:
448,192,52667,128,0,53006:0:0:0:0:
64,192,52836,1,8,0:3:0:0:
192,192,52836,1,0,0:0:0:0:
320,192,53006,1,0,0:0:0:0:
192,192,53175,1,0,0:0:0:0:
64,192,53345,1,8,0:3:0:0:
448,192,53345,1,2,0:0:0:0:
192,192,53514,1,0,0:0:0:0:
448,192,53684,1,0,0:0:0:0:
320,192,53853,1,0,0:0:0:0:
64,192,54023,1,8,0:3:0:0:
192,192,54023,1,4,0:0:0:0:
320,192,54362,1,4,0:0:0:0:
448,192,54362,1,8,0:3:0:0:
192,192,54531,1,0,0:0:0:0:
64,192,54870,1,0,0:0:0:0:
448,192,55040,1,2,0:0:0:0:
320,192,55040,1,8,0:3:0:0:
192,192,55379,1,0,0:0:0:0:
320,192,55548,1,4,0:0:0:0:
448,192,55548,1,8,0:3:0:0:
64,192,55718,1,0,0:0:0:0:
320,192,55887,1,0,0:0:0:0:
192,192,56057,1,0,0:0:0:0:
64,192,56057,1,8,0:3:0:0:
192,192,56396,1,0,0:0:0:0:
64,192,56396,1,8,0:3:0:0:
320,192,56735,1,0,0:0:0:0:
448,192,56735,128,4,58006:0:0:0:0:
320,192,58006,1,8,0:0:0:0:
192,192,58048,1,8,0:0:0:0:
64,192,58091,128,8,58769:0:0:0:0:
64,192,59447,128,4,60464:0:0:0:0:
448,192,59447,1,8,0:3:0:0:
320,192,59786,1,0,0:0:0:0:
192,192,59786,1,8,0:3:0:0:
448,192,59955,1,2,0:0:0:0:
192,192,60125,1,0,0:0:0:0:
320,192,60294,1,0,0:0:0:0:
192,192,60464,1,8,0:3:0:0:
448,192,60633,1,8,0:0:0:0:
320,192,60718,1,8,0:0:0:0:
192,192,60803,128,0,61819:0:0:0:0:
64,192,61142,1,0,0:0:0:0:
320,192,61142,1,8,0:3:0:0:
448,192,61311,1,2,0:0:0:0:
320,192,61480,1,0,0:0:0:0:
64,192,61650,1,0,0:0:0:0:
448,192,61819,1,8,0:3:0:0:
64,192,61989,1,8,0:0:0:0:
192,192,62074,1,8,0:0:0:0:
320,192,62158,128,0,63514:0:0:0:0:
448,192,62497,1,8,0:3:0:0:
192,192,62497,1,0,0:0:0:0:
64,192,62667,1,2,0:0:0:0:
192,192,62836,1,0,0:0:0:0:
448,192,63006,1,0,0:0:0:0:
192,192,63175,1,8,0:3:0:0:
64,192,63175,1,0,0:0:0:0:
448,192,63345,1,2,0:0:0:0:
192,192,63514,128,0,64531:0:0:0:0:
320,192,63684,5,0,0:0:0:0:
448,192,63853,1,8,0:3:0:0:
64,192,63853,1,0,0:0:0:0:
320,192,64023,1,2,0:0:0:0:
64,192,64192,1,0,0:0:0:0:
320,192,64362,1,0,0:0:0:0:
448,192,64531,1,8,0:3:0:0:
64,192,64531,1,0,0:0:0:0:
320,192,64701,5,0,0:0:0:0:
192,192,64786,1,8,0:3:0:0:
64,192,64870,1,0,0:0:0:0:
448,192,64870,1,8,0:3:0:0:
192,192,65040,1,0,0:0:0:0:
320,192,65209,1,8,0:3:0:0:
448,192,65209,128,4,65718:0:0:0:0:
192,192,65718,1,0,0:0:0:0:
64,192,65887,1,8,0:3:0:0:
448,192,65887,1,0,0:0:0:0:
320,192,66057,1,0,0:0:0:0:
192,192,66057,128,4,66565:0:0:0:0:
320,192,66396,1,0,0:0:0:0:
64,192,66565,1,0,0:0:0:0:
448,192,66565,1,8,0:3:0:0:
192,192,66904,1,0,0:0:0:0:
192,192,67074,1,0,0:0:0:0:
64,192,67243,1,0,0:0:0:0:
320,192,67243,1,8,0:3:0:0:
448,192,67413,1,0,0:0:0:0:
192,192,67582,1,8,0:3:0:0:
64,192,67582,1,4,0:0:0:0:
192,192,67921,1,0,0:0:0:0:
448,192,68091,1,0,0:0:0:0:
320,192,68091,1,8,0:3:0:0:
64,192,68260,1,0,0:0:0:0:
192,192,68430,1,2,0:0:0:0:
320,192,68599,1,4,0:0:0:0:
448,192,68599,1,8,0:3:0:0:
192,192,68938,1,0,0:0:0:0:
320,192,69108,1,0,0:0:0:0:
448,192,69108,1,8,0:3:0:0:
64,192,69277,1,0,0:0:0:0:
320,192,69447,1,0,0:0:0:0:
192,192,69616,1,8,0:3:0:0:
64,192,69616,1,0,0:0:0:0:
64,192,69913,1,8,0:0:0:0:
192,192,69955,1,8,0:3:0:0:
320,192,69997,1,8,0:0:0:0:
448,192,70040,1,8,0:0:0:0:
448,192,70294,1,4,0:0:0:0:
64,192,70294,1,0,0:0:0:0:
320,192,70633,1,0,0:0:0:0:
64,192,70633,1,8,0:3:0:0:
448,192,70803,1,0,0:0:0:0:
192,192,70803,1,2,0:0:0:0:
320,192,70972,1,0,0:0:0:0:
320,192,71142,1,0,0:0:0:0:
192,192,71311,1,8,0:3:0:0:
448,192,71311,1,0,0:0:0:0:
64,192,71480,1,2,0:0:0:0:
320,192,71650,1,0,0:0:0:0:
192,192,71989,1,8,0:3:0:0:
448,192,71989,1,0,0:0:0:0:
320,192,72158,1,2,0:0:0:0:
64,192,72158,1,0,0:0:0:0:
192,192,72328,1,0,0:0:0:0:
192,192,72497,1,0,0:0:0:0:
64,192,72667,1,0,0:0:0:0:
320,192,72667,1,8,0:3:0:0:
448,192,72836,1,2,0:0:0:0:
192,192,73006,1,0,0:0:0:0:
320,192,73345,1,8,0:3:0:0:
64,192,73345,1,0,0:0:0:0:
192,192,73514,1,2,0:0:0:0:
448,192,73514,1,0,0:0:0:0:
320,192,73684,1,0,0:0:0:0:
320,192,73853,1,0,0:0:0:0:
448,192,74023,1,0,0:0:0:0:
192,192,74023,1,8,0:3:0:0:
320,192,74192,1,2,0:0:0:0:
192,192,74362,1,0,0:0:0:0:
192,192,74531,1,0,0:0:0:0:
320,192,74701,1,0,0:0:0:0:
64,192,74701,1,8,0:3:0:0:
192,192,74870,1,2,0:0:0:0:
320,192,75040,1,8,0:3:0:0:
448,192,75209,1,0,0:0:0:0:
320,192,75379,1,0,0:0:0:0:
192,192,75548,1,0,0:0:0:0:
448,192,75718,1,4,0:0:0:0:
64,192,75718,1,0,0:0:0:0:
192,192,76057,1,8,0:3:0:0:
448,192,76226,1,0,0:0:0:0:
320,192,76226,1,4,0:0:0:0:
448,192,76565,1,0,0:0:0:0:
64,192,76735,1,0,0:0:0:0:
192,192,76735,1,8,0:3:0:0:
320,192,76904,1,0,0:0:0:0:
448,192,77243,1,8,0:3:0:0:
64,192,77243,1,0,0:0:0:0:
192,192,77413,1,0,0:0:0:0:
320,192,77582,1,0,0:0:0:0:
192,192,77752,128,0,78091:0:0:0:0:
320,192,78091,128,0,78430:0:0:0:0:
64,192,78430,1,0,0:0:0:0:
448,192,78430,128,4,78938:0:0:0:0:
320,192,78938,1,0,0:0:0:0:
64,192,79108,1,8,0:3:0:0:
192,192,79108,1,0,0:0:0:0:
448,192,79447,1,2,0:0:0:0:
192,192,79616,1,2,0:0:0:0:
320,192,79786,1,0,0:0:0:0:
64,192,79955,1,0,0:0:0:0:
448,192,79955,1,8,0:3:0:0:
192,192,80125,1,0,0:0:0:0:
192,192,80294,1,0,0:0:0:0:
320,192,80464,1,8,0:3:0:0:
64,192,80464,1,0,0:0:0:0:
320,192,80803,1,2,0:0:0:0:
192,192,80972,1,0,0:0:0:0:
64,192,81142,1,0,0:0:0:0:
448,192,81142,128,4,83175:0:0:0:0:
320,192,83175,128,2,83853:0:0:0:0:
192,192,83514,1,2,0:0:0:0:
448,192,83684,1,2,0:0:0:0:
192,192,83853,1,0,0:0:0:0:
64,192,83853,128,4,84192:0:0:0:0:
448,192,84192,128,2,84531:0:0:0:0:
320,192,84192,1,0,0:0:0:0:
64,192,84531,128,2,84870:0:0:0:0:
192,192,84531,1,0,0:0:0:0:
320,192,84870,1,0,0:0:0:0:
448,192,84870,128,2,85887:0:0:0:0:
64,192,85040,1,8,0:3:0:0:
192,192,85040,1,4,0:0:0:0:
320,192,85146,1,0,0:0:0:0:
64,192,85527,1,0,0:0:0:0:
320,192,85887,1,0,0:0:0:0:
192,192,85887,128,2,86396:0:0:0:0:
64,192,86057,1,0,0:0:0:0:
320,192,86226,1,0,0:0:0:0:
448,192,86396,128,4,89955:0:0:0:0:
64,192,86396,1,8,0:3:0:0:
