osu file format v9

[General]
AudioFilename: Yasashisa no Riyuu (TV Size).mp3
AudioLeadIn: 1750
PreviewTime: 58797
Countdown: 0
SampleSet: Soft
StackLeniency: 0.7
Mode: 0
LetterboxInBreaks: 0

[Editor]
DistanceSpacing: 1.2
BeatDivisor: 4
GridSize: 8

[Metadata]
Title:Yasashisa no Riyuu (TV Size)
Artist:ChouCho
Creator:wcx19911123
Version:Hard
Source:Hyouka
Tags:Kyoto Animation Co., Ltd. IMAGINE Oreki Houtarou Chitanda Eru Fukube Satoshi Ibara Mayaka Nakamura Yuichi Satou Satomi Sakaguchi Daisuke Kayano Ai opening climbb65588 KanaRin

[Difficulty]
HPDrainRate:6
CircleSize:4
OverallDifficulty:5
ApproachRate:7
SliderMultiplier:1.28
SliderTickRate:1

[Events]
//Background and Video events
0,0,"BG.jpg"
Video,-300,"Yasashisa no Riyuu (TV Size).avi"
//Break Periods
//Storyboard Layer 0 (Background)
//Storyboard Layer 1 (Fail)
//Storyboard Layer 2 (Pass)
//Storyboard Layer 3 (Foreground)
//Storyboard Sound Samples
//Background Colour Transformations
3,100,163,162,255

[TimingPoints]
577,338.983050847458,4,2,1,60,1,0
577,-133.333333333333,4,2,1,60,0,0
1254,-133.333333333333,4,2,1,40,0,0
1593,-133.333333333333,4,2,1,60,0,0
2610,-133.333333333333,4,2,1,40,0,0
2949,-133.333333333333,4,2,1,60,0,0
3966,-133.333333333333,4,2,1,40,0,0
4136,-133.333333333333,4,2,1,60,0,0
5322,-133.333333333333,4,2,1,40,0,0
5661,-133.333333333333,4,2,1,60,0,0
6678,-133.333333333333,4,2,1,40,0,0
7017,-133.333333333333,4,2,1,60,0,0
8034,-133.333333333333,4,2,1,40,0,0
8373,-133.333333333333,4,2,1,60,0,0
9051,-133.333333333333,4,2,1,5,0,0
9390,-133.333333333333,4,2,1,60,0,0
9729,-133.333333333333,4,2,1,5,0,0
9899,-133.333333333333,4,2,1,50,0,0
10068,-133.333333333333,4,2,1,60,0,0
11424,-100,4,2,1,70,0,0
21085,-100,4,2,1,60,0,0
21424,-100,4,2,1,70,0,0
22949,-100,4,2,1,45,0,0
23288,-100,4,2,1,70,0,0
24305,-100,4,2,1,45,0,0
24644,-100,4,2,1,70,0,0
25661,-100,4,2,1,45,0,0
26000,-100,4,2,1,70,0,0
27017,-100,4,2,1,45,0,0
27187,-100,4,2,1,70,0,0
28373,-100,4,2,1,45,0,0
28712,-100,4,2,1,70,0,0
29729,-100,4,2,1,45,0,0
30068,-100,4,2,1,70,0,0
31085,-100,4,2,1,45,0,0
31424,-100,4,2,1,70,0,0
32441,-100,4,2,1,45,0,0
32610,-100,4,2,1,70,0,0
32780,-100,4,2,1,45,0,0
32949,-100,4,2,1,70,0,0
33119,-100,4,2,2,70,0,0
35831,-100,4,1,1,70,0,0
36170,-100,4,2,2,70,0,0
38543,-100,4,1,1,70,0,0
38712,-100,4,2,2,70,0,0
41254,-100,4,1,1,70,0,0
41593,-100,4,2,2,70,0,0
43288,-100,4,2,1,60,0,0
43458,-100,4,2,1,70,0,0
44983,-100,4,2,1,60,0,0
45153,-100,4,2,1,70,0,0
56170,-133.333333333333,4,2,1,60,0,0
58204,-133.333333333333,4,2,1,5,0,0
58543,-133.333333333333,4,2,1,60,0,0
58882,-100,4,2,1,70,0,1
64136,-100,4,2,1,45,0,1
64305,-100,4,2,1,70,0,1
69390,-66.6666666666667,4,2,1,60,0,1
69560,-100,4,2,1,70,0,1
69644,-100,4,2,1,70,0,0
69729,-100,4,2,1,70,0,1
76678,-100,4,2,1,60,0,1
77865,-100,4,2,1,60,0,0
82102,-100,4,2,1,5,0,0
82271,-100,4,2,1,60,0,0
83288,-100,4,2,1,70,0,0
84475,-100,4,2,1,60,0,0
84814,-100,4,2,1,70,0,0
86678,-100,4,2,1,65,0,0
87017,-100,4,2,1,55,0,0
87356,-100,4,2,1,45,0,0
87695,-100,4,2,1,35,0,0
88034,-100,4,2,1,25,0,0
88373,-100,4,2,1,15,0,0
88712,-100,4,2,1,5,0,0

[Colours]
Combo1 : 255,139,45
Combo2 : 143,255,32
Combo3 : 255,53,165
Combo4 : 36,146,255
SliderBorder : 255,255,255

[HitObjects]
392,256,577,2,0,B|376:280|352:288,1,47.9999985694886,2|0
308,296,915,1,0
260,292,1085,1,0
216,272,1254,2,0,B|168:256|120:280,1,95.9999971389771,8|0
56,312,1763,2,0,B|96:288|104:232,1,95.9999971389771
88,160,2271,2,0,B|80:112|104:64,1,95.9999971389771,0|8
224,24,2949,5,0
272,16,3119,1,0
320,24,3288,2,0,B|368:40|392:88,1,95.9999971389771,2|0
388,160,3797,2,0,B|416:160|436:144,2,47.9999985694886,0|8|0
344,144,4305,1,0
296,136,4475,1,0
248,136,4644,6,0,B|200:136|160:176,1,95.9999971389771
128,240,5153,1,0
200,256,5322,2,0,B|248:256|288:216,1,95.9999971389771,8|0
408,336,6000,2,0,B|384:320|376:296,1,47.9999985694886,2|0
360,256,6339,1,0
356,208,6509,1,0
360,160,6678,6,0,B|368:112|416:88,1,95.9999971389771,8|0
488,72,7187,2,0,B|432:80|392:48,1,95.9999971389771
328,24,7695,2,0,B|272:8|232:32,1,95.9999971389771,0|8
104,120,8373,1,0
80,160,8543,1,0
72,208,8712,6,0,B|72:288|144:328,1,143.999995708466,2|0
224,368,9390,2,0,B|192:296|232:224,1,143.999995708466
272,168,10068,1,0
272,168,11424,5,4
344,144,11593,2,0,B|376:128|384:96,1,64,0|8
380,20,11932,1,0
448,56,12102,2,0,B|488:104|480:176,1,128,0|8
376,264,12610,6,0,B|336:216|344:144,1,128,4|0
368,72,13119,1,8
368,72,13288,1,0
292,88,13458,2,0,B|256:96|224:72,1,64
168,32,13797,1,8
168,32,13966,1,0
160,108,14136,6,0,B|144:176|80:200,1,128,4|8
4,212,14644,1,0
52,272,14814,2,0,B|104:312|176:296,1,128,0|8
272,216,15322,6,0,B|220:176|148:192,1,128,4|0
80,224,15831,1,8
80,224,16000,1,0
144,268,16170,2,0,B|168:288|176:328,1,64
248,344,16509,2,0,B|280:344|304:320,1,64,8|0
392,312,16848,6,0,B|344:264|352:192,1,128,4|8
368,120,17356,1,0
416,180,17526,2,0,B|384:208|324:200|304:160,1,128,0|8
320,60,18034,6,0,B|352:32|412:40|432:80,1,128,4|0
456,152,18543,1,8
456,152,18712,1,0
392,192,18882,2,0,B|368:216|368:248,1,64
368,328,19221,1,8
368,328,19390,1,0
304,288,19560,6,0,B|240:256|176:288,1,128,4|0
32,352,20238,1,0
104,216,20577,2,0,B|120:184|112:152,2,64
56,104,21085,6,0,B|80:72|140:68|168:104,1,128,8|0
196,176,21593,1,0
260,216,21763,1,0
336,216,21932,1,0
488,144,22271,6,0,B|504:112|496:80,1,64,2|0
432,40,22610,2,0,B|416:72|424:104,1,64
420,180,22949,2,0,B|420:248|368:296,1,128,8|0
296,312,23458,1,0
240,260,23627,5,0
313,237,23797,1,0
296,312,23966,2,0,B|260:352|204:340|184:312,1,128,0|8
32,352,24644,1,0
80,292,24814,1,0
88,216,24983,6,0,B|88:144|40:96,1,128,2|0
92,40,25492,1,0
160,72,25661,2,0,B|136:136|168:200,1,128,8|0
224,248,26170,1,0
240,172,26339,6,0,B|256:136|288:128,1,64
360,120,26678,1,0
360,120,26848,1,0
424,80,27017,2,0,B|464:80|488:112,1,64,8|0
512,176,27356,1,0
512,176,27526,1,0
488,248,27695,6,0,B|468:280|432:280,1,64,2|0
372,236,28034,2,0,B|392:204|428:204,1,64
435,279,28373,2,0,B|400:336|328:344,1,128,8|0
288,280,28882,6,0,B|264:248|232:248,2,64
224,324,29390,2,0,B|160:352|96:320,1,128,0|8
24,160,30068,1,0
48,88,30238,1,0
112,48,30407,6,0,B|168:16|240:48,1,128,2|0
256,120,30915,1,0
320,160,31085,2,0,B|384:192|448:168,1,128,8|0
472,96,31593,1,0
396,104,31763,6,0,B|360:200|400:296,1,192
407,308,32356,1,0
418,323,32441,1,8
480,280,32610,2,0,B|500:312|488:348,2,64,0|8|0
428,224,33119,5,4
352,216,33288,1,0
280,240,33458,2,0,B|248:256|232:288,1,64,2|0
144,304,33797,2,0,B|136:344|104:360,2,64,2|0|2
68,292,34305,1,0
32,224,34475,5,2
28,148,34644,1,0
64,80,34814,2,0,B|104:24|176:32,1,128,2|2
368,104,35492,2,0,B|392:128|424:128,1,64,2|0
344,32,35831,6,0,B|300:40|276:100|300:140,1,128,2|2
356,184,36339,1,0
356,260,36509,2,0,B|348:304|288:328|248:304,1,128,2|2
180,280,37017,5,0
180,280,37102,1,0
180,280,37187,2,0,B|188:236|248:212|288:236,1,128,2|2
240,152,37695,1,0
240,152,37780,1,0
240,152,37865,2,0,B|196:144|172:84|196:44,2,128,2|2|2
316,140,38712,5,0
376,92,38882,2,0,B|400:72|440:80,1,64,2|0
496,168,39221,2,0,B|440:208|368:192,1,128,2|2
240,152,39729,2,0,B|168:144|120:192,1,128
96,264,40238,6,0,B|88:304|104:328,1,64,2|0
168,368,40577,1,2
344,368,40915,1,2
416,344,41085,1,0
468,288,41254,6,0,B|496:224|472:160,1,128,2|2
424,104,41763,2,0,B|396:124|396:160,2,64,0|2|0
473,163,42271,2,0,B|472:200|440:224,1,64,2|0
368,232,42610,6,0,B|296:224|264:160,1,128,2|2
256,88,43119,1,0
200,32,43288,2,0,B|168:16|136:24,1,64,8|0
64,48,43627,1,0
36,120,43797,1,0
64,192,43966,5,0
32,264,44136,2,0,B|72:208|144:208,1,128,8|0
192,120,44644,2,0,B|200:192|264:224,1,128,8|8
336,240,45153,1,0
392,320,45322,6,0,B|368:256|400:192,1,128,4|0
456,144,45831,1,0
328,160,46000,2,0,B|256:160|216:104,1,128,8|0
192,32,46509,1,0
96,32,46678,6,0,B|120:56|120:96,1,64,0|8
120,168,47017,1,0
76,232,47187,1,0
152,240,47356,2,0,B|216:256|248:320,1,128,8|0
320,344,47865,1,0
392,320,48034,6,0,B|448:288|464:216,1,128
432,32,48712,1,8
476,96,48882,1,0
400,104,49051,2,0,B|336:112|296:176,1,128
280,248,49560,5,8
292,324,49729,1,0
292,324,49899,1,0
220,300,50068,2,0,B|192:288|152:296,1,64,8|0
88,328,50407,1,0
88,328,50577,1,0
48,240,50746,6,0,B|24:168|56:112,1,128,4|0
104,56,51254,1,0
128,128,51424,2,0,B|152:192|224:208,1,128,8|0
296,192,51932,1,0
368,216,52102,6,0,B|400:240|400:272,2,64,0|8|0
324,280,52610,1,0
264,328,52780,2,0,B|208:360|136:344,1,128,8|0
72,312,53288,1,0
40,208,53458,6,0,B|40:136|88:88,1,128,4|8
168,176,53966,2,0,B|224:216|296:200,1,128,4|0
328,88,54475,2,0,B|272:48|200:64,1,128,8|0
140,104,54983,5,8
160,304,55322,1,0
224,344,55492,2,0,B|256:360|288:344,1,64,8|0
376,352,55831,2,0,B|352:328|352:288,1,64,8|0
352,216,56170,1,4
352,216,57356,5,0
360,176,57526,2,0,B|388:100|468:84,2,143.999995708466
256,352,58882,5,4
184,376,59051,1,0
128,324,59221,1,8
200,300,59390,2,0,B|232:280|240:248,2,64
128,324,59899,1,8
56,296,60068,6,0,B|16:248|24:176,1,128
44,100,60577,1,8
104,52,60746,2,0,B|136:36|168:52,2,64
136,124,61254,1,8
240,80,61424,6,0,B|304:56|368:88,1,128
424,136,61932,1,8
496,168,62102,2,0,B|432:152|376:200,1,128
336,264,62610,1,8
324,340,62780,1,0
264,292,62949,6,0,B|208:256|136:272,1,128,0|8
72,304,63458,1,0
142,333,63627,2,0,B|157:299|139:266,1,64
80,224,63966,1,8
36,160,64136,5,8
36,160,64221,1,8
36,160,64305,2,0,B|20:88|60:32,1,128,0|4
160,52,64814,2,0,B|176:124|136:180,1,128
80,224,65322,1,8
216,192,65492,6,0,B|288:176|344:216,1,128,4|0
392,268,66000,1,8
404,344,66170,1,0
315,269,66339,2,0,B|312:232|341:211,1,64
412,192,66678,1,8
464,136,66848,1,0
496,40,67017,6,0,B|456:96|384:96,1,128,8|0
270,52,67526,2,0,B|342:52|386:96,1,128,8|0
412,192,68034,1,8
328,240,68204,6,0,B|256:240|212:196,1,128,0|8
184,32,68882,2,0,B|176:64|144:80,1,64,0|8
16,184,69390,2,0,B|-8:232|16:280,1,95.9999971389771,8|0
64,336,69729,6,0,B|120:368|192:344,1,128,4|8
248,272,70238,2,0,B|280:296|280:336,2,64
184,232,70746,1,8
160,160,70915,6,0,B|160:88|216:48,1,128
288,32,71424,1,8
392,64,71593,2,0,B|424:120|408:192,1,128
360,248,72102,1,8
288,304,72271,6,0,B|312:336|344:336,2,64
256,232,72780,1,8
232,160,72949,2,0,B|208:128|176:128,2,64
256,232,73458,1,8
216,296,73627,1,0
152,336,73797,6,0,B|80:352|24:312,1,128,0|8
8,240,74305,1,0
32,168,74475,2,0,B|56:136|96:136,1,64,8|0
148,180,74814,2,0,B|124:212|84:212,1,64,8|0
0,96,75153,6,0,B|48:56|120:64,1,128,4|8
240,24,75661,2,0,B|200:72|216:144,1,128,4|0
248,216,76170,1,8
344,192,76339,6,0,B|416:184|464:224,2,128,4|8|0
312,288,77187,2,0,B|280:344|208:352,1,128,8|8
56,320,77865,5,4
56,320,78373,1,0
24,248,78543,2,0,B|8:176|48:120,1,128,8|0
112,88,79051,6,0,B|92:52|56:48,2,64,0|0|8
132,164,79560,1,0
188,216,79729,1,0
264,232,79899,2,0,B|336:232|384:184,1,128,8|0
480,28,80577,6,0,B|440:32|412:84|432:128,1,128,4|0
456,200,81085,2,0,B|496:196|524:144|504:100,1,128
432,128,81593,1,0
380,184,81763,6,0,B|328:204|276:168|264:112|292:68,1,192
308,212,82610,2,0,B|288:176|312:120|356:112,1,128
380,184,83118,1,0
368,260,83288,6,0,B|336:320|264:336,1,128,4|8
192,328,83797,1,0
104,344,83966,2,0,B|136:280|112:216,1,128,0|0
24,128,84475,6,0,B|80:160|152:136,1,128,8|0
216,104,84983,1,0
424,160,85322,2,0,B|424:200|392:216,1,64
320,232,85661,1,0
256,192,85831,1,4
256,192,85915,12,0,89051
