osu file format v9

[General]
AudioFilename: Yasashisa no Riyuu.mp3
AudioLeadIn: 1000
PreviewTime: 59108
Countdown: 0
SampleSet: Soft
StackLeniency: 0.7
Mode: 0
LetterboxInBreaks: 0

[Editor]
DistanceSpacing: 1
BeatDivisor: 2
GridSize: 4

[Metadata]
Title:Yasashisa no Riyuu (TV Size)
Artist:ChouCho
Creator:maaagic
Version:Normal
Source:Hyouka
Tags:opening Kyoto Animation KyoAni

[Difficulty]
HPDrainRate:4
CircleSize:3
OverallDifficulty:3
ApproachRate:4
SliderMultiplier:0.8
SliderTickRate:1

[Events]
//Background and Video events
0,0,"hyouka1.jpg"
Video,0,"hyouka.avi"
//Break Periods
//Storyboard Layer 0 (Background)
//Storyboard Layer 1 (Fail)
//Storyboard Layer 2 (Pass)
//Storyboard Layer 3 (Foreground)
//Storyboard Sound Samples
//Background Colour Transformations
3,100,163,162,255

[TimingPoints]
1142,338.983050847458,4,2,1,60,1,0
5209,-100,4,2,1,45,0,0
6565,-100,4,2,1,60,0,0
9277,-100,4,2,1,40,0,0
10633,-100,4,2,1,10,0,0
11989,-100,4,2,1,70,0,0
13175,-100,4,2,1,60,0,0
13684,-100,4,2,1,30,0,0
14023,-100,4,2,1,40,0,0
14362,-100,4,2,1,50,0,0
14701,-100,4,2,1,70,0,0
15887,-100,4,2,1,60,0,0
16565,-100,4,2,1,50,0,0
17413,-100,4,2,1,70,0,0
18599,-100,4,2,1,60,0,0
19108,-100,4,2,1,40,0,0
19447,-100,4,2,1,50,0,0
19786,-100,4,2,1,60,0,0
20125,-100,4,2,1,70,0,0
21480,-100,4,2,1,60,0,0
26904,-100,4,2,1,50,0,0
28260,-100,4,2,1,60,0,0
32667,-100,4,2,1,40,0,0
33345,-100,4,2,1,50,0,0
33684,-100,4,2,1,60,0,0
35040,-100,4,2,1,60,0,0
43175,-100,4,2,1,80,0,0
44701,-100,4,2,1,60,0,0
45209,-100,4,2,1,55,0,0
45548,-100,4,2,1,40,0,0
45887,-100,4,2,1,50,0,0
49955,-100,4,2,1,45,0,0
51311,-100,4,2,1,50,0,0
53345,-100,4,2,1,55,0,0
53684,-100,4,2,1,45,0,0
54023,-100,4,2,1,60,0,0
56735,-100,4,2,1,50,0,0
58091,-100,4,2,1,60,0,0
59447,-100,4,2,1,70,0,1
64701,-100,4,2,1,60,0,1
65209,-100,4,2,1,70,0,1
67582,-100,4,2,1,60,0,1
70294,-100,4,2,1,70,0,1
77243,-100,4,2,1,50,0,1
77752,-100,4,2,1,55,0,1
78091,-100,4,2,1,60,0,1
81142,-100,4,2,1,60,0,0
82497,-100,4,2,1,55,0,0
83175,-100,4,2,1,50,0,0
83853,-100,4,2,1,70,0,0
86565,-100,4,2,1,40,0,0
87921,-100,4,2,1,30,0,0
89277,-100,4,2,1,5,0,0

[Colours]
Combo1 : 128,128,255
Combo2 : 191,128,255
Combo3 : 255,128,255

[HitObjects]
152,280,1142,6,0,B|212:340|296:340,1,160,2|2
360,192,2497,2,0,B|300:132|216:132,1,160,2|2
236,292,3853,6,0,B|188:376,2,80,2|0|2
360,192,5209,1,2
212,136,5887,1,2
64,200,6565,6,0,B|64:284|124:344,1,160,2|2
272,280,7921,2,0,B|272:196|212:136,1,160,2|2
256,192,9277,12,0,11311
204,320,11989,6,0,B|368:352|424:196,1,280,14|12
308,172,13684,2,0,B|332:136|332:96,2,80,4|4|4
256,232,14701,6,0,B|92:264|36:108,1,280,14|12
132,36,16396,1,8
212,44,16735,1,8
292,52,17074,1,8
372,64,17413,6,0,B|508:140|488:300,1,280,14|12
372,264,19108,2,0,B|256:227,2,80,8|8|8
256,192,20125,12,0,22158
240,308,22836,6,0,B|304:364|388:356,1,160,2|2
436,204,24192,2,0,B|372:148|288:156,1,160,2|2
240,308,25548,6,0,B|80:332,2,160,2|2|2
356,196,27582,1,2
388,40,28260,6,0,B|304:32|240:88,1,160,2|2
288,240,29616,2,0,B|372:248|436:192,1,160,2|2
320,84,30972,5,2
168,36,31650,1,2
16,84,32328,1,2
132,192,33006,6,0,B|212:192,2,80,8|8|12
16,84,34362,1,8
168,36,35040,2,0,B|256:28|312:92,1,160,8|8
252,240,36396,6,0,B|164:248|108:184,2,160,8|8|8
400,184,38430,1,8
276,80,39108,6,0,B|192:72|128:128,1,160,8|8
180,280,40464,2,0,B|264:288|328:232,1,160,8|8
212,124,41819,6,0,B|52:124,1,160,8|8
16,280,43175,6,0,B|92:308,1,80,2|2
96,228,43853,2,0,B|172:200,1,80,2|2
216,264,44531,6,0,B|256:264,1,40,0|12
256,144,45209,2,0,B|256:64,2,80,12|8|4
112,216,46565,5,8
244,304,47243,2,0,B|308:364|392:348,1,160,8|8
436,196,48599,2,0,B|372:136|288:152,1,160,8|8
324,308,49955,6,0,B|248:336,1,80,8|8
212,264,50633,2,0,B|136:236,1,80,8|8
64,272,51311,6,0,B|4:208|24:124,1,160,12|8
180,80,52667,2,0,B|240:144|220:228,1,160,8|8
192,304,53684,1,8
116,332,54023,6,0,B|0:300,1,120,12|12
76,208,55040,2,0,B|192:240,1,120,12|12
312,240,56057,1,12
388,220,56396,1,12
464,200,56735,1,4
256,64,58091,5,2
256,320,59447,6,0,B|340:336|404:276,1,160,12|8
368,204,60464,1,0
420,144,60803,2,0,B|472:84,2,80,8|0|8
368,204,61819,1,0
288,204,62158,6,0,B|204:220|140:160,2,160,8|8|8
324,132,63853,2,0,B|328:48,2,80,0|8|0
316,212,64870,5,8
308,292,65209,1,12
240,332,65548,2,0,B|180:356|124:332,1,120,0|12
84,216,66565,2,0,B|4:216,2,80,0|8|0
164,216,67582,6,0,B|208:256|208:256|268:256,1,120,12|12
348,168,68599,2,0,B|304:128|304:128|244:128,1,120,12|12
164,216,69616,1,12
164,136,69955,1,12
196,64,70294,6,0,B|268:16|348:48,1,160,12|8
420,80,71311,1,0
480,132,71650,2,0,B|516:160|512:204,1,80,8|0
464,268,72328,2,0,B|428:240|432:200,1,80,8|0
396,128,73006,6,0,B|340:64|252:72,2,160,8|8|8
424,204,74701,1,0
348,232,75040,1,8
272,260,75379,1,0
196,288,75718,6,0,B|137:311|79:289,2,120,12|8|8
200,248,76904,2,0,B|200:128,1,120,12|0
280,128,77752,5,8
280,208,78091,1,0
276,288,78430,2,0,B|220:360|136:344,1,160,12|8
76,196,79786,2,0,B|132:124|216:140,1,160,8|8
256,192,81142,12,0,83175
256,276,83853,6,0,B|188:328|104:308,1,160,12|0
72,192,85040,2,0,B|164:212|180:172|272:192,1,200,12|2
352,192,86226,2,0,B|392:192,1,40,0|4
256,192,86565,12,0,89277
