osu file format v9

[General]
AudioFilename: Yasashisa no Riyuu.mp3
AudioLeadIn: 1000
PreviewTime: 59108
Countdown: 0
SampleSet: Soft
StackLeniency: 0.6
Mode: 0
LetterboxInBreaks: 0

[Editor]
DistanceSpacing: 1.2
BeatDivisor: 4
GridSize: 4

[Metadata]
Title:Yasashisa no Riyuu (TV Size)
Artist:ChouCho
Creator:maaagic
Version:Insane
Source:Hyouka
Tags:opening Kyoto Animation KyoAni

[Difficulty]
HPDrainRate:7
CircleSize:4
OverallDifficulty:7
ApproachRate:9
SliderMultiplier:1.7
SliderTickRate:2

[Events]
//Background and Video events
0,0,"hyouka1.jpg"
Video,0,"hyouka.avi"
//Break Periods
//Storyboard Layer 0 (Background)
//Storyboard Layer 1 (Fail)
//Storyboard Layer 2 (Pass)
//Storyboard Layer 3 (Foreground)
//Storyboard Sound Samples
//Background Colour Transformations
3,100,163,162,255

[TimingPoints]
1142,338.983050847458,4,2,1,60,1,0
5209,-100,4,2,1,45,0,0
6565,-100,4,2,1,60,0,0
9447,-100,4,2,1,40,0,0
10633,-100,4,2,1,10,0,0
11819,-100,4,2,1,60,0,0
11989,-100,4,2,1,70,0,0
13175,-100,4,2,1,60,0,0
13684,-100,4,2,1,30,0,0
14023,-100,4,2,1,40,0,0
14362,-100,4,2,1,50,0,0
14701,-100,4,2,1,70,0,0
15887,-100,4,2,1,60,0,0
16565,-100,4,2,1,50,0,0
17413,-100,4,2,1,70,0,0
18599,-100,4,2,1,60,0,0
19108,-100,4,2,1,40,0,0
19447,-100,4,2,1,50,0,0
19786,-100,4,2,1,60,0,0
20125,-100,4,2,1,70,0,0
21480,-100,4,2,1,60,0,0
26904,-100,4,2,1,45,0,0
28260,-100,4,2,1,60,0,0
32667,-100,4,2,1,40,0,0
33345,-100,4,2,1,50,0,0
33684,-100,4,2,1,60,0,0
34701,-100,4,2,1,50,0,0
35040,-100,4,2,1,60,0,0
43175,-100,4,2,1,80,0,0
44531,-100,4,2,1,50,0,0
44701,-100,4,2,1,60,0,0
45040,-100,4,2,1,45,0,0
45209,-100,4,2,1,55,0,0
45548,-100,4,2,1,40,0,0
45887,-133.333333333333,4,2,1,50,0,0
49955,-133.333333333333,4,2,1,45,0,0
51311,-133.333333333333,4,2,1,50,0,0
53006,-133.333333333333,4,2,1,40,0,0
53345,-133.333333333333,4,2,1,55,0,0
53684,-133.333333333333,4,2,1,45,0,0
54023,-100,4,2,1,60,0,0
56735,-100,4,2,1,50,0,0
58091,-133.333333333333,4,2,1,70,0,0
59447,-83.3333333333333,4,2,1,70,0,1
61480,-83.3333333333333,4,2,2,60,0,1
61650,-83.3333333333333,4,2,1,70,0,1
64701,-83.3333333333333,4,2,1,60,0,1
65209,-83.3333333333333,4,2,1,70,0,1
67582,-83.3333333333333,4,2,1,60,0,1
70294,-83.3333333333333,4,2,1,70,0,1
71311,-83.3333333333333,4,2,2,60,0,1
71480,-83.3333333333333,4,2,1,70,0,1
73006,-83.3333333333333,4,2,2,60,0,1
73175,-83.3333333333333,4,2,1,70,0,1
75718,-133.333333333333,4,2,1,70,0,1
77243,-133.333333333333,4,2,1,50,0,1
77752,-133.333333333333,4,2,1,55,0,1
78091,-133.333333333333,4,2,1,60,0,1
78938,-133.333333333333,4,2,1,50,0,1
79108,-133.333333333333,4,2,1,60,0,1
81142,-133.333333333333,4,2,1,60,0,0
82497,-133.333333333333,4,2,1,55,0,0
83175,-133.333333333333,4,2,1,50,0,0
83514,-133.333333333333,4,2,1,60,0,0
83853,-100,4,2,1,70,0,0
86565,-100,4,2,1,40,0,0
87921,-100,4,2,1,30,0,0
89277,-100,4,2,1,5,0,0

[Colours]
Combo1 : 128,128,255
Combo2 : 191,128,255
Combo3 : 255,128,255

[HitObjects]
400,236,1142,1,2
436,332,1311,1,0
424,216,1480,1,0
436,332,1650,1,0
448,196,1819,2,0,B|456:104|404:36,1,170,2|0
332,108,2328,6,0,B|296:132|280:172,1,85,0|2
308,272,2667,2,0,B|344:248|360:208,2,85,0|0|0
208,248,3175,1,2
108,224,3345,1,0
36,296,3514,1,0
108,224,3684,1,0
308,272,3853,6,0,B|384:316,2,85,2|0|0
308,272,4362,1,0
372,192,4531,2,0,B|448:148,2,85,2|0|0
372,192,5040,1,0
272,176,5209,5,2
308,272,5379,1,2
372,192,5548,1,2
272,176,5887,5,2
381,314,6057,1,2
445,149,6226,1,2
272,176,6565,5,2
272,176,6735,1,0
208,256,6904,1,0
208,256,7074,1,0
108,236,7243,2,0,B|26:200|2:110,1,170,2|0
124,48,7752,6,0,B|92:80|84:120,1,85,0|2
184,128,8091,2,0,B|216:96|224:54,2,85,0|0|0
124,48,8599,1,2
84,140,8769,1,0
184,128,8938,1,0
284,116,9108,1,0
384,104,9277,1,2
256,192,9447,12,0,11819
140,276,11989,6,0,B|172:308|216:308,1,85,14|0
288,192,12328,2,0,B|256:160|212:160,1,85,8|0
140,276,12667,1,8
288,192,12836,1,0
140,276,13006,1,8
288,192,13175,6,0,B|360:136|356:44,1,170,4|0
256,60,13684,1,12
124,84,13853,1,0
280,56,14023,5,12
100,88,14192,1,0
300,52,14362,5,12
80,92,14531,1,0
328,48,14701,6,0,B|372:44|408:68,2,85,14|0|8
328,48,15209,1,0
436,180,15379,2,0,B|392:184|356:160,2,85,8|0|8
328,48,15887,6,0,B|232:72|236:172,1,170,12|0
400,224,16396,1,8
400,224,16565,1,12
212,88,16735,2,0,B|200:172,1,85,8|0
432,224,17074,2,0,B|444:140,1,85,8|8
180,88,17413,6,0,B|148:60|104:56,1,85,14|0
28,128,17752,2,0,B|60:156|105:160,1,85,8|0
180,88,18091,1,8
308,44,18260,1,0
412,132,18430,1,8
180,88,18599,6,0,B|88:80|24:140,1,170,12|0
124,236,19108,1,8
124,236,19277,1,8
256,344,19447,1,8
256,344,19616,1,8
416,284,19786,1,8
416,284,19955,1,8
284,176,20125,1,12
256,192,20294,12,0,22497
320,320,22836,6,0,B|404:296,1,85,2|0
336,240,23175,2,0,B|406:188,1,85,0|0
324,160,23514,2,0,B|264:88|172:104,1,170,2|0
56,180,24023,2,0,B|116:252|208:236,1,170
239,315,24531,6,0,B|207:235,1,85
360,312,24870,2,0,B|292:258,1,85,2|0
464,248,25209,1,0
464,248,25379,1,0
348,124,25548,6,0,B|384:48,2,85,2|0|0
348,124,26057,1,0
164,124,26226,2,0,B|128:48,2,85,2|0|0
164,124,26735,1,0
348,124,26904,5,2
256,80,27074,1,2
164,124,27243,1,2
408,152,27582,5,2
256,80,27752,1,2
104,152,27921,1,2
408,152,28260,5,2
368,284,28430,1,0
376,144,28599,1,0
336,276,28769,1,0
343,135,28938,2,0,B|362:45|444:8,1,170,2|0
506,160,29447,6,0,B|468:77|378:58,1,170
296,120,29955,2,0,B|216:148,2,85,0|0|2
368,192,30464,2,0,B|448:220,2,85,0|0|0
268,220,30972,6,0,B|256:264|268:304,2,85,2|0|0
360,264,31480,1,0
352,160,31650,2,0,B|352:116|328:80,1,85,2|0
244,140,31989,2,0,B|244:184|268:220,1,85,0|0
172,184,32328,2,0,B|133:164|111:126,2,85,2|0|0
84,236,32836,5,8
84,236,32921,1,8
84,236,33006,1,8
136,324,33175,1,8
284,148,33345,1,8
232,236,33514,1,8
92,104,33684,6,0,B|92:60|124:28,1,85,12|0
228,116,34023,2,0,B|228:160|196:192,1,85,8|0
60,180,34362,2,0,B|60:136|92:104,1,85,8|0
364,128,34701,5,8
364,128,34786,1,8
364,128,34870,2,0,B|440:184|432:276,1,170,8|0
296,304,35379,2,0,B|364:248,1,85,8|0
192,244,35718,2,0,B|278:229,1,85,8|0
108,192,36057,1,8
160,352,36226,1,0
108,192,36396,6,0,B|100:148|128:112,1,85,8|0
248,48,36735,2,0,B|256:92|228:128,1,85,8|0
108,192,37074,1,8
248,48,37243,1,0
128,268,37413,1,8
176,72,37582,1,0
128,268,37752,6,0,B|50:303,2,85,8|0|8
208,236,38260,1,0
176,104,38430,2,0,B|98:69,2,85,8|0|8
256,136,38938,1,0
316,228,39108,6,0,B|360:232|396:208,1,85,8|0
460,88,39447,2,0,B|416:84|379:108,1,85,8|0
316,228,39786,1,8
284,308,39955,1,0
336,376,40125,1,8
116,332,40294,6,0,B|80:308|68:264,2,85,0|8|0
152,156,40803,2,0,B|188:180|200:224,2,85,8|0|8
48,164,41311,1,0
184,60,41480,1,8
48,164,41650,1,0
184,60,41819,6,0,B|220:36|264:40,1,85,8|0
376,120,42158,2,0,B|340:144|296:140,2,85,8|0|8
184,60,42667,1,0
32,192,42836,1,8
168,192,43006,1,0
304,192,43175,6,0,B|388:192,1,85,2|0
224,232,43514,2,0,B|296:274,1,85,2|0
148,188,43853,2,0,B|220:146,1,85,2|0
56,192,44192,2,0,B|97:119,1,85,2|0
456,192,44531,5,8
456,192,44701,1,12
56,132,45040,5,0
56,252,45209,1,12
404,104,45548,5,8
456,192,45718,1,8
404,280,45887,2,0,B|356:328|288:320,1,127.499996200204,12|2
192,232,46565,2,0,B|240:184|308:192,1,127.499996200204,8|2
372,204,47074,1,0
432,228,47243,6,0,B|495:255|513:321,1,127.499996200204,8|2
388,348,47921,2,0,B|325:321|307:255,1,127.499996200204,8|2
300,192,48430,1,0
307,129,48599,6,0,B|325:63|388:36,1,127.499996200204,8|2
512,63,49277,2,0,B|495:129|432:156,1,127.499996200204,8|2
372,180,49786,1,0
308,192,49955,6,0,B|240:192,1,63.749998100102,8|8
180,192,50294,2,0,B|112:192,1,63.749998100102,10|8
52,192,50633,1,8
460,192,50972,1,10
52,192,51311,6,0,B|40:124|88:75,1,127.499996200204,12|2
212,112,51989,2,0,B|224:180|176:229,1,127.499996200204,8|2
116,148,52497,1,0
212,112,52667,6,0,B|272:89,1,63.749998100102,8|8
376,92,53006,2,0,B|316:114,1,63.749998100102,10|0
228,190,53345,2,0,B|288:167,1,63.749998100102,8|0
416,164,53684,2,0,B|356:186,1,63.749998100102,10|0
240,268,54023,6,0,B|316:304,2,85,12|0|8
320,116,54531,2,0,B|396:80,2,85,12|0|8
100,268,55040,6,0,B|60:192,1,85,12|0
60,193,55379,1,8
412,116,55548,2,0,B|452:192,1,85,12|0
451,192,55887,1,8
60,193,56057,6,0,B|56:148|80:112,1,85,12|0
452,191,56396,2,0,B|456:236|432:272,1,85,12|0
256,192,56735,1,4
256,324,58091,6,0,B|204:292|308:260|256:236|256:144,1,191.249994300306,2|0
256,144,59447,6,0,B|288:100|340:92,1,102.00000243187,14|0
444,188,59786,1,8
324,212,59955,1,0
468,184,60125,5,8
300,216,60294,1,0
492,180,60464,5,8
276,220,60633,2,0,B|176:240,1,102.00000243187,0|8
352,344,60972,2,0,B|252:324,1,102.00000243187,0|8
164,140,61311,2,0,B|64:204|108:316,1,204.000004863739
264,268,61819,1,8
264,268,61989,1,0
164,140,62158,6,0,B|136:92|84:80,1,102.00000243187,8|0
100,244,62497,2,0,B|128:292|180:304,1,102.00000243187,8|0
304,200,62836,2,0,B|266:267|163:252|145:177,1,204.000004863739,8|8
244,48,63345,1,0
448,48,63514,5,8
300,116,63684,1,0
448,48,63853,1,8
380,152,64023,1,0
448,48,64192,2,0,B|480:88|476:144,2,102.00000243187,8|0|8
272,156,64701,5,8
272,156,64786,1,8
272,156,64870,2,0,B|64:224,1,204.000004863739,8|12
78,219,65548,6,0,B|48:264|56:316,2,102.00000243187,8|0|8
228,284,66057,2,0,B|258:328|250:380,1,102.00000243187,12|0
100,316,66396,2,0,B|70:272|78:218,1,102.00000243187,0|8
264,136,66735,6,0,B|272:189|242:233,1,102.00000243187,0|8
164,44,67074,2,0,B|134:88|142:141,2,102.00000243187,0|8|0
304,128,67582,5,14
424,152,67752,1,0
464,268,67921,1,8
212,48,68091,1,14
304,128,68260,1,0
280,248,68430,1,8
32,192,68599,6,0,B|52:240|52:240|96:260,2,102.00000243187,14|0|8
480,192,69108,2,0,B|460:144|460:144|416:124,2,102.00000243187,14|0|8
32,192,69616,5,14
480,192,69955,1,12
32,192,70294,6,0,B|56:140|104:124,1,102.00000243187,12|0
108,288,70633,2,0,B|84:340|36:356,2,102.00000243187,8|0|8
272,276,71142,2,0,B|248:202|174:174|107:212,1,204.000004863739
232,100,71650,5,8
68,100,71819,1,0
232,100,71989,1,8
19,261,72158,2,0,B|108:212,1,102.00000243187,0|8
108,332,72497,2,0,B|197:380,1,102.00000243187,0|8
392,320,72836,6,0,B|396:196|276:176,1,204.000004863739
116,192,73345,1,8
116,192,73514,1,0
208,276,73684,2,0,B|252:308|304:304,1,102.00000243187,8|0
184,52,74023,2,0,B|304:84|280:208,1,204.000004863739,8|8
116,192,74531,5,0
280,205,74701,1,8
140,292,74870,1,0
116,192,75040,1,8
116,192,75209,1,0
156,100,75379,1,8
156,100,75548,1,0
248,60,75718,6,0,B|308:32|372:44,1,127.499996200204,12|8
492,84,76226,2,0,B|430:105|392:159,1,127.499996200204,8|8
391,159,76735,1,8
316,60,76904,2,0,B|272:109|266:175,1,127.499996200204,12|8
391,159,77413,5,8
268,296,77582,1,8
92,240,77752,1,8
92,240,77921,1,8
268,296,78091,1,8
268,296,78260,1,8
391,159,78430,1,12
92,240,78938,5,8
92,240,79108,2,0,B|152:264,1,63.749998100102,8|0
128,164,79447,2,0,B|188:140,1,63.749998100102,8|0
276,232,79786,6,0,B|324:280|392:276,1,127.499996200204,8|8
436,160,80464,2,0,B|388:112|320:116,1,127.499996200204,8|8
224,144,80972,1,8
120,144,81142,1,12
256,192,81311,12,0,83514
256,312,83853,6,0,B|344:340|416:280,1,170,12|0
256,148,84531,2,0,B|168:120|96:180,1,170,8|0
172,292,85040,2,0,B|172:36,1,255,12|0
412,164,85887,5,2
376,260,86057,1,0
276,276,86226,1,0
376,260,86396,1,4
256,192,86565,12,0,89277
