osu file format v9

[General]
AudioFilename: Yasashisa no Riyuu.mp3
AudioLeadIn: 1000
PreviewTime: 59108
Countdown: 0
SampleSet: Soft
StackLeniency: 0.5
Mode: 0
LetterboxInBreaks: 0

[Editor]
DistanceSpacing: 1
BeatDivisor: 4
GridSize: 4

[Metadata]
Title:Yasashisa no Riyuu (TV Size)
Artist:ChouCho
Creator:maaagic
Version:Hard
Source:Hyouka
Tags:opening Kyoto Animation KyoAni

[Difficulty]
HPDrainRate:6
CircleSize:4
OverallDifficulty:6
ApproachRate:7
SliderMultiplier:1.4
SliderTickRate:2

[Events]
//Background and Video events
0,0,"hyouka1.jpg"
Video,0,"hyouka.avi"
//Break Periods
//Storyboard Layer 0 (Background)
//Storyboard Layer 1 (Fail)
//Storyboard Layer 2 (Pass)
//Storyboard Layer 3 (Foreground)
//Storyboard Sound Samples
//Background Colour Transformations
3,100,163,162,255

[TimingPoints]
1142,338.983050847458,4,2,1,60,1,0
1142,-133.333333333333,4,2,1,60,0,0
5209,-133.333333333333,4,2,1,45,0,0
6565,-133.333333333333,4,2,1,60,0,0
9277,-133.333333333333,4,2,1,40,0,0
10633,-133.333333333333,4,2,1,10,0,0
11989,-100,4,2,1,70,0,0
13175,-100,4,2,1,60,0,0
13684,-100,4,2,1,30,0,0
14023,-100,4,2,1,40,0,0
14362,-100,4,2,1,50,0,0
14701,-100,4,2,1,70,0,0
15887,-100,4,2,1,60,0,0
16565,-100,4,2,1,50,0,0
17413,-100,4,2,1,70,0,0
18599,-100,4,2,1,60,0,0
19108,-100,4,2,1,40,0,0
19447,-100,4,2,1,50,0,0
19786,-100,4,2,1,60,0,0
20125,-100,4,2,1,70,0,0
21480,-100,4,2,1,60,0,0
22497,-133.333333333333,4,2,1,60,0,0
26904,-133.333333333333,4,2,1,50,0,0
28260,-133.333333333333,4,2,1,60,0,0
32667,-100,4,2,1,40,0,0
33345,-100,4,2,1,50,0,0
33684,-100,4,2,1,60,0,0
34701,-100,4,2,1,50,0,0
35040,-100,4,2,1,60,0,0
43175,-100,4,2,1,80,0,0
44531,-100,4,2,1,50,0,0
44701,-100,4,2,1,60,0,0
45040,-100,4,2,1,45,0,0
45209,-100,4,2,1,55,0,0
45548,-100,4,2,1,40,0,0
45887,-133.333333333333,4,2,1,50,0,0
49955,-133.333333333333,4,2,1,45,0,0
51311,-133.333333333333,4,2,1,50,0,0
53006,-133.333333333333,4,2,1,40,0,0
53345,-133.333333333333,4,2,1,55,0,0
53684,-133.333333333333,4,2,1,45,0,0
54023,-100,4,2,1,60,0,0
56735,-100,4,2,1,50,0,0
58091,-100,4,2,1,30,0,0
59108,-100,4,2,1,50,0,0
59447,-100,4,2,1,70,0,1
64701,-100,4,2,1,60,0,1
65209,-100,4,2,1,70,0,1
67582,-100,4,2,1,60,0,1
70294,-100,4,2,1,70,0,1
75718,-133.333333333333,4,2,1,70,0,1
77243,-133.333333333333,4,2,1,40,0,1
77752,-133.333333333333,4,2,1,50,0,1
78091,-133.333333333333,4,2,1,60,0,1
78938,-133.333333333333,4,2,1,50,0,1
79108,-133.333333333333,4,2,1,60,0,1
81142,-133.333333333333,4,2,1,60,0,0
82497,-133.333333333333,4,2,1,55,0,0
83175,-133.333333333333,4,2,1,50,0,0
83514,-133.333333333333,4,2,1,60,0,0
83853,-100,4,2,1,70,0,0
86565,-100,4,2,1,40,0,0
87921,-100,4,2,1,30,0,0
89277,-100,4,2,1,5,0,0

[Colours]
Combo1 : 128,128,255
Combo2 : 191,128,255
Combo3 : 255,128,255

[HitObjects]
256,316,1142,2,0,B|368:348|448:264,1,209.999993741512,2|2
392,60,2497,2,0,B|280:28|200:112,1,209.999993741512,2|2
256,316,3853,6,0,B|300:352|352:352,1,104.999996870756,2|0
432,284,4531,2,0,B|388:248|335:247,1,104.999996870756,2|0
256,316,5209,2,0,B|204:332,2,52.4999984353781,2|2|2
220,216,5887,2,0,B|168:200,2,52.4999984353781,2|2|2
324,236,6565,6,0,B|428:176|412:60,1,209.999993741512,2|2
208,108,7921,2,0,B|264:100|308:132,1,104.999996870756,2|0
324,236,8599,2,0,B|268:244|224:212,1,104.999996870756,2|0
208,108,9277,1,2
256,192,9447,12,0,11311
196,292,11989,6,0,B|136:340|64:320,1,140,6|8
104,184,12667,2,0,B|164:136|236:156,1,140,0|8
235,155,13175,1,4
404,276,13684,6,0,B|336:296,1,70,12|0
268,316,14023,2,0,B|200:336,1,70,12|0
132,356,14362,1,12
132,356,14531,1,0
28,316,14701,6,0,B|-16:256|8:184,1,140,6|8
116,100,15379,2,0,B|160:160|135:232,1,140,0|8
134,232,15887,1,4
268,192,16226,6,0,B|336:192,2,70,0|8|12
272,264,16735,2,0,B|330:298,1,70,8|0
240,328,17074,1,8
240,328,17243,1,8
168,324,17413,6,0,B|100:292|88:216,1,140,6|8
204,136,18091,2,0,B|272:168|284:244,1,140,0|8
283,243,18599,1,4
168,324,18938,6,0,B|109:364,2,70,8|8|8
112,280,19447,2,0,B|142:216,1,70,8|8
72,204,19786,2,0,B|66:134,2,70,8|8|12
256,192,20294,12,0,22497
120,296,22836,6,0,B|160:336|216:328,1,104.999996870756,2|0
196,224,23514,2,0,B|236:184|292:192,1,104.999996870756,2|0
368,264,24192,2,0,B|328:304|272:296,2,104.999996870756,2|0|2
291,191,25209,1,0
272,88,25548,6,0,B|208:36|124:44,2,157.499995306134,2|2|0
220,180,26904,2,0,B|208:128,2,52.4999984353781,2|2|2
116,192,27582,2,0,B|128:244,2,52.4999984353781,2|2|2
12,204,28260,6,0,B|0:328|112:368,1,209.999993741512,2|2
216,380,29277,1,0
308,328,29616,2,0,B|352:296|360:240,1,104.999996870756,2|0
308,148,30294,2,0,B|264:180|256:236,1,104.999996870756,2|0
308,328,30972,6,0,B|412:352,1,104.999996870756,2|0
308,328,31650,2,0,B|380:249,1,104.999996870756,2|0
308,328,32328,2,0,B|276:225,1,104.999996870756,2|0
308,328,33006,6,0,B|240:348,1,70,8|8
216,280,33345,2,0,B|148:260,1,70,8|8
84,288,33684,6,0,B|20:248|16:172,1,140,4|8
68,124,34192,1,0
68,124,34362,2,0,B|88:56,2,70,0|0|8
128,164,34870,1,0
132,236,35040,2,0,B|192:284|264:272,1,140,0|8
240,204,35548,1,0
228,132,35718,2,0,B|288:84|360:96,1,140,0|8
324,236,36396,6,0,B|399:215,2,70,0|0|8
424,136,37074,2,0,B|462:68,2,70,0|0|8
288,100,37752,2,0,B|268:24,2,70,0|0|8
306,168,38260,1,0
324,236,38430,2,0,B|264:284|192:272,1,140,0|8
76,192,39108,6,0,B|68:116|120:64,1,140,0|8
119,64,39616,1,0
168,116,39786,2,0,B|237:108,1,70
216,180,40125,2,0,B|144:188,1,70,8|0
76,192,40464,2,0,B|8:192,2,70,0|0|8
120,136,40972,1,0
180,100,41142,2,0,B|236:56|312:64,1,140,0|8
408,164,41819,6,0,B|460:216|452:292,1,140,0|8
320,336,42497,2,0,B|268:284|276:208,1,140,0|8
408,164,43175,5,2
380,300,43514,1,2
276,208,43853,1,2
408,164,44192,1,2
276,208,44531,5,0
276,208,44701,1,12
104,188,45040,5,0
104,188,45209,1,12
208,48,45548,5,8
208,48,45718,1,0
208,48,45887,2,0,B|320:20|404:96,1,209.999993741512,4|10
403,95,46904,1,0
352,300,47243,2,0,B|240:328|156:252,1,209.999993741512,8|10
156,252,48260,1,0
352,172,48599,6,0,B|443:225,2,104.999996870756,8|0|10
352,68,49616,1,0
352,172,49955,6,0,B|306:198,1,52.4999984353781,8|0
260,224,50294,2,0,B|214:250,1,52.4999984353781,8|0
168,276,50633,1,10
260,328,50972,1,8
168,276,51311,6,0,B|64:216|96:96,1,209.999993741512,12|10
220,92,52328,1,0
276,204,52667,2,0,B|203:212,2,52.4999984353781,8|8|8
380,192,53345,1,10
484,180,53684,1,8
448,316,54023,6,0,B|384:340,2,70,12|0|8
416,256,54531,2,0,B|351:233,2,70,12|0|8
430,189,55039,2,0,B|395:130,2,70,12|0|8
483,146,55548,2,0,B|494:78,2,70,12|0|8
496,216,56057,5,12
356,204,56396,1,12
216,192,56735,1,4
256,192,58091,12,0,59108
172,320,59447,6,0,B|164:244|216:192,1,140,4|8
268,240,59955,1,0
356,168,60125,2,0,B|364:244|312:296,1,140,0|8
268,240,60633,2,0,B|200:256,2,70,0|0|0
200,152,61142,2,0,B|268:168,1,70,8|0
344,204,61480,1,0
344,204,61650,1,0
268,240,61819,1,8
268,240,61989,1,0
264,324,62158,6,0,B|328:360,2,70,0|0|8
196,344,62667,1,0
128,324,62836,2,0,B|60:292|36:224,1,140,0|8
136,128,63514,2,0,B|200:104,2,70,0|0|8
176,188,64023,2,0,B|240:212,2,70,0|0|0
104,192,64531,1,8
100,120,64701,1,0
132,56,64870,6,0,B|192:12|264:20,1,140,8|12
336,140,65548,2,0,B|272:116,2,70,0|0|8
404,120,66057,2,0,B|404:260,1,140,4|0
404,332,66565,6,0,B|340:356,1,70,8|0
324,288,66904,2,0,B|260:264,1,70,0|0
232,328,67243,2,0,B|164:328,1,70,8|0
96,348,67582,6,0,B|40:308|40:308|32:236,1,140,12|8
88,192,68091,2,0,B|160:192,2,70,12|0|8
32,146,68599,2,0,B|40:76|40:76|96:36,1,140,12|8
162,56,69108,2,0,B|232:56,2,70,12|0|8
116,112,69616,5,12
116,272,69955,1,12
116,112,70294,6,0,B|160:48|236:48,1,140,4|8
233,48,70803,1,0
352,128,70972,2,0,B|308:192|232:192,1,140,0|8
234,191,71480,1,0
172,160,71650,2,0,B|108:124,2,70,0|0|8
172,232,72158,1,0
234,192,72328,2,0,B|298:228,2,70,0|0|8
256,124,72836,5,0
256,124,73006,2,0,B|308:72|384:80,1,140,0|8
428,208,73684,2,0,B|376:260|300:252,1,140,0|8
312,184,74192,1,0
324,116,74362,1,0
324,116,74701,5,8
260,136,74870,2,0,B|192:144,2,70,0|0|0
260,208,75379,2,0,B|324:235,1,70,8|0
288,296,75718,6,0,B|232:356|148:356,2,157.499995306134,12|8|8
288,296,76904,1,12
288,192,77243,6,0,B|288:136,2,52.4999984353781,8|8|8
244,164,77752,2,0,B|244:112,1,52.4999984353781,8|8
200,136,78091,2,0,B|200:84,1,52.4999984353781,8|8
156,108,78430,6,0,B|92:48|12:64,1,157.499995306134,12|8
11,64,79108,1,8
64,156,79447,1,0
152,212,79786,6,0,B|148:268|176:312,1,104.999996870756,8|0
280,284,80464,2,0,B|284:228|255:183,1,104.999996870756,8|0
180,256,81142,1,12
256,192,81311,12,0,83514
224,328,83853,6,0,B|296:332|356:288,1,140,4|8
388,152,84531,2,0,B|316:148|256:192,1,140,0|8
184,192,85040,1,4
184,192,85548,6,0,B|44:192,2,140,0|2|0
256,192,86396,1,4
256,192,86565,12,0,89277
