osu file format v14

[General]
AudioFilename: Sora to Kimi no Message.mp3
AudioLeadIn: 2000
PreviewTime: 48709
Countdown: 0
SampleSet: Soft
StackLeniency: 0.7
Mode: 0
LetterboxInBreaks: 0
WidescreenStoryboard: 0

[Editor]
DistanceSpacing: 0.5
BeatDivisor: 4
GridSize: 4
TimelineZoom: 2.3

[Metadata]
Title:Sora to Kimi no Message
TitleUnicode:空とキミのメッセージ
Artist:ChouCho
ArtistUnicode:ChouCho
Creator:zj0924
Version:Suisei
Source:翠星のガルガンティア
Tags:ちょうちょ Hyasalia [_Zzz_]
BeatmapID:678215
BeatmapSetID:302583

[Difficulty]
HPDrainRate:7
CircleSize:4
OverallDifficulty:7
ApproachRate:8
SliderMultiplier:1.7
SliderTickRate:1

[Events]
//Background and Video events
0,0,"BG.jpg",0,0
Video,-571,"optc.flv"
//Break Periods
//Storyboard Layer 0 (Background)
//Storyboard Layer 1 (Fail)
//Storyboard Layer 2 (Pass)
//Storyboard Layer 3 (Foreground)
//Storyboard Sound Samples

[TimingPoints]
940,461.538461538462,4,2,1,60,1,0
1632,-100,4,2,1,50,0,0
2324,-100,4,2,1,40,0,0
3016,-100,4,2,1,35,0,0
4632,-100,4,2,1,50,0,0
13863,-100,4,2,1,60,0,0
14324,-100,4,2,1,70,0,0
15709,-100,4,2,1,60,0,0
29093,-100,4,2,1,75,0,0
30247,-100,4,2,1,60,0,0
32786,-100,4,2,1,75,0,0
33016,-100,4,2,1,60,0,0
34170,-100,4,2,1,50,0,0
44555,-100,4,2,1,55,0,0
44786,-100,4,2,1,60,0,0
45016,-100,4,2,1,40,0,0
45940,-90.9090909090909,4,2,1,50,0,0
46863,-83.3333333333333,4,2,1,70,0,0
48940,-83.3333333333333,4,2,1,80,0,1
56324,-83.3333333333333,4,2,1,90,0,1
57247,-83.3333333333333,4,2,1,80,0,1
59786,-83.3333333333333,4,2,1,70,0,1
62786,-83.3333333333333,4,2,1,60,0,1
63247,-83.3333333333333,4,2,1,50,0,1
63709,-83.3333333333333,4,2,1,80,0,1
68093,-83.3333333333333,4,2,1,85,0,1
68786,-83.3333333333333,4,2,1,80,0,1
74555,-83.3333333333333,4,2,1,70,0,1
76978,-83.3333333333333,4,2,1,50,0,1
80093,-83.3333333333333,4,2,1,5,0,1
80324,-100,4,2,1,50,0,0
81709,-100,4,2,1,60,0,0
82632,-100,4,2,1,70,0,0
83093,-100,4,2,1,80,0,0
84016,-100,4,2,1,60,0,0
85863,-100,4,2,1,50,0,0
86324,-100,4,2,1,40,0,0
86786,-100,4,2,1,30,0,0
87247,-100,4,2,1,20,0,0
87709,-100,4,2,1,5,0,0

[Colours]
Combo1 : 0,225,0
Combo2 : 255,11,11
Combo3 : 47,151,255
Combo4 : 255,11,255

[HitObjects]
216,122,940,5,2,0:0:0:0:
335,192,1170,1,0,0:0:0:0:
216,259,1401,1,8,0:1:0:0:
235,114,1632,5,2,0:0:0:0:
331,210,1862,1,8,1:0:0:0:
199,245,2093,1,0,0:0:0:0:
320,176,2324,5,2,0:0:0:0:
211,140,2555,1,0,0:0:0:0:
235,254,2786,1,8,0:1:0:0:
314,183,3016,5,2,0:0:0:0:
220,142,3246,1,8,0:1:0:0:
232,247,3477,1,0,0:0:0:0:
124,231,3709,1,2,0:0:0:0:
188,341,3940,1,0,0:0:0:0:
304,272,4170,6,0,B|324:260|324:260|404:300|464:232,1,170,8|10,0:1|0:1,0:0:0:0:
380,176,4863,1,0,0:0:0:0:
440,280,5093,1,8,0:1:0:0:
491,169,5324,1,0,0:0:0:0:
356,132,5555,2,0,P|317:112|296:71,1,85,8|0,0:1|0:0,0:0:0:0:
252,224,6017,2,0,P|248:260|244:320,1,85,8|0,0:1|0:0,0:0:0:0:
400,264,6478,6,0,P|444:264|488:260,1,85,8|0,0:1|0:0,0:0:0:0:
288,192,6940,1,8,0:1:0:0:
416,304,7170,2,0,B|436:320|436:320|480:248|448:176,1,170
416,80,7863,1,2,0:0:0:0:
340,160,8094,1,2,0:1:0:0:
272,48,8324,5,6,0:1:0:0:
340,160,8555,2,0,P|364:232|308:312,1,170
187,228,9247,2,0,L|272:228,1,85,8|0,0:1|0:0,0:0:0:0:
472,172,9709,2,0,L|416:264,1,85,8|0,0:1|0:0,0:0:0:0:
336,140,10170,6,0,L|292:56,1,85,8|0,0:1|0:0,0:0:0:0:
440,96,10632,1,8,0:1:0:0:
296,64,10863,2,0,B|244:36|188:92|128:60,1,170
28,28,11555,1,2,0:0:0:0:
37,158,11786,1,2,0:1:0:0:
144,180,12016,5,14,0:1:0:0:
208,92,12247,1,0,0:0:0:0:
340,172,12478,2,0,P|380:180|437:164,1,85,8|0,0:1|0:0,0:0:0:0:
296,44,12940,2,0,P|260:70|237:125,1,85,8|0,0:1|0:0,0:0:0:0:
237,274,13401,2,0,P|257:311|292:336,1,85,8|0,0:1|0:0,0:0:0:0:
200,184,13863,5,4,0:1:0:0:
268,304,14093,1,0,0:0:0:0:
435,153,14324,1,8,0:1:0:0:
400,296,14555,1,0,0:0:0:0:
313,187,14786,1,8,0:1:0:0:
268,304,15016,1,0,0:0:0:0:
400,296,15247,1,8,0:1:0:0:
432,180,15478,1,2,0:1:0:0:
360,88,15709,6,0,P|280:57|192:64,1,170,6|0,0:1|0:1,0:1:0:0:
84,104,16401,1,2,0:0:0:0:
176,168,16632,2,0,P|254:197|339:193,1,170,8|2,0:1|0:0,0:0:0:0:
452,152,17324,1,0,0:0:0:0:
452,264,17555,5,2,0:0:0:0:
339,193,17786,1,0,0:0:0:0:
340,328,18016,1,8,0:1:0:0:
452,264,18247,1,2,0:0:0:0:
256,244,18478,1,8,0:1:0:0:
256,244,18709,1,8,0:1:0:0:
256,244,18940,1,8,0:1:0:0:
288,164,19170,1,2,0:1:0:0:
168,292,19401,6,0,P|242:344|325:315,1,170,6|8,0:1|0:1,0:1:0:0:
400,272,20093,1,0,0:0:0:0:
265,140,20324,2,0,L|312:216,1,85,8|0,0:1|0:0,0:0:0:0:
472,104,20786,2,0,L|423:176,1,85,8|0,0:1|0:0,0:0:0:0:
332,76,21247,5,8,0:1:0:0:
296,244,21478,1,0,0:0:0:0:
452,188,21709,1,8,0:1:0:0:
268,144,21940,2,0,B|248:132|248:132|172:164|108:120,1,170
44,36,22632,1,2,0:0:0:0:
32,184,22863,1,2,0:1:0:0:
192,64,23093,6,0,P|232:144|180:224,1,170,6|0,0:1|0:0,0:0:0:0:
252,300,23786,1,0,0:0:0:0:
116,276,24016,2,0,P|96:236|96:184,1,85,8|0,0:1|0:0,0:0:0:0:
192,64,24478,2,0,P|219:99|229:150,1,85,8|0,0:1|0:0,0:0:0:0:
92,100,24940,5,8,0:1:0:0:
192,220,25170,1,0,0:0:0:0:
320,168,25401,1,8,0:1:0:0:
292,28,25632,2,0,B|274:29|256:24|256:24|252:96|192:140,1,170
92,100,26324,1,2,0:0:0:0:
128,224,26555,1,2,0:1:0:0:
260,192,26786,6,0,B|312:164|368:220|425:189,1,170,6|8,0:1|0:1,0:0:0:0:
380,108,27478,1,0,0:0:0:0:
352,292,27709,2,0,P|312:288|260:272,1,85,8|0,0:1|0:0,0:0:0:0:
100,164,28170,2,0,P|140:153|182:148,1,85,8|0,0:1|0:0,0:0:0:0:
320,156,28632,5,12,0:1:0:0:
228,48,28863,1,0,0:0:0:0:
176,244,29093,1,8,0:1:0:0:
32,124,29324,1,0,0:0:0:0:
196,68,29555,1,4,0:1:0:0:
168,208,29786,1,0,0:0:0:0:
340,260,30016,1,8,0:1:0:0:
284,148,30247,1,2,0:1:0:0:
432,144,30478,6,0,P|444:208|448:336,1,170,6|8,0:1|0:1,0:1:0:0:
356,368,31170,1,0,0:0:0:0:
340,260,31401,1,8,0:1:0:0:
259,276,31863,5,8,0:1:0:0:
200,204,32324,5,8,0:1:0:0:
184,300,32555,1,8,0:1:0:0:
295,195,32786,1,8,0:1:0:0:
196,80,33016,1,2,0:1:0:0:
336,112,33247,6,0,L|512:116,1,170,10|8,0:1|0:1,0:0:0:0:
492,208,33940,1,2,0:1:0:0:
328,204,34170,6,0,L|158:200,1,170,12|8,0:1|0:1,0:0:0:0:
216,292,34863,1,0,0:0:0:0:
368,280,35093,6,0,P|412:208|368:128,1,170,8|8,0:1|0:1,0:0:0:0:
328,68,35786,1,2,0:1:0:0:
328,204,36016,6,0,L|508:204,1,170,14|8,0:1|0:1,0:0:0:0:
436,80,36709,1,0,0:0:0:0:
328,68,36940,6,0,P|263:66|224:60,1,85,8|0,0:1|0:0,0:0:0:0:
248,152,37401,1,8,0:1:0:0:
148,68,37632,1,2,0:1:0:0:
148,68,37747,1,0,0:0:0:0:
148,68,37863,6,0,P|140:144|144:264,1,170,4|8,0:1|0:1,0:0:0:0:
45,158,38555,2,0,P|45:201|50:244,1,85,0|8,0:0|0:1,0:0:0:0:
84,326,39016,1,0,0:0:0:0:
236,276,39247,1,8,0:1:0:0:
182,359,39478,1,2,0:1:0:0:
141,237,39709,6,0,P|132:152|148:68,1,170,12|8,0:1|0:1,0:0:0:0:
232,152,40401,1,2,0:0:0:0:
232,152,40516,1,2,0:0:0:0:
232,152,40632,2,0,P|279:149|328:152,1,85,8|2,0:1|0:1,0:0:0:0:
404,204,41093,1,8,0:1:0:0:
428,80,41324,1,2,0:1:0:0:
288,104,41555,6,0,P|273:178|288:280,1,170,12|8,0:1|0:1,0:0:0:0:
378,218,42247,1,0,0:0:0:0:
256,288,42478,6,0,P|173:307|88:288,1,170,8|8,0:1|0:1,0:0:0:0:
36,196,43170,1,2,0:1:0:0:
192,204,43401,6,0,P|274:185|340:132,1,170,12|8,0:1|0:1,0:0:0:0:
424,220,44093,1,2,0:0:0:0:
424,220,44209,1,2,0:0:0:0:
424,220,44324,1,12,0:1:0:0:
344,76,44555,1,8,0:1:0:0:
320,204,44786,1,8,0:1:0:0:
440,148,45016,5,2,0:1:0:0:
383,279,45247,2,0,P|306:305|239:257,1,170,4|8,3:2|0:1,0:0:0:0:
179,124,45940,5,2,0:1:0:0:
236,266,46170,2,0,P|301:325|382:289,1,187.000005706787,4|8,3:2|0:1,0:0:0:0:
471,138,46863,5,2,0:1:0:0:
379,295,47093,2,4,P|295:342|233:266,1,203.999993774414,4|8,3:2|0:1,0:1:0:0:
160,156,47786,1,2,0:1:0:0:
373,175,48016,2,0,B|305:211|210:202,1,152.999995330811,8|8,0:0|0:0,0:0:0:0:
220,116,48478,2,0,P|201:92|176:68,1,50.9999984436036,8|0,0:0|0:0,0:0:0:0:
145,174,48709,2,0,P|130:200|124:232,1,50.9999984436036,4|2,3:0|0:1,0:0:0:0:
112,324,48940,6,0,L|236:280,1,101.999996887207,6|2,0:0|0:1,0:0:0:0:
408,208,49401,2,0,P|386:260|364:324,1,101.999996887207,8|2,0:0|0:1,0:0:0:0:
281,184,49863,1,2,0:1:0:0:
272,324,50093,1,2,0:1:0:0:
152,220,50324,1,8,0:0:0:0:
300,140,50555,1,2,0:1:0:0:
164,72,50786,6,0,P|119:55|60:24,1,101.999996887207,2|2,0:1|0:1,0:0:0:0:
220,136,51247,1,8,0:0:0:0:
376,56,51478,1,2,0:1:0:0:
376,56,51593,1,2,0:1:0:0:
376,56,51709,2,0,P|320:56|261:58,1,101.999996887207,2|2,0:1|0:1,0:0:0:0:
408,160,52170,1,8,0:0:0:0:
484,92,52401,1,2,0:1:0:0:
311,141,52632,6,0,P|268:228|324:308,1,203.999993774414,2|8,0:0|0:0,0:0:0:0:
424,260,53324,1,2,0:1:0:0:
408,160,53555,1,2,0:1:0:0:
340,328,53786,1,2,0:1:0:0:
248,256,54016,1,8,0:0:0:0:
424,260,54247,1,2,0:1:0:0:
296,168,54478,6,0,P|198:168|144:251,1,203.999993774414,2|8,0:0|0:0,0:0:0:0:
76,344,55170,1,2,0:1:0:0:
56,192,55401,1,2,0:1:0:0:
192,240,55632,1,2,0:1:0:0:
308,140,55863,2,0,P|318:183|326:244,1,101.999996887207,8|2,0:0|0:1,0:0:0:0:
210,143,56324,5,2,0:1:0:0:
316,308,56555,1,2,0:1:0:0:
480,244,56786,1,8,0:0:0:0:
316,308,57016,1,2,0:1:0:0:
364,136,57247,2,0,P|380:84|392:32,1,101.999996887207,2|2,0:1|0:1,0:0:0:0:
384,220,57709,1,8,0:0:0:0:
256,116,57940,6,0,P|220:85|156:52,1,101.999996887207,2|2,0:1|0:1,0:0:0:0:
200,220,58401,1,2,0:1:0:0:
356,168,58632,1,8,0:0:0:0:
312,324,58863,1,2,0:1:0:0:
312,324,58978,1,8,0:0:0:0:
312,324,59093,1,2,0:1:0:0:
284,220,59324,1,2,0:1:0:0:
312,324,59555,1,8,0:0:0:0:
256,116,59786,6,0,P|168:64|84:104,1,203.999993774414,4|2,0:0|0:1,0:0:0:0:
166,181,60478,1,8,0:0:0:0:
356,160,60709,6,0,P|356:56|280:4,1,203.999993774414,4|2,0:0|0:1,0:0:0:0:
256,116,61401,1,8,0:0:0:0:
364,272,61632,6,0,P|454:221|461:128,1,203.999993774414,4|2,0:0|0:1,0:0:0:0:
446,108,62209,1,2,0:1:0:0:
446,108,62324,1,8,0:0:0:0:
256,116,62555,5,8,0:0:0:0:
256,116,62670,1,8,0:0:0:0:
256,116,62786,2,0,L|205:122,1,50.9999984436036,0|8,0:0|0:0,0:0:0:0:
160,236,63016,2,0,L|210:229,1,50.9999984436036,8|0,0:0|0:0,0:0:0:0:
348,184,63247,2,0,L|400:232,1,50.9999984436036,8|8,0:0|0:0,0:0:0:0:
292,300,63478,2,0,L|243:318,1,50.9999984436036,8|8,0:0|0:0,0:0:0:0:
160,236,63709,6,0,P|128:195|96:120,1,101.999996887207,2|2,0:1|0:1,0:0:0:0:
268,204,64170,1,8,0:0:0:0:
340,80,64401,1,2,0:1:0:0:
408,228,64632,2,0,P|428:275|462:321,1,101.999996887207,2|2,0:1|0:1,0:1:0:0:
432,136,65093,1,8,0:0:0:0:
344,296,65324,1,2,0:1:0:0:
288,144,65555,6,0,P|267:97|238:55,1,101.999996887207,2|2,0:1|0:1,0:0:0:0:
220,240,66016,1,8,0:0:0:0:
400,184,66247,1,2,0:1:0:0:
400,184,66363,1,2,0:1:0:0:
400,184,66478,1,2,0:1:0:0:
288,144,66709,1,2,0:1:0:0:
416,268,66940,1,8,0:0:0:0:
476,112,67170,1,2,0:1:0:0:
308,260,67401,6,0,P|204:228|176:116,1,203.999993774414,2|8,0:0|0:0,0:0:0:0:
72,148,68093,1,2,0:1:0:0:
268,160,68324,1,2,0:1:0:0:
160,52,68555,1,2,0:1:0:0:
360,68,68786,2,0,L|476:68,1,101.999996887207,8|2,0:0|0:1,0:0:0:0:
264,196,69247,6,0,B|330:196|330:196|394:168|394:168|462:168,1,203.999993774414,2|8,0:0|0:0,0:0:0:0:
392,288,69940,1,2,0:1:0:0:
392,288,70055,1,2,0:1:0:0:
392,288,70170,1,2,0:1:0:0:
462,168,70401,1,2,0:1:0:0:
396,280,70632,1,8,0:0:0:0:
332,92,70863,1,2,0:1:0:0:
264,196,71093,5,2,0:1:0:0:
368,188,71324,1,2,0:1:0:0:
240,104,71555,1,8,0:0:0:0:
300,288,71786,1,2,0:1:0:0:
300,288,71901,1,2,0:1:0:0:
300,288,72016,2,0,P|240:292|199:273,1,101.999996887207,2|2,0:1|0:1,0:1:0:0:
64,188,72478,1,8,0:0:0:0:
44,288,72709,1,2,0:1:0:0:
14,98,72940,6,0,P|88:88|160:148,1,169.999994812012,2|0,0:0|0:1,0:0:0:0:
232,172,73401,2,0,L|304:176,1,67.9999979248048,8|0,0:0|0:0,0:0:0:0:
360,224,73632,2,0,L|324:304,1,67.9999979248048,8|0,0:0|0:0,0:0:0:0:
264,352,73863,2,0,P|253:297|230:251,1,101.999996887207,8|2,3:0|0:1,0:1:0:0:
152,328,74324,1,8,0:0:0:0:
256,168,74555,6,0,P|348:148|384:244,1,203.999993774414,4|2,0:0|0:1,0:0:0:0:
356,328,75247,1,8,0:0:0:0:
256,168,75478,6,0,P|164:148|128:244,1,203.999993774414,4|2,0:0|0:1,0:0:0:0:
152,328,76170,1,8,0:0:0:0:
356,328,76401,6,0,L|120:328,1,203.999993774414,4|8,0:0|3:0,0:0:0:0:
152,328,76978,1,2,0:1:0:0:
152,328,77093,1,4,3:0:0:0:
152,204,77324,1,2,0:1:0:0:
356,204,77555,1,4,0:2:0:0:
256,192,77786,12,0,80093,0:0:0:0:
163,152,80324,6,0,L|152:68,1,85,4|0,0:1|0:0,0:0:0:0:
72,36,80786,1,8,0:1:0:0:
89,194,81016,2,0,P|160:235|234:199,1,170,2|0,0:0|0:0,0:0:0:0:
296,72,81709,6,0,P|225:32|152:68,1,170,8|12,0:1|0:1,0:0:0:0:
223,114,82401,1,0,0:0:0:0:
352,132,82632,2,0,P|420:128|466:87,1,127.5,8|0,0:1|0:0,0:0:0:0:
386,52,83093,1,8,0:1:0:0:
468,204,83324,1,4,0:3:0:0:
296,192,83555,1,8,0:0:0:0:
296,192,84016,6,0,L|376:248,1,85,4|0,0:0|0:0,0:0:0:0:
455,165,84478,1,8,0:0:0:0:
383,293,84709,1,2,0:1:0:0:
279,180,84940,1,2,0:0:0:0:
288,353,85170,1,2,0:1:0:0:
478,342,85401,1,8,0:0:0:0:
325,94,85632,1,4,0:0:0:0:
256,192,85863,12,0,87709,0:0:0:0:
