osu file format v14

[General]
AudioFilename: Sora to Kimi no Message.mp3
AudioLeadIn: 2000
PreviewTime: 48709
Countdown: 0
SampleSet: Soft
StackLeniency: 0.7
Mode: 0
LetterboxInBreaks: 0
WidescreenStoryboard: 0

[Editor]
DistanceSpacing: 1.3
BeatDivisor: 4
GridSize: 8
TimelineZoom: 2.3

[Metadata]
Title:Sora to Kimi no Message
TitleUnicode:空とキミのメッセージ
Artist:ChouCho
ArtistUnicode:ChouCho
Creator:zj0924
Version:Hard
Source:翠星のガルガンティア
Tags:ちょうちょ Hyasalia [_Zzz_]
BeatmapID:682244
BeatmapSetID:302583

[Difficulty]
HPDrainRate:6
CircleSize:4
OverallDifficulty:6.5
ApproachRate:7.5
SliderMultiplier:1.4
SliderTickRate:1

[Events]
//Background and Video events
0,0,"BG.jpg",0,0
Video,-571,"optc.flv"
//Break Periods
//Storyboard Layer 0 (Background)
//Storyboard Layer 1 (Fail)
//Storyboard Layer 2 (Pass)
//Storyboard Layer 3 (Foreground)
//Storyboard Sound Samples

[TimingPoints]
940,461.538461538462,4,2,1,70,1,0
1632,-100,4,2,1,60,0,0
2324,-100,4,2,1,50,0,0
3016,-100,4,2,1,45,0,0
4632,-100,4,2,1,40,0,0
13863,-100,4,2,1,60,0,0
14324,-100,4,2,1,70,0,0
15709,-100,4,2,1,60,0,0
29093,-100,4,2,1,75,0,0
30247,-100,4,2,1,60,0,0
32786,-100,4,2,1,75,0,0
33016,-100,4,2,1,60,0,0
34170,-100,4,2,1,50,0,0
44555,-100,4,2,1,55,0,0
44786,-100,4,2,1,60,0,0
45016,-100,4,2,1,40,0,0
45940,-90.9090909090909,4,2,1,50,0,0
46863,-83.3333333333333,4,2,1,70,0,0
48940,-83.3333333333333,4,2,1,80,0,1
56324,-83.3333333333333,4,2,1,90,0,1
57247,-83.3333333333333,4,2,1,80,0,1
63247,-83.3333333333333,4,2,1,50,0,1
63709,-83.3333333333333,4,2,1,65,0,1
68093,-83.3333333333333,4,2,1,80,0,1
68786,-83.3333333333333,4,2,1,80,0,1
76978,-83.3333333333333,4,2,1,50,0,1
80324,-100,4,2,1,50,0,0
81709,-100,4,2,1,60,0,0
82632,-100,4,2,1,70,0,0
83093,-100,4,2,1,80,0,0
85632,-100,4,2,1,60,0,0
85863,-100,4,2,1,50,0,0
86324,-100,4,2,1,40,0,0
86786,-100,4,2,1,30,0,0
87247,-100,4,2,1,20,0,0
87709,-100,4,2,1,5,0,0

[Colours]
Combo1 : 0,225,0
Combo2 : 255,11,11
Combo3 : 47,151,255
Combo4 : 255,11,255

[HitObjects]
100,160,940,6,0,L|72:80,2,70,2|0|0,0:0|0:0|0:0,0:0:0:0:
136,252,1632,1,2,0:0:0:0:
232,248,1863,2,0,L|320:240,1,70
392,184,2324,6,0,P|428:192|480:204,2,70,2|0|0,0:0|0:0|0:0,0:0:0:0:
305,155,3016,1,2,0:0:0:0:
364,84,3247,2,0,P|387:47|408:12,1,70
296,16,3709,5,2,0:0:0:0:
228,72,3940,1,0,0:0:0:0:
140,100,4170,2,0,P|101:108|56:112,1,70
176,176,4632,5,6,0:1:0:0:
88,200,4863,2,0,P|67:224|51:270,2,70,0|8|0,0:0|0:1|0:0,0:0:0:0:
176,176,5555,2,0,P|213:181|256:176,1,70,8|0,0:1|0:0,0:0:0:0:
328,96,6016,2,0,P|291:91|248:96,1,70,8|0,0:1|0:0,0:0:0:0:
336,180,6478,6,0,L|396:236,1,70,8|0,0:1|0:0,0:0:0:0:
480,224,6940,1,8,0:1:0:0:
424,320,7170,2,0,B|352:320|352:320|300:276,1,140,2|0,0:0|0:0,0:0:0:0:
236,208,7863,1,8,0:1:0:0:
172,281,8093,1,2,0:1:0:0:
197,368,8324,5,6,0:1:0:0:
284,320,8555,2,0,B|316:304|392:344|424:320,1,140,2|0,0:0|0:0,0:0:0:0:
488,244,9247,2,0,L|500:164,1,70,8|0,0:1|0:0,0:0:0:0:
396,238,9709,2,0,L|396:168,1,70,8|0,0:1|0:0,0:0:0:0:
300,240,10170,6,0,L|289:170,1,70,8|0,0:1|0:0,0:0:0:0:
200,224,10632,1,8,0:1:0:0:
204,116,10863,2,0,P|264:68|340:80,1,140,2|0,0:0|0:0,0:0:0:0:
396,128,11555,1,2,0:0:0:0:
290,171,11786,1,2,0:1:0:0:
290,171,12016,5,2,0:1:0:0:
384,232,12247,2,0,P|420:240|464:224,2,70,0|8|0,0:0|0:1|0:0,0:0:0:0:
296,260,12940,2,0,P|296:292|280:336,1,70,8|0,0:1|0:0,0:0:0:0:
200,272,13401,2,0,P|187:301|180:344,1,70,8|0,0:1|0:0,0:0:0:0:
244,187,13863,6,0,P|256:156|260:112,1,70,12|0,0:1|0:0,0:0:0:0:
276,24,14324,1,8,0:1:0:0:
356,88,14555,1,2,0:0:0:0:
352,180,14786,2,0,P|348:214|335:247,2,70,8|0|8,0:1|0:0|0:1,0:0:0:0:
244,188,15478,1,2,0:1:0:0:
244,188,15709,6,0,P|200:196|156:184,2,70,2|0|0,3:2|0:0|0:0,0:0:0:0:
324,148,16401,1,2,0:0:0:0:
412,168,16632,2,0,L|488:200,1,70
396,256,17093,2,0,L|372:340,1,70,2|0,0:0|0:0,0:0:0:0:
304,232,17555,6,0,L|284:320,2,70,2|0|0,0:0|0:0|0:0,0:0:0:0:
324,148,18247,1,2,0:0:0:0:
404,108,18478,5,8,0:1:0:0:
404,108,18709,1,8,0:1:0:0:
404,108,18940,1,8,0:1:0:0:
336,48,19170,1,2,0:1:0:0:
252,64,19401,6,0,L|184:76,1,70,14|0,0:1|0:1,0:1:0:0:
35,122,19863,2,0,L|104:136,1,70,8|0,0:1|0:1,0:1:0:0:
32,32,20324,2,0,L|104:48,1,70,8|0,0:1|0:1,0:1:0:0:
209,141,20786,2,0,L|184:76,1,70,8|0,0:1|0:1,0:1:0:0:
292,211,21247,6,0,L|306:142,2,70,8|0|8,0:1|0:0|0:1,0:0:0:0:
384,116,21940,2,0,P|337:66|268:66,1,140,2|0,0:0|0:1,0:1:0:0:
208,140,22632,1,8,0:1:0:0:
180,232,22863,1,2,0:1:0:0:
180,232,23093,6,0,L|240:296,1,70,6|0,0:1|0:0,0:0:0:0:
340,264,23555,2,0,L|420:268,1,70,8|0,0:1|0:0,0:0:0:0:
272,188,24016,2,0,L|224:136,1,70,8|0,0:1|0:0,0:0:0:0:
368,172,24478,2,0,L|448:176,1,70,8|0,0:1|0:0,0:0:0:0:
312,96,24940,6,0,L|264:44,2,70,8|0|8,0:1|0:0|0:1,0:0:0:0:
440,176,25632,2,0,P|468:120|424:56,1,140,2|0,0:0|0:0,0:0:0:0:
348,8,26324,1,2,0:0:0:0:
312,96,26555,1,2,0:1:0:0:
234,156,26786,6,0,P|170:181|107:154,1,140,14|8,0:1|0:1,0:0:0:0:
28,100,27478,1,0,0:0:0:0:
107,154,27709,2,0,L|115:246,1,70,8|0,0:1|0:1,0:1:0:0:
22,286,28170,2,0,L|64:380,1,70,8|0,0:1|0:1,0:1:0:0:
152,316,28632,2,0,L|233:310,1,70,4|0,0:1|0:1,0:1:0:0:
105,233,29093,5,8,0:1:0:0:
204,312,29324,1,0,0:0:0:0:
280,224,29555,1,4,0:1:0:0:
204,312,29786,1,0,0:0:0:0:
316,304,30016,2,0,P|350:305|392:288,1,70,8|2,0:1|0:1,0:0:0:0:
200,236,30478,6,0,P|244:152|296:144,1,140,14|8,0:1|0:1,0:1:0:0:
281,142,31401,1,8,0:1:0:0:
364,160,31863,1,8,0:1:0:0:
408,228,32324,5,2,0:2:0:0:
408,88,32555,1,8,0:1:0:0:
281,142,32786,1,8,0:1:0:0:
281,142,33016,1,2,0:1:0:0:
281,142,33247,2,0,L|280:296,1,140,2|8,0:1|0:1,0:1:0:0:
364,220,33940,1,0,0:1:0:0:
258,302,34170,6,0,P|192:323|126:303,1,140,6|8,0:1|0:1,0:1:0:0:
284,204,34863,2,0,P|338:246|358:312,1,140,2|0,0:0|0:0,0:1:0:0:
452,252,35555,1,8,0:1:0:0:
388,160,35786,1,2,0:1:0:0:
284,204,36016,6,0,P|215:216|152:188,1,140,6|8,0:1|0:1,0:0:0:0:
321,110,36709,2,0,P|369:158|381:226,1,140,2|0,0:0|0:0,0:0:0:0:
307,309,37401,1,8,0:1:0:0:
412,332,37632,1,2,0:1:0:0:
375,227,37863,6,0,P|310:203|244:221,1,140,14|8,0:1|0:1,0:0:0:0:
168,296,38555,2,0,P|139:233|151:165,1,140,2|0,0:0|0:0,0:0:0:0:
228,94,39247,1,8,0:1:0:0:
128,60,39478,1,2,0:1:0:0:
151,165,39709,6,0,P|213:193|281:181,1,140,6|8,0:1|0:1,0:0:0:0:
358,109,40401,2,0,P|295:81|228:94,1,140,2|2,0:0|0:1,0:0:0:0:
220,200,41093,1,8,0:1:0:0:
340,216,41324,1,2,0:1:0:0:
328,336,41555,6,0,B|264:336|264:336|188:300,1,140,6|8,0:1|0:1,0:0:0:0:
112,232,42247,2,0,B|76:292|76:292|76:364,1,140,2|0,0:0|0:0,0:0:0:0:
184,324,42940,1,8,0:1:0:0:
112,232,43170,1,2,0:1:0:0:
232,232,43401,6,0,B|296:232|296:232|364:199,1,140,4|8,3:1|0:1,0:0:0:0:
404,88,44093,2,0,B|340:88|340:88|271:120,1,140,2|8,0:0|0:1,0:0:0:0:
216,216,44786,1,8,0:1:0:0:
152,124,45016,1,10,0:1:0:0:
271,119,45247,6,0,B|344:120|344:120|403:152,1,140,6|8,0:0|0:1,0:0:0:0:
316,216,45940,1,2,0:1:0:0:
273,98,46170,6,0,B|349:98|349:98|421:138,1,154.000004699707,4|8,0:0|0:1,0:0:0:0:
316,216,46863,1,2,0:1:0:0:
275,77,47093,6,0,B|359:76|359:76|428:126,1,167.999994873047,4|2,0:0|0:1,0:0:0:0:
316,216,47786,1,0,0:0:0:0:
172,164,48016,2,0,L|172:80,1,83.9999974365235,8|0,0:0|0:0,0:0:0:0:
172,80,48363,1,8,0:0:0:0:
172,80,48478,1,8,0:0:0:0:
276,168,48709,1,4,3:0:0:0:
384,80,48940,6,0,L|384:164,1,83.9999974365235,6|2,3:2|0:1,0:1:0:0:
484,204,49401,1,8,0:2:0:0:
396,268,49632,1,2,0:1:0:0:
292,232,49863,6,0,L|217:192,1,83.9999974365235,2|2,0:1|0:1,0:1:0:0:
135,261,50324,1,8,0:0:0:0:
120,153,50555,1,2,0:1:0:0:
216,100,50786,6,0,L|296:76,1,83.9999974365235,2|2,0:1|0:1,0:1:0:0:
392,128,51247,1,8,0:0:0:0:
456,40,51478,1,2,0:1:0:0:
320,24,51709,2,0,P|285:52|259:89,1,83.9999974365235,2|2,0:1|0:1,0:1:0:0:
246,247,52170,2,0,P|278:219|302:185,1,83.9999974365235,8|2,0:0|0:1,0:0:0:0:
148,92,52632,6,0,P|259:77|331:78,1,167.999994873047,2|8,0:0|0:0,0:0:0:0:
472,168,53324,2,0,P|414:110|417:28,1,167.999994873047,2|0,0:0|0:1,0:0:0:0:
304,52,54016,1,8,0:0:0:0:
304,160,54247,1,0,0:0:0:0:
144,172,54478,6,0,P|202:114|204:32,1,167.999994873047,2|8,0:0|0:0,0:0:0:0:
28,88,55170,2,0,P|32:160|56:268,1,167.999994873047,2|0,0:0|0:0,0:0:0:0:
160,276,55863,1,8,0:0:0:0:
244,192,56093,1,2,0:0:0:0:
128,168,56324,5,2,0:1:0:0:
160,276,56555,1,2,0:1:0:0:
276,292,56786,1,8,0:0:0:0:
160,276,57016,1,2,0:1:0:0:
248,184,57247,2,0,L|308:116,1,83.9999974365235,2|2,0:1|0:1,0:0:0:0:
144,72,57709,2,0,L|232:56,1,83.9999974365235,8|2,0:0|0:1,0:0:0:0:
151,166,58170,6,0,L|128:248,1,83.9999974365235,2|2,0:1|0:1,0:0:0:0:
44,200,58632,1,8,0:0:0:0:
28,308,58863,2,0,L|48:360,2,41.9999987182618,2|8|2,0:1|0:0|0:1,0:0:0:0:
44,200,59324,1,2,0:1:0:0:
144,240,59555,1,8,0:0:0:0:
96,88,59786,6,0,P|176:80|236:136,1,167.999994873047,4|0,0:0|3:0,0:0:0:0:
346,93,60478,1,8,0:0:0:0:
208,160,60709,6,0,P|187:238|235:304,1,167.999994873047,4|0,0:0|3:0,0:0:0:0:
323,344,61401,1,8,0:0:0:0:
284,220,61632,6,0,B|225:209|174:253|113:239,1,167.999994873047,4|0,0:0|3:0,0:0:0:0:
40,148,62324,1,8,0:0:0:0:
92,260,62555,1,4,0:3:0:0:
160,156,62786,1,8,0:0:0:0:
92,260,63016,2,0,L|120:308,2,41.9999987182618,0|0|8,3:0|3:0|0:0,0:0:0:0:
40,148,63478,1,0,3:0:0:0:
92,260,63709,6,0,P|168:297|248:263,1,167.999994873047,6|8,3:2|0:0,0:0:0:0:
448,167,64632,2,0,P|413:195|385:227,1,83.9999974365235,2|0,0:1|3:0,0:0:0:0:
293,166,65093,1,8,0:0:0:0:
294,285,65324,1,2,0:1:0:0:
408,256,65555,6,0,L|492:265,1,83.9999974365235,2|0,0:1|3:0,0:0:0:0:
483,147,66016,1,8,0:0:0:0:
375,97,66247,1,0,3:0:0:0:
287,184,66478,2,0,P|239:189|201:172,1,83.9999974365235,2|2,0:1|0:1,0:0:0:0:
158,76,66940,2,0,P|206:70|245:87,1,83.9999974365235,8|0,0:0|0:0,0:0:0:0:
406,204,67401,6,0,P|426:125|360:61,1,167.999994873047,2|8,0:0|0:0,0:0:0:0:
207,176,68093,2,0,P|278:208|331:150,1,167.999994873047,2|0,0:0|0:0,0:0:0:0:
360,52,68786,1,8,0:0:0:0:
413,137,69016,1,0,0:0:0:0:
273,73,69247,6,0,P|191:68|141:145,1,167.999994873047,2|8,0:0|0:0,0:0:0:0:
284,274,69939,2,0,P|302:197|234:157,1,167.999994873047,2|0,0:0|0:0,0:0:0:0:
156,220,70632,1,8,0:0:0:0:
72,164,70863,1,0,0:0:0:0:
60,268,71093,5,2,0:1:0:0:
156,220,71324,1,2,0:1:0:0:
188,316,71555,1,8,0:2:0:0:
156,220,71786,1,2,0:1:0:0:
256,228,72016,2,0,L|368:224,1,83.9999974365235,2|2,0:1|0:1,0:0:0:0:
436,260,72478,2,0,P|416:288|392:356,1,83.9999974365235,8|2,0:0|0:1,0:0:0:0:
312,212,72940,6,0,P|353:145|428:92,1,167.999994873047,2|8,0:0|0:0,0:0:0:0:
196,211,73863,1,8,3:0:0:0:
114,142,74093,1,4,3:0:0:0:
220,119,74324,1,8,0:2:0:0:
87,230,74555,6,0,P|82:327|163:347,1,167.999994873047,4|2,0:0|0:1,0:0:0:0:
248,312,75247,1,8,0:0:0:0:
196,211,75478,6,0,P|240:145|318:162,1,167.999994873047,4|2,0:0|0:1,0:0:0:0:
361,266,76170,1,8,0:0:0:0:
476,240,76401,6,0,P|504:166|447:111,1,167.999994873047,4|8,0:0|3:0,0:0:0:0:
434,106,76978,1,2,0:1:0:0:
434,106,77093,1,4,0:3:0:0:
373,323,77555,1,4,0:2:0:0:
256,192,77786,12,4,80324,0:1:0:0:
148,128,80786,5,8,0:1:0:0:
172,228,81016,2,0,P|251:236|332:248,1,140,2|0,0:0|0:1,0:1:0:0:
446,167,81709,2,0,P|419:224|394:299,1,140,8|12,0:1|0:1,0:1:0:0:
388,313,82632,5,8,0:1:0:0:
251,345,83093,1,8,0:1:0:0:
219,193,83555,1,8,0:0:0:0:
384,113,84016,6,0,P|368:141|324:246,1,140,4|8,0:0|0:0,0:0:0:0:
248,181,84709,1,2,0:1:0:0:
241,275,84940,2,0,L|253:367,2,70,2|2|8,0:0|0:1|0:0,0:0:0:0:
143,246,85632,1,4,0:0:0:0:
256,192,85863,12,0,87709,0:0:0:0:
