osu file format v14

[General]
AudioFilename: Sora to Kimi no Message.mp3
AudioLeadIn: 2000
PreviewTime: 48709
Countdown: 0
SampleSet: Soft
StackLeniency: 0.7
Mode: 0
LetterboxInBreaks: 0
WidescreenStoryboard: 0

[Editor]
DistanceSpacing: 1.2
BeatDivisor: 4
GridSize: 4
TimelineZoom: 2.3

[Metadata]
Title:Sora to Kimi no Message
TitleUnicode:空とキミのメッセージ
Artist:ChouCho
ArtistUnicode:ChouCho
Creator:zj0924
Version:Easy
Source:翠星のガルガンティア
Tags:ちょうちょ Hyasalia [_Zzz_]
BeatmapID:681429
BeatmapSetID:302583

[Difficulty]
HPDrainRate:3
CircleSize:3
OverallDifficulty:2
ApproachRate:3
SliderMultiplier:0.8
SliderTickRate:1

[Events]
//Background and Video events
0,0,"BG.jpg",0,0
Video,-571,"optc.flv"
//Break Periods
//Storyboard Layer 0 (Background)
//Storyboard Layer 1 (Fail)
//Storyboard Layer 2 (Pass)
//Storyboard Layer 3 (Foreground)
//Storyboard Sound Samples

[TimingPoints]
940,461.538461538462,4,2,1,60,1,0
1401,-100,4,2,1,35,0,0
1632,-100,4,2,1,50,0,0
1863,-100,4,2,1,35,0,0
2324,-100,4,2,1,40,0,0
2786,-100,4,2,1,50,0,0
3247,-100,4,2,1,25,0,0
3478,-100,4,2,1,40,0,0
3709,-100,4,2,1,25,0,0
4170,-100,4,2,1,40,0,0
4632,-100,4,1,1,40,0,0
7170,-100,4,1,1,30,0,0
7863,-100,4,1,1,40,0,0
13863,-100,4,1,1,60,0,0
14324,-100,4,1,1,70,0,0
15709,-100,4,1,1,60,0,0
29093,-100,4,1,1,75,0,0
30247,-100,4,1,1,60,0,0
32786,-100,4,1,1,75,0,0
33016,-100,4,1,1,60,0,0
34170,-100,4,1,1,50,0,0
38786,-100,4,1,1,50,0,0
45247,-100,4,1,1,40,0,0
46170,-100,4,1,1,50,0,0
47093,-100,4,2,1,60,0,0
48940,-100,4,2,1,80,0,1
53324,-100,4,2,1,60,0,1
53555,-100,4,1,1,20,0,1
54016,-100,4,2,1,80,0,1
55170,-100,4,2,1,60,0,1
55401,-100,4,1,1,20,0,1
55863,-100,4,2,1,90,0,1
57247,-100,4,2,1,80,0,1
59786,-100,4,2,1,60,0,1
61863,-100,4,1,1,20,0,1
62786,-100,4,2,1,60,0,1
63709,-100,4,2,1,65,0,1
68093,-100,4,2,1,60,0,1
68324,-100,4,1,1,20,0,1
68786,-100,4,2,1,80,0,1
69940,-100,4,2,1,60,0,1
70170,-100,4,1,1,20,0,1
70632,-100,4,2,1,80,0,1
71093,-100,4,2,1,50,0,1
71555,-100,4,2,1,80,0,1
74093,-100,4,2,1,40,0,1
74555,-100,4,2,1,80,0,1
76863,-100,4,2,1,25,0,1
77093,-100,4,2,1,80,0,1
77555,-100,4,2,1,40,0,1
80324,-100,4,1,1,50,0,0
81709,-100,4,1,1,60,0,0
82632,-100,4,1,1,70,0,0
83093,-100,4,1,1,60,0,0
84016,-100,4,2,1,60,0,0
85632,-100,4,2,1,60,0,0
85863,-100,4,2,1,50,0,0
86324,-100,4,2,1,40,0,0
86786,-100,4,2,1,30,0,0
87247,-100,4,2,1,20,0,0
87709,-100,4,2,1,5,0,0

[Colours]
Combo1 : 0,225,0
Combo2 : 255,11,11
Combo3 : 47,151,255
Combo4 : 255,11,255

[HitObjects]
72,80,940,6,0,P|132:52|184:72,2,120,2|2|2,0:0|0:0|0:0,1:0:0:0:
84,176,2786,2,0,P|140:192|191:164,2,120,2|2|2,0:0|0:0|0:0,1:0:0:0:
72,80,4632,6,0,L|232:56,1,160,10|8,0:0|0:0,0:0:0:0:
316,100,6016,1,8,0:1:0:0:
412,96,6478,2,0,L|488:204,2,120,8|2|8,0:0|2:0|0:0,0:0:0:0:
336,40,8324,6,0,L|284:200,1,160,6|8,0:0|0:0,0:0:0:0:
260,284,9709,1,8,0:0:0:0:
164,280,10170,2,8,L|48:216,2,120,8|2|2,0:0|0:2|0:2,0:0:0:0:
260,284,12016,6,0,P|324:196|298:153,1,160,8|8,0:0|0:0,0:0:0:0:
217,127,13401,2,0,P|186:101|166:67,2,80,8|4|8,0:0|0:0|0:0,0:0:0:0:
307,163,14786,2,0,P|337:188|357:222,2,80,8|8|10,0:0|0:0|0:0,0:0:0:0:
116,156,16632,5,8,0:0:0:0:
180,336,17555,1,8,0:0:0:0:
332,216,18478,2,0,P|358:186|366:148,1,80,8|8,0:0|0:0,0:0:0:0:
288,97,19401,6,0,P|353:55|432:82,1,160,14|8,0:0|0:0,0:0:0:0:
472,164,20786,2,0,P|469:198|466:256,1,80,8|8,0:0|0:0,0:0:0:0:
428,332,21709,2,0,P|386:340|335:339,1,80,8|8,0:0|0:0,0:0:0:0:
252,340,22632,1,8,0:0:0:0:
172,288,23093,6,0,P|243:247|320:274,1,160,14|8,0:0|0:0,0:0:0:0:
404,292,24478,2,0,P|404:244|384:200,1,80,8|8,0:0|0:0,0:0:0:0:
336,136,25401,2,0,P|376:128|424:112,1,80,8|8,0:0|0:0,0:0:0:0:
492,60,26324,1,8,0:0:0:0:
404,20,26786,6,0,P|328:16|256:80,1,160,14|8,0:0|0:0,0:0:0:0:
216,148,28170,1,8,0:0:0:0:
164,68,28632,2,0,P|136:36|84:20,2,80,12|8|12,0:0|0:0|0:0,0:0:0:0:
216,148,30016,1,8,0:0:0:0:
260,232,30478,6,0,P|332:244|396:180,1,160,14|8,0:0|0:0,0:0:0:0:
504,32,32324,2,0,L|420:44,1,80,2|8,2:0|0:0,0:0:0:0:
358,113,33247,2,0,L|446:145,1,80,2|8,0:0|0:0,0:0:0:0:
432,236,34170,6,0,B|359:263|348:215|265:239,1,160,14|8,0:0|0:0,0:0:0:0:
196,293,35555,1,8,0:0:0:0:
111,337,36016,2,0,B|84:264|132:253|108:170,1,160,14|8,0:0|0:0,0:0:0:0:
88,86,37401,1,8,0:0:0:0:
180,56,37863,6,0,P|240:44|312:60,2,120,14|2|14,0:0|2:0|0:0,0:0:0:0:
88,88,39709,2,0,P|44:156|56:240,1,160,14|8,0:0|0:0,0:0:0:0:
244,252,41555,6,0,B|311:273|361:242|361:242|394:261,1,160,14|8,0:0|0:0,0:0:0:0:
239,147,43401,2,0,B|172:126|122:157|122:157|89:136,1,160,14|8,0:0|0:0,0:0:0:0:
248,24,45247,6,0,B|320:60|320:60|328:152,2,160,4|4|4,2:0|2:0|2:0,1:0:0:0:
244,216,48016,2,0,B|172:180|172:180|165:100,1,160,8|4,0:0|3:2,0:0:0:0:
220,22,49401,5,8,0:0:0:0:
304,69,49863,2,0,L|388:50,2,80,2|8|2,1:0|0:0|0:1,0:0:0:0:
352,151,51247,2,0,L|432:132,1,80,8|2,0:0|0:1,0:0:0:0:
460,225,52170,1,8,0:0:0:0:
398,298,52632,6,0,P|338:314|282:294,2,120,2|2|8,0:1|0:0|0:0,0:0:0:0:
460,225,54478,2,0,P|479:168|462:111,2,120,2|2|8,0:1|0:0|0:0,0:0:0:0:
381,168,56324,6,0,P|301:152|221:168,1,160,2|2,0:1|0:1,0:0:0:0:
152,232,57709,1,8,0:0:0:0:
60,204,58170,2,0,B|32:128|64:77|64:77|58:47,1,160,2|2,0:1|0:1,0:1:0:0:
204,40,59786,6,0,L|260:124,1,80,6|2,1:2|0:1,0:0:0:0:
341,82,60709,2,0,L|346:161,1,80,4|2,0:0|0:1,0:0:0:0:
396,243,61632,2,0,B|336:269|288:235|288:235|241:247|209:290,1,200,4|2,0:0|1:0,1:0:0:0:
151,351,63247,1,8,0:0:0:0:
68,304,63709,6,0,L|48:220,1,80,4|8,3:2|0:0,0:0:0:0:
144,224,64632,2,0,L|128:136,1,80,2|8,0:1|0:0,0:0:0:0:
224,164,65555,2,0,L|220:72,2,80,2|8|2,0:1|0:0|0:1,0:0:0:0:
244,256,66940,1,8,0:0:0:0:
328,300,67401,6,0,B|380:286|365:233|416:215,2,120,2|2|8,0:1|0:0|0:0,0:0:0:0:
244,256,69247,2,0,B|230:203|283:190|274:143,2,120,2|2|8,0:1|0:0|0:0,0:0:0:0:
204,344,71093,6,0,P|160:304|148:280,1,80,4|8,3:2|0:0,0:0:0:0:
80,220,72016,2,0,P|62:255|56:295,2,80,2|8|2,0:1|0:0|0:1,0:0:0:0:
168,180,73401,2,0,P|213:193|250:216,1,80,8|8,0:0|3:0,1:0:0:0:
368,140,74555,6,0,L|444:172,1,80,4|0,0:0|3:2,0:0:0:0:
384,248,75478,2,0,L|436:316,1,80,4|0,0:0|3:2,0:0:0:0:
344,348,76401,2,0,L|236:292,1,120,4|4,0:0|0:3,1:0:0:0:
256,192,77555,12,14,80324,0:1:0:0:
118,103,81247,6,0,L|206:99,1,80,8|8,0:0|0:0,0:0:0:0:
274,159,82170,2,0,L|354:187,1,80,8|8,0:0|0:0,0:0:0:0:
410,263,83093,1,8,0:0:0:0:
410,359,83555,1,8,0:2:0:0:
314,351,84016,6,0,P|266:343|234:319,1,80,4|8,0:2|0:0,0:0:0:0:
202,239,84940,2,0,B|171:238|151:266|151:266|123:246|93:260,1,120,2|4,0:0|0:0,0:0:0:0:
256,192,85863,12,0,87709,0:0:0:0:
