osu file format v14

[General]
AudioFilename: Niji no Asa ni.mp3
AudioLeadIn: 2000
PreviewTime: 183686
Countdown: 0
SampleSet: Soft
StackLeniency: 0.7
Mode: 0
LetterboxInBreaks: 0
WidescreenStoryboard: 1

[Editor]
DistanceSpacing: 1.7
BeatDivisor: 4
GridSize: 8
TimelineZoom: 2.599999

[Metadata]
Title:Niji no Asa ni
TitleUnicode:Niji no Asa ni
Artist:ChouCho
ArtistUnicode:ChouCho
Creator:-Alne-
Version:Extra
Source:Mashiro Iro Symphony -The color of lovers-
Tags:
BeatmapID:772790
BeatmapSetID:350304

[Difficulty]
HPDrainRate:6
CircleSize:4
OverallDifficulty:7
ApproachRate:9.3
SliderMultiplier:1.7
SliderTickRate:1

[Events]
//Background and Video events
0,0,"Mashiro.Iro.Symphony.full.253912.jpg",0,0
//Break Periods
2,88685,93732
2,170286,182732
//Storyboard Layer 0 (Background)
//Storyboard Layer 1 (Fail)
//Storyboard Layer 2 (Pass)
//Storyboard Layer 3 (Foreground)
//Storyboard Sound Samples

[TimingPoints]
486,400,4,2,1,20,1,0
10886,-100,4,2,1,30,0,0
11686,-100,4,2,1,40,0,0
13286,-100,4,2,1,50,0,0
61286,-100,4,2,1,75,0,1
88486,-100,4,2,1,75,0,0
99486,-100,4,2,1,60,0,0
100886,-100,4,2,1,30,0,0
101286,-100,4,2,1,50,0,0
142886,-100,4,2,1,75,0,1
168986,-100,4,2,1,45,0,1
170086,-100,4,2,1,60,0,0
177786,-100,4,2,1,45,0,0
178586,-100,4,2,1,60,0,0
182986,-100,4,2,1,5,0,0
183186,-100,4,2,1,20,0,0
183286,-100,4,2,1,20,0,0
190886,-100,4,2,1,40,0,0
193886,-100,4,2,1,55,0,0
195686,-100,4,2,1,65,0,0
211686,-100,4,2,1,70,0,0
237286,-100,4,2,1,35,0,0
243486,-100,4,2,1,10,0,0

[Colours]
Combo1 : 135,60,236
Combo2 : 255,255,128

[HitObjects]
213,59,486,6,0,B|408:88|272:296|272:296|144:144,1,510,0|8,0:0|0:0,0:0:0:0:
240,104,2086,6,0,B|312:120|144:64|344:160|248:56|584:360|456:72|240:368|88:120,1,510,0|8,0:0|0:0,0:0:0:0:
280,88,3686,6,0,B|559:110|128:216|80:232|135:286|192:304|287:270|368:280|288:328,1,510,0|8,0:0|0:0,0:0:0:0:
160,136,5286,6,0,B|456:360|448:64|256:72|376:168|104:160|168:240,1,510
176,128,6886,6,0,B|176:360|376:288|448:16|-24:80|64:128|88:208,1,510
116,82,8486,6,0,B|24:72|32:224|56:272|32:288|96:336|392:104|88:176,1,510
352,192,10086,6,0,B|280:168|376:256|24:176|320:40|352:48|400:64|440:96|312:320,1,510
136,160,11686,6,0,P|224:128|304:176,1,170
288,64,12286,1,0,0:0:0:0:
352,96,12486,2,0,L|392:136,1,42.5
288,232,12786,2,0,L|256:200,3,42.5
168,128,13286,6,0,P|120:216|128:232,1,127.5
144,312,13686,2,0,P|232:344|248:360,1,85
392,240,14086,1,0,0:0:0:0:
312,128,14286,1,0,0:0:0:0:
112,208,14486,6,0,L|27:208,1,85
176,104,14886,1,0,0:0:0:0:
224,256,15086,1,0,0:0:0:0:
48,248,15286,1,0,0:0:0:0:
240,168,15486,1,0,0:0:0:0:
392,192,15686,2,0,L|440:304,1,85
144,160,16086,5,0,0:0:0:0:
272,72,16286,2,0,P|352:80|368:64,1,85
416,224,16686,2,0,P|384:256|416:280,1,85
248,304,17086,1,0,0:0:0:0:
144,240,17286,5,0,0:0:0:0:
136,232,17386,1,0,0:0:0:0:
128,224,17486,1,0,0:0:0:0:
120,216,17586,1,0,0:0:0:0:
112,208,17686,1,0,0:0:0:0:
232,104,17886,5,0,0:0:0:0:
352,144,18086,2,0,P|368:208|360:224,1,85
232,224,18486,1,0,0:0:0:0:
144,144,18686,2,0,P|200:112|208:72,1,85
200,296,19086,5,0,0:0:0:0:
336,224,19286,1,0,0:0:0:0:
336,184,19386,1,0,0:0:0:0:
336,144,19486,1,0,0:0:0:0:
216,88,19686,6,0,L|216:192,1,85
104,128,20086,1,0,0:0:0:0:
200,248,20286,1,0,0:0:0:0:
64,240,20486,2,0,L|136:184,1,85
312,256,20886,1,0,0:0:0:0:
256,136,21086,1,0,0:0:0:0:
376,136,21286,6,0,L|405:56,1,85
144,96,21686,1,0,0:0:0:0:
224,280,21886,1,0,0:0:0:0:
160,176,22086,1,0,0:0:0:0:
328,168,22286,2,0,P|312:224|272:240,1,85
80,232,22686,1,0,0:0:0:0:
240,112,22886,6,0,P|304:160|336:160,1,85
224,216,23286,1,0,0:0:0:0:
128,88,23486,1,0,0:0:0:0:
352,120,23686,1,0,0:0:0:0:
320,240,23886,1,0,0:0:0:0:
272,104,24086,2,0,P|230:104|200:75,1,85
184,288,24486,5,0,0:0:0:0:
424,200,24686,1,0,0:0:0:0:
264,192,24886,2,0,L|176:152,1,85
304,296,25286,1,0,0:0:0:0:
320,296,25386,1,0,0:0:0:0:
336,296,25486,1,0,0:0:0:0:
360,208,25686,1,0,0:0:0:0:
272,112,25886,2,0,P|229:114|184:104,1,85
56,56,26286,5,0,0:0:0:0:
72,240,26486,1,0,0:0:0:0:
264,200,26686,1,0,0:0:0:0:
184,296,26886,1,0,0:0:0:0:
61,183,27086,2,0,L|32:104,1,85
128,96,27486,1,0,0:0:0:0:
122,255,27686,6,0,L|96:336,1,85
208,144,28086,1,0,0:0:0:0:
312,272,28286,1,0,0:0:0:0:
24,136,28486,2,0,P|104:176|120:192,1,85
64,296,28886,1,0,0:0:0:0:
224,336,29086,1,0,0:0:0:0:
176,176,29286,6,0,L|272:248,1,85
56,112,29686,1,0,0:0:0:0:
280,144,29886,2,0,L|280:229,1,85
136,120,30286,1,0,0:0:0:0:
16,224,30486,1,0,0:0:0:0:
136,248,30686,6,0,L|256:288,1,85
360,184,31086,1,0,0:0:0:0:
296,296,31286,1,0,0:0:0:0:
216,208,31486,2,0,L|128:168,1,85
112,152,31786,1,0,0:0:0:0:
136,128,31886,1,0,0:0:0:0:
296,144,32086,1,0,0:0:0:0:
224,64,32286,1,0,0:0:0:0:
176,176,32486,1,0,0:0:0:0:
408,88,32686,5,0,0:0:0:0:
320,232,32886,2,0,P|342:267|340:309,1,85
112,256,33286,1,0,0:0:0:0:
272,256,33486,1,0,0:0:0:0:
256,122,33686,2,0,P|271:82|304:56,1,85
104,64,34086,5,0,0:0:0:0:
360,176,34286,1,0,0:0:0:0:
216,200,34486,1,0,0:0:0:0:
312,32,34686,1,0,0:0:0:0:
113,91,34886,2,0,P|81:64|40:64,1,85
56,200,35286,1,0,0:0:0:0:
280,128,35486,1,0,0:0:0:0:
152,80,35686,6,0,L|216:136,1,85
160,272,36086,1,0,0:0:0:0:
64,144,36286,1,0,0:0:0:0:
272,48,36486,1,0,0:0:0:0:
304,184,36686,2,0,P|342:193|341:232,1,85
208,328,37086,1,0,0:0:0:0:
368,304,37286,1,0,0:0:0:0:
232,232,37486,6,0,L|136:224,1,85
184,128,37886,1,0,0:0:0:0:
96,192,38086,1,0,0:0:0:0:
104,168,38186,1,0,0:0:0:0:
112,144,38286,1,0,0:0:0:0:
240,176,38486,2,0,L|344:200,1,85
408,328,38886,1,0,0:0:0:0:
424,152,39086,5,0,0:0:0:0:
304,136,39286,1,0,0:0:0:0:
376,232,39486,2,0,P|344:264|296:272,1,85
168,272,39886,1,0,0:0:0:0:
64,152,40086,1,0,0:0:0:0:
224,192,40286,2,0,P|265:195|304:178,1,85
240,96,40686,5,0,0:0:0:0:
136,192,40886,2,0,B|56:288|80:264,1,85
352,168,41286,1,0,0:0:0:0:
272,296,41486,1,0,0:0:0:0:
456,232,41686,1,0,0:0:0:0:
280,192,41886,2,0,L|208:136,1,85
80,184,42286,5,0,0:0:0:0:
176,64,42486,1,0,0:0:0:0:
336,80,42686,1,0,0:0:0:0:
368,240,42886,2,0,L|283:246,1,85
112,272,43286,1,0,0:0:0:0:
96,248,43386,1,0,0:0:0:0:
80,224,43486,1,0,0:0:0:0:
216,136,43686,2,0,L|160:72,1,85
184,232,44086,6,0,P|218:211|252:232,1,85
368,120,44486,1,0,0:0:0:0:
216,320,44686,1,0,0:0:0:0:
200,296,44786,1,0,0:0:0:0:
184,272,44886,1,0,0:0:0:0:
168,248,44986,1,0,0:0:0:0:
152,224,45086,1,0,0:0:0:0:
264,144,45286,2,0,P|251:104|215:83,1,85
56,160,45686,6,0,L|40:64,1,85
176,56,46086,1,0,0:0:0:0:
328,176,46286,1,0,0:0:0:0:
424,80,46486,2,0,L|496:24,1,85
488,144,46886,5,0,0:0:0:0:
264,248,47086,1,0,0:0:0:0:
448,272,47286,2,0,P|424:224|432:224,1,85
232,120,47686,1,0,0:0:0:0:
80,184,47886,2,0,L|109:263,1,85
336,144,48286,5,0,0:0:0:0:
328,304,48486,1,0,0:0:0:0:
152,232,48686,2,0,P|176:200|240:208,1,85
408,216,49086,1,0,0:0:0:0:
232,80,49286,1,0,0:0:0:0:
216,264,49486,2,0,P|207:304|176:333,1,85
0,304,49886,5,0,0:0:0:0:
120,160,50086,1,0,0:0:0:0:
334,219,50286,2,0,L|384:288,1,85
214,124,50686,2,0,L|176:48,1,85
384,128,51086,5,0,0:0:0:0:
280,272,51286,1,0,0:0:0:0:
104,192,51486,6,0,P|128:232|192:256,1,85
296,152,51886,1,0,0:0:0:0:
176,256,52086,1,0,0:0:0:0:
48,264,52286,6,0,P|80:320|120:304,1,85
192,144,52686,1,0,0:0:0:0:
296,272,52886,1,0,0:0:0:0:
368,176,53086,2,0,P|393:144|377:106,1,85
240,56,53486,5,0,0:0:0:0:
143,238,53686,2,0,P|114:215|96:248,1,85
56,120,54086,1,0,0:0:0:0:
64,288,54286,1,0,0:0:0:0:
336,216,54486,6,0,P|345:175|334:134,1,85
192,112,54886,1,0,0:0:0:0:
256,272,55086,1,0,0:0:0:0:
304,96,55286,1,0,0:0:0:0:
192,208,55486,1,0,0:0:0:0:
392,160,55686,1,0,0:0:0:0:
184,280,55886,2,0,P|158:312|165:353,1,85
368,320,56286,5,0,0:0:0:0:
288,176,56486,1,0,0:0:0:0:
124,37,56686,2,0,P|131:79|120:120,1,85
72,216,57086,1,0,0:0:0:0:
96,192,57186,1,0,0:0:0:0:
120,168,57286,1,0,0:0:0:0:
216,208,57486,5,0,0:0:0:0:
320,72,57686,1,0,0:0:0:0:
144,48,57886,2,0,P|88:96|104:112,1,85
144,272,58286,1,0,0:0:0:0:
320,224,58486,1,0,0:0:0:0:
152,152,58686,6,0,L|256:216,1,85
296,304,59086,1,0,0:0:0:0:
296,272,59186,1,0,0:0:0:0:
296,240,59286,1,0,0:0:0:0:
208,200,59486,1,0,0:0:0:0:
272,72,59686,1,0,0:0:0:0:
128,80,59886,5,0,0:0:0:0:
256,144,60086,1,0,0:0:0:0:
112,192,60286,1,0,0:0:0:0:
424,64,60486,2,0,L|416:160,1,85
376,168,60786,1,0,0:0:0:0:
352,184,60886,1,0,0:0:0:0:
328,200,60986,1,0,0:0:0:0:
272,192,61086,2,0,L|219:259,1,85
64,56,61486,5,0,0:0:0:0:
288,360,61686,1,0,0:0:0:0:
456,56,61886,1,0,0:0:0:0:
104,264,62086,2,0,L|176:208,1,85
320,48,62486,5,0,0:0:0:0:
464,360,62686,2,0,L|408:288,1,85
40,72,63086,1,0,0:0:0:0:
472,208,63286,1,0,0:0:0:0:
72,336,63486,5,0,0:0:0:0:
240,56,63686,1,0,0:0:0:0:
152,200,63886,2,0,P|104:176|88:144,1,85
424,160,64286,1,0,0:0:0:0:
48,48,64486,2,0,L|88:152,1,85
456,352,64886,5,0,0:0:0:0:
56,192,65086,1,0,0:0:0:0:
408,40,65286,2,0,L|448:128,1,85
224,344,65686,1,0,0:0:0:0:
120,128,65886,5,0,0:0:0:0:
336,256,66086,1,0,0:0:0:0:
96,288,66286,1,0,0:0:0:0:
336,72,66486,5,0,0:0:0:0:
456,192,66686,2,0,L|336:160,1,85
184,320,67086,1,0,0:0:0:0:
112,48,67286,2,0,L|216:96,1,85
56,312,67686,1,0,0:0:0:0:
472,56,67886,5,0,0:0:0:0:
56,168,68086,1,0,0:0:0:0:
432,336,68286,2,0,P|416:288|416:240,1,85
216,40,68686,1,0,0:0:0:0:
152,336,68886,5,0,0:0:0:0:
368,64,69086,2,0,P|360:104|400:128,1,85
48,80,69486,1,0,0:0:0:0:
472,352,69686,2,0,P|432:312|432:264,1,85
56,224,70086,1,0,0:0:0:0:
464,40,70286,1,0,0:0:0:0:
264,336,70486,6,0,P|256:288|288:280,1,85
160,96,70886,1,0,0:0:0:0:
440,168,71086,1,0,0:0:0:0:
304,48,71286,2,0,P|240:16|240:8,1,85
64,296,71686,1,0,0:0:0:0:
48,56,71886,5,0,0:0:0:0:
432,288,72086,1,0,0:0:0:0:
80,184,72286,1,0,0:0:0:0:
424,48,72486,2,0,L|384:144,1,85
216,336,72886,1,0,0:0:0:0:
216,48,73086,1,0,0:0:0:0:
464,208,73286,5,0,0:0:0:0:
336,48,73486,2,0,L|360:136,1,85
184,216,73886,1,0,0:0:0:0:
232,192,73986,1,0,0:0:0:0:
272,168,74086,1,0,0:0:0:0:
424,288,74286,5,0,0:0:0:0:
88,128,74486,2,0,L|184:88,1,85
128,336,74886,1,0,0:0:0:0:
72,152,75086,1,0,0:0:0:0:
320,336,75286,1,0,0:0:0:0:
248,208,75486,2,0,L|176:280,1,85
40,344,75886,5,0,0:0:0:0:
256,40,76086,1,0,0:0:0:0:
472,344,76286,1,0,0:0:0:0:
48,136,76486,1,0,0:0:0:0:
464,136,76686,1,0,0:0:0:0:
256,352,76886,1,0,0:0:0:0:
176,240,77086,6,0,L|248:168,1,85
416,32,77486,1,0,0:0:0:0:
432,304,77686,1,0,0:0:0:0:
118,85,77886,2,0,P|82:64|40:64,1,85
96,320,78286,1,0,0:0:0:0:
336,80,78486,5,0,0:0:0:0:
88,192,78686,2,0,L|176:136,1,85
384,224,79086,1,0,0:0:0:0:
32,16,79286,1,0,0:0:0:0:
432,360,79486,1,0,0:0:0:0:
424,40,79686,6,0,L|344:128,1,85
240,312,80086,1,0,0:0:0:0:
72,88,80286,1,0,0:0:0:0:
376,256,80486,2,0,L|320:176,1,85
80,352,80886,1,0,0:0:0:0:
304,56,81086,6,0,L|408:32,1,85
448,352,81486,1,0,0:0:0:0:
176,192,81686,1,0,0:0:0:0:
416,192,81886,1,0,0:0:0:0:
80,40,82086,2,0,P|88:104|104:128,1,85
416,48,82486,6,0,P|424:104|376:112,1,85
192,336,82886,1,0,0:0:0:0:
184,64,83086,1,0,0:0:0:0:
56,192,83286,2,0,L|160:200,1,85
480,136,83686,1,0,0:0:0:0:
48,64,83886,5,0,0:0:0:0:
352,312,84086,1,0,0:0:0:0:
288,32,84286,2,0,P|328:104|320:112,1,85
96,336,84686,1,0,0:0:0:0:
144,288,84786,1,0,0:0:0:0:
192,240,84886,1,0,0:0:0:0:
376,152,85086,5,0,0:0:0:0:
216,328,85286,1,0,0:0:0:0:
160,56,85486,2,0,L|88:120,1,85
256,192,85886,12,0,87686,0:0:0:0:
168,80,87886,6,0,P|256:128|144:200,1,255
400,104,94286,5,0,0:0:0:0:
336,200,94486,1,0,0:0:0:0:
160,192,94886,2,0,P|178:154|178:111,1,85
280,64,95286,5,0,0:0:0:0:
280,192,95486,2,0,L|264:288,1,85
144,264,95886,1,0,0:0:0:0:
288,360,96086,1,0,0:0:0:0:
380,285,96286,2,0,P|408:256|400:216,1,85
304,104,96686,1,0,0:0:0:0:
328,232,96886,5,0,0:0:0:0:
240,176,97086,2,0,P|192:152|152:176,1,85
64,224,97486,1,0,0:0:0:0:
120,56,97686,2,0,L|181:117,1,85
120,168,98086,1,0,0:0:0:0:
176,224,98286,5,0,0:0:0:0:
296,176,98486,1,0,0:0:0:0:
231,337,98686,2,0,P|240:298|280:288,1,85
376,304,99086,1,0,0:0:0:0:
392,304,99186,1,0,0:0:0:0:
408,304,99286,1,0,0:0:0:0:
368,216,99486,1,0,0:0:0:0:
224,144,99686,6,0,P|193:115|189:74,1,85
312,80,100086,1,0,0:0:0:0:
224,240,100286,2,0,P|237:279|272:303,1,85
320,192,100686,5,0,0:0:0:0:
208,208,100886,1,0,0:0:0:0:
120,144,101086,2,0,P|176:88|208:96,1,85
328,104,101486,1,0,0:0:0:0:
136,248,101686,5,0,0:0:0:0:
208,128,101886,1,0,0:0:0:0:
288,296,102086,2,0,L|352:224,1,85
192,184,102486,1,0,0:0:0:0:
288,120,102686,5,0,0:0:0:0:
376,224,102886,1,0,0:0:0:0:
216,192,103086,2,0,P|178:174|166:134,1,85
208,56,103486,1,0,0:0:0:0:
112,152,103686,2,0,L|32:88,1,85
152,40,104086,1,0,0:0:0:0:
136,208,104286,5,0,0:0:0:0:
264,280,104486,1,0,0:0:0:0:
304,168,104686,2,0,P|342:150|374:122,1,85
200,112,105086,1,0,0:0:0:0:
336,240,105286,1,0,0:0:0:0:
392,152,105486,6,0,P|407:113|446:99,1,85
448,240,105886,1,0,0:0:0:0:
284,100,106086,2,0,L|224:40,1,85
136,24,106486,1,0,0:0:0:0:
64,80,106686,1,0,0:0:0:0:
80,96,106786,1,0,0:0:0:0:
96,112,106886,1,0,0:0:0:0:
112,128,106986,1,0,0:0:0:0:
128,144,107086,1,0,0:0:0:0:
104,256,107286,5,0,0:0:0:0:
192,192,107486,2,0,P|240:176|240:216,1,85
376,184,107886,1,0,0:0:0:0:
280,264,108086,5,0,0:0:0:0:
224,136,108286,2,0,P|185:124|177:84,1,85
320,128,108686,1,0,0:0:0:0:
312,248,108886,2,0,L|384:291,1,85
272,344,109286,1,0,0:0:0:0:
160,304,109486,1,0,0:0:0:0:
208,192,109686,6,0,P|234:159|248:119,1,85
144,80,110086,1,0,0:0:0:0:
304,96,110286,1,0,0:0:0:0:
124,179,110486,2,0,P|132:217|96:232,1,85
328,184,110886,5,0,0:0:0:0:
224,280,111086,1,0,0:0:0:0:
192,128,111286,2,0,L|264:64,1,85
304,272,111686,1,0,0:0:0:0:
248,184,111886,1,0,0:0:0:0:
120,224,112086,1,0,0:0:0:0:
112,128,112286,2,0,L|45:74,1,85
272,64,112686,5,0,0:0:0:0:
184,96,112886,2,0,P|143:98|121:133,1,85
352,112,113286,1,0,0:0:0:0:
288,192,113486,1,0,0:0:0:0:
304,208,113586,1,0,0:0:0:0:
320,224,113686,1,0,0:0:0:0:
336,240,113786,1,0,0:0:0:0:
352,256,113886,1,0,0:0:0:0:
192,224,114086,1,0,0:0:0:0:
56,120,114286,6,0,L|140:107,1,85
248,112,114686,1,0,0:0:0:0:
144,40,114886,1,0,0:0:0:0:
320,56,115086,2,0,P|360:63|383:98,1,85
424,200,115486,1,0,0:0:0:0:
272,192,115686,1,0,0:0:0:0:
136,216,115886,1,0,0:0:0:0:
128,96,116086,2,0,L|224:104,1,85
240,272,116486,5,0,0:0:0:0:
344,208,116686,1,0,0:0:0:0:
376,320,116886,1,0,0:0:0:0:
256,176,117086,2,0,P|222:200|181:198,1,85
192,72,117486,1,0,0:0:0:0:
288,72,117686,1,0,0:0:0:0:
152,160,117886,1,0,0:0:0:0:
384,112,118086,6,0,L|360:216,1,85
232,240,118486,1,0,0:0:0:0:
232,112,118686,1,0,0:0:0:0:
376,192,118886,2,0,P|408:218|424:257,1,85
96,304,119286,2,0,L|122:223,1,85
176,160,119686,1,0,0:0:0:0:
216,328,119886,1,0,0:0:0:0:
304,192,120086,1,0,0:0:0:0:
400,328,120286,6,0,L|424:232,1,85
304,88,120686,1,0,0:0:0:0:
456,240,120886,1,0,0:0:0:0:
360,184,121086,2,0,P|368:232|416:280,1,85
128,296,121486,1,0,0:0:0:0:
248,184,121686,1,0,0:0:0:0:
128,88,121886,2,0,L|72:152,1,85
184,232,122286,1,0,0:0:0:0:
208,104,122486,1,0,0:0:0:0:
128,168,122686,5,0,0:0:0:0:
304,96,122886,2,0,L|374:48,1,85
352,168,123286,1,0,0:0:0:0:
224,200,123486,2,0,L|176:129,1,85
120,224,123886,1,0,0:0:0:0:
64,312,124086,1,0,0:0:0:0:
88,136,124286,6,0,P|83:96|119:81,1,85
216,128,124686,1,0,0:0:0:0:
344,88,124886,1,0,0:0:0:0:
128,72,125086,2,0,P|136:112|192:152,1,85
280,192,125486,1,0,0:0:0:0:
160,263,125686,6,0,P|102:270|94:213,1,127.5
208,184,126086,1,0,0:0:0:0:
280,272,126286,1,0,0:0:0:0:
296,272,126386,1,0,0:0:0:0:
312,272,126486,1,0,0:0:0:0:
328,272,126586,1,0,0:0:0:0:
344,272,126686,1,0,0:0:0:0:
344,120,126886,2,0,L|291:187,1,85
192,312,127286,5,0,0:0:0:0:
176,176,127486,2,0,L|280:160,1,85
280,336,127886,1,0,0:0:0:0:
312,192,128086,1,0,0:0:0:0:
440,312,128286,1,0,0:0:0:0:
352,232,128486,2,0,P|368:168|416:144,1,85
352,120,128786,1,0,0:0:0:0:
320,88,128886,1,0,0:0:0:0:
216,200,129086,5,0,0:0:0:0:
64,200,129286,2,0,L|104:80,1,85
184,88,129686,1,0,0:0:0:0:
168,261,129886,2,0,L|128:336,1,85
248,320,130286,1,0,0:0:0:0:
352,224,130486,6,0,L|286:171,1,85
192,168,130886,1,0,0:0:0:0:
88,136,131086,1,0,0:0:0:0:
184,48,131286,2,0,P|248:64|272:104,1,85
288,176,131686,1,0,0:0:0:0:
192,248,131886,1,0,0:0:0:0:
136,119,132086,2,0,P|117:82|80:64,1,85
48,176,132486,1,0,0:0:0:0:
240,112,132686,5,0,0:0:0:0:
248,216,132886,1,0,0:0:0:0:
104,168,133086,2,0,P|112:128|152:136,1,85
256,72,133486,1,0,0:0:0:0:
320,160,133686,1,0,0:0:0:0:
128,208,133886,2,0,P|96:160|128:160,1,85
168,88,134286,1,0,0:0:0:0:
352,64,134486,5,0,0:0:0:0:
208,176,134686,2,0,L|184:248|208:256,1,85
312,248,135086,1,0,0:0:0:0:
144,136,135286,1,0,0:0:0:0:
192,240,135486,2,0,L|138:306,1,85
312,336,135886,1,0,0:0:0:0:
288,120,136086,5,0,0:0:0:0:
128,200,136286,1,0,0:0:0:0:
216,248,136486,2,0,P|240:208|296:200,1,85
192,104,136886,1,0,0:0:0:0:
368,176,137086,2,0,L|400:272,1,85
288,208,137486,1,0,0:0:0:0:
312,320,137686,1,0,0:0:0:0:
176,288,137886,6,0,P|176:240|224:232,1,85
248,176,138286,1,0,0:0:0:0:
208,261,138486,2,0,P|224:301|272:333,1,85
296,304,138786,1,0,0:0:0:0:
296,256,138886,1,0,0:0:0:0:
336,152,139086,1,0,0:0:0:0:
336,128,139186,1,0,0:0:0:0:
336,104,139286,1,0,0:0:0:0:
264,80,139486,2,0,P|232:104|184:72,1,85
88,120,139886,1,0,0:0:0:0:
400,136,140086,1,0,0:0:0:0:
136,208,140286,6,0,L|192:128,1,85
184,56,140686,1,0,0:0:0:0:
56,192,140886,1,0,0:0:0:0:
272,160,141086,2,0,L|298:240,1,85
216,264,141486,1,0,0:0:0:0:
344,160,141686,2,0,L|456:200,1,85
344,288,142086,1,0,0:0:0:0:
408,96,142286,1,0,0:0:0:0:
272,160,142486,2,0,P|243:129|236:87,1,85
128,96,142886,1,0,0:0:0:0:
72,224,143086,5,0,0:0:0:0:
424,32,143286,1,0,0:0:0:0:
96,352,143486,1,0,0:0:0:0:
80,24,143686,2,0,P|128:48|120:80,1,85
440,336,144086,1,0,0:0:0:0:
64,144,144286,5,0,0:0:0:0:
464,120,144486,2,0,P|448:176|416:176,1,85
88,344,144886,1,0,0:0:0:0:
320,32,145086,5,0,0:0:0:0:
240,344,145286,1,0,0:0:0:0:
56,40,145486,2,0,P|104:40|88:80,1,85
456,352,145886,1,0,0:0:0:0:
48,176,146086,2,0,L|112:104,1,85
472,24,146486,1,0,0:0:0:0:
64,344,146686,5,0,0:0:0:0:
224,32,146886,1,0,0:0:0:0:
144,368,147086,1,0,0:0:0:0:
412,58,147286,2,0,L|448:136,1,85
32,272,147686,1,0,0:0:0:0:
464,344,147886,1,0,0:0:0:0:
40,32,148086,1,0,0:0:0:0:
440,152,148286,5,0,0:0:0:0:
48,360,148486,1,0,0:0:0:0:
120,64,148686,1,0,0:0:0:0:
344,360,148886,2,0,L|272:280,1,85
40,32,149286,1,0,0:0:0:0:
432,48,149486,5,0,0:0:0:0:
256,272,149686,1,0,0:0:0:0:
48,104,149886,2,0,L|128:160,1,85
456,152,150286,2,0,L|376:96,1,85
80,328,150686,1,0,0:0:0:0:
416,32,150886,1,0,0:0:0:0:
464,264,151086,5,0,0:0:0:0:
56,32,151286,1,0,0:0:0:0:
368,368,151486,1,0,0:0:0:0:
136,352,151686,5,0,0:0:0:0:
296,56,151886,2,0,L|392:8,1,85
8,352,152286,1,0,0:0:0:0:
432,40,152486,1,0,0:0:0:0:
32,40,152686,2,0,P|80:32|72:56,1,85
424,336,153086,5,0,0:0:0:0:
192,80,153286,1,0,0:0:0:0:
80,344,153486,2,0,L|128:248,1,85
400,40,153886,1,0,0:0:0:0:
112,208,154086,1,0,0:0:0:0:
400,280,154286,1,0,0:0:0:0:
96,48,154486,2,0,L|160:120,1,85
400,128,154886,1,0,0:0:0:0:
160,344,155086,2,0,L|80:288,1,85
184,160,155486,5,0,0:0:0:0:
256,48,155586,1,0,0:0:0:0:
328,160,155686,1,0,0:0:0:0:
40,312,155886,5,0,0:0:0:0:
384,40,156086,2,0,P|432:64|400:88,1,85
208,272,156486,1,0,0:0:0:0:
64,56,156686,1,0,0:0:0:0:
424,304,156886,2,0,L|432:208,1,85
168,72,157286,1,0,0:0:0:0:
360,48,157486,1,0,0:0:0:0:
88,336,157686,2,0,L|32:256,1,85
72,48,158086,5,0,0:0:0:0:
320,160,158286,1,0,0:0:0:0:
200,336,158486,1,0,0:0:0:0:
480,320,158686,2,0,P|448:264|480:232,1,85
88,152,159086,1,0,0:0:0:0:
448,64,159286,2,0,L|520:128,1,85
40,344,159686,5,0,0:0:0:0:
472,344,159886,1,0,0:0:0:0:
256,40,160086,1,0,0:0:0:0:
256,344,160286,1,0,0:0:0:0:
56,80,160486,1,0,0:0:0:0:
456,80,160686,1,0,0:0:0:0:
256,192,160886,1,0,0:0:0:0:
256,344,161086,1,0,0:0:0:0:
384,248,161286,6,0,P|408:192|432:192,1,85
104,144,161686,1,0,0:0:0:0:
376,48,161886,1,0,0:0:0:0:
40,320,162086,1,0,0:0:0:0:
176,32,162286,2,0,L|264:64,1,85
232,336,162686,1,0,0:0:0:0:
64,48,162886,5,0,0:0:0:0:
384,264,163086,1,0,0:0:0:0:
72,248,163286,2,0,P|96:216|136:232,1,85
368,56,163686,1,0,0:0:0:0:
136,344,163886,2,0,L|160:256,1,85
416,336,164286,1,0,0:0:0:0:
248,32,164486,1,0,0:0:0:0:
72,232,164686,5,0,0:0:0:0:
440,168,164886,2,0,P|432:216|400:240,1,85
80,96,165286,2,0,P|120:56|160:56,1,85
192,320,165686,1,0,0:0:0:0:
352,48,165886,1,0,0:0:0:0:
432,336,166086,1,0,0:0:0:0:
72,256,166286,5,0,0:0:0:0:
112,200,166386,1,0,0:0:0:0:
152,144,166486,1,0,0:0:0:0:
424,128,166686,1,0,0:0:0:0:
240,336,166886,2,0,L|128:336,1,85
224,48,167286,1,0,0:0:0:0:
256,192,167486,12,0,168886,0:0:0:0:
56,128,169086,5,0,0:0:0:0:
288,64,169286,2,0,L|368:120,1,85
107,336,169686,2,0,L|192:336,1,85
440,336,170086,1,0,0:0:0:0:
352,56,183286,6,0,L|320:120,1,42.5
33,90,184486,6,0,B|472:8|208:384|136:80,1,510
74,219,186086,6,0,B|72:136|136:80|216:48|424:80|360:328|256:152|240:120|144:224,1,510
200,32,187686,6,0,B|440:128|328:200|168:288|112:40|224:152|48:296,1,510
112,192,189286,6,0,B|144:120|208:184|496:368|416:24|112:0|216:48|144:328|224:256,1,510
400,304,190886,6,0,L|296:288,1,85
240,160,191286,1,0,0:0:0:0:
320,64,191486,2,0,L|384:136,1,85
272,248,191886,1,0,0:0:0:0:
176,144,192086,1,0,0:0:0:0:
304,104,192286,2,0,L|384:184,1,85
208,200,192686,1,0,0:0:0:0:
264,56,192886,1,0,0:0:0:0:
312,216,193086,5,0,0:0:0:0:
416,64,193286,1,0,0:0:0:0:
336,104,193486,2,0,L|389:170,1,85
408,256,193886,1,0,0:0:0:0:
288,296,194086,5,0,0:0:0:0:
168,136,194286,2,0,L|252:123,1,85
376,160,194686,1,0,0:0:0:0:
312,216,194886,5,0,0:0:0:0:
176,216,195286,1,0,0:0:0:0:
80,168,195686,1,0,0:0:0:0:
224,88,196086,1,0,0:0:0:0:
256,192,196286,5,0,0:0:0:0:
224,264,196486,2,0,L|280:358,1,85
368,232,196886,1,0,0:0:0:0:
360,128,197086,1,0,0:0:0:0:
360,104,197186,1,0,0:0:0:0:
360,80,197286,1,0,0:0:0:0:
288,80,197486,6,0,P|253:102|251:143,1,85
128,136,197886,1,0,0:0:0:0:
48,56,198086,1,0,0:0:0:0:
64,184,198286,2,0,L|80:280,1,85
192,256,198686,5,0,0:0:0:0:
80,232,198886,1,0,0:0:0:0:
163,48,199086,2,0,L|248:56,1,85
256,144,199486,1,0,0:0:0:0:
143,137,199686,2,0,P|106:120|104:80,1,85
240,64,200086,1,0,0:0:0:0:
224,256,200286,6,0,P|200:200|200:168,1,85
328,112,200686,1,0,0:0:0:0:
336,216,200886,1,0,0:0:0:0:
192,136,201086,2,0,L|114:104,1,85
112,216,201486,1,0,0:0:0:0:
256,184,201686,1,0,0:0:0:0:
184,304,201886,5,0,0:0:0:0:
320,224,202086,2,0,L|408:240,1,85
328,344,202486,1,0,0:0:0:0:
216,224,202686,1,0,0:0:0:0:
336,128,202886,1,0,0:0:0:0:
193,108,203086,2,0,L|120:64,1,85
88,168,203486,1,0,0:0:0:0:
168,240,203686,5,0,0:0:0:0:
304,312,203886,1,0,0:0:0:0:
400,240,204086,2,0,P|384:184|392:136,1,85
264,128,204486,1,0,0:0:0:0:
93,264,204686,6,0,L|64:344,1,85
240,248,205086,1,0,0:0:0:0:
168,144,205286,1,0,0:0:0:0:
328,192,205486,1,0,0:0:0:0:
180,116,205686,2,0,L|120:56,1,85
96,160,206086,1,0,0:0:0:0:
264,88,206286,2,0,L|336:144,1,85
376,240,206686,1,0,0:0:0:0:
356,115,206886,6,0,L|304:48,1,85
200,24,207286,1,0,0:0:0:0:
104,80,207486,2,0,L|192:120,1,85
136,192,207886,1,0,0:0:0:0:
152,208,207986,1,0,0:0:0:0:
168,224,208086,1,0,0:0:0:0:
224,152,208286,1,0,0:0:0:0:
292,118,208486,2,0,P|344:64|368:72,1,85
424,160,208886,1,0,0:0:0:0:
256,192,209086,12,0,210886,0:0:0:0:
424,72,211086,5,0,0:0:0:0:
304,56,211286,1,0,0:0:0:0:
304,80,211386,1,0,0:0:0:0:
304,104,211486,1,0,0:0:0:0:
215,147,211686,2,0,L|208:232,1,85
320,256,212086,1,0,0:0:0:0:
368,200,212286,6,0,P|424:208|456:184,1,85
328,128,212686,1,0,0:0:0:0:
248,208,212886,1,0,0:0:0:0:
176,128,213086,1,0,0:0:0:0:
320,264,213286,2,0,P|345:297|348:339,1,85
216,328,213686,1,0,0:0:0:0:
96,272,213886,1,0,0:0:0:0:
312,160,214086,6,0,P|289:128|256:148,1,85
168,192,214486,1,0,0:0:0:0:
256,72,214686,1,0,0:0:0:0:
136,40,214886,2,0,L|48:72,1,85
80,192,215286,1,0,0:0:0:0:
160,296,215486,1,0,0:0:0:0:
56,296,215686,2,0,L|120:232,1,85
240,224,216086,5,0,0:0:0:0:
328,296,216286,2,0,L|432:272,1,85
368,168,216686,1,0,0:0:0:0:
432,128,216886,2,0,L|480:208,1,85
400,256,217286,1,0,0:0:0:0:
456,336,217486,5,0,0:0:0:0:
320,224,217686,1,0,0:0:0:0:
184,192,217886,1,0,0:0:0:0:
64,184,218086,2,0,L|72:80,1,85
200,72,218486,1,0,0:0:0:0:
344,72,218686,5,0,0:0:0:0:
424,160,218886,1,0,0:0:0:0:
320,168,219086,2,0,L|243:129,1,85
208,240,219486,1,0,0:0:0:0:
192,128,219686,1,0,0:0:0:0:
280,64,219886,2,0,L|344:128,1,85
360,248,220286,1,0,0:0:0:0:
264,192,220486,2,0,L|180:176,1,85
152,296,220886,1,0,0:0:0:0:
144,168,221086,5,0,0:0:0:0:
240,96,221286,1,0,0:0:0:0:
256,280,221486,1,0,0:0:0:0:
344,216,221686,2,0,P|364:180|344:145,1,85
328,64,222086,1,0,0:0:0:0:
192,56,222286,5,0,0:0:0:0:
168,56,222386,1,0,0:0:0:0:
144,56,222486,1,0,0:0:0:0:
56,128,222686,1,0,0:0:0:0:
96,208,222886,2,0,L|80:296,1,85
184,304,223286,1,0,0:0:0:0:
216,200,223486,5,0,0:0:0:0:
232,176,223586,1,0,0:0:0:0:
248,152,223686,1,0,0:0:0:0:
360,192,223886,1,0,0:0:0:0:
320,256,224086,2,0,L|299:338,1,85
384,352,224486,5,0,0:0:0:0:
448,288,224686,1,0,0:0:0:0:
243,271,224886,2,0,L|200:344,1,85
96,288,225286,1,0,0:0:0:0:
152,120,225486,2,0,P|160:176|192:208,1,85
288,160,225886,1,0,0:0:0:0:
304,72,226086,5,0,0:0:0:0:
200,40,226286,1,0,0:0:0:0:
152,112,226486,2,0,L|208:192,1,85
304,216,226886,1,0,0:0:0:0:
251,301,227086,2,0,L|166:301,1,85
112,232,227486,1,0,0:0:0:0:
192,176,227686,5,0,0:0:0:0:
272,136,227886,1,0,0:0:0:0:
184,256,228086,2,0,P|144:271|117:303,1,85
192,360,228486,1,0,0:0:0:0:
117,303,228686,5,0,0:0:0:0:
96,288,228786,1,0,0:0:0:0:
72,264,228886,2,0,L|56:160,1,85
168,192,229286,1,0,0:0:0:0:
184,104,229486,2,0,P|176:32|192:24,1,85
296,48,229886,1,0,0:0:0:0:
336,160,230086,1,0,0:0:0:0:
72,304,230286,5,0,0:0:0:0:
168,264,230486,1,0,0:0:0:0:
288,312,230686,2,0,L|320:224,1,85
248,168,231086,1,0,0:0:0:0:
152,168,231286,1,0,0:0:0:0:
32,200,231486,2,0,L|56:112,1,85
120,56,231886,1,0,0:0:0:0:
192,248,232086,1,0,0:0:0:0:
320,176,232286,1,0,0:0:0:0:
392,48,232486,2,0,P|416:104|400:128,1,85
232,168,232886,5,0,0:0:0:0:
296,240,233086,2,0,P|311:278|295:316,1,85
184,320,233486,1,0,0:0:0:0:
80,272,233686,1,0,0:0:0:0:
152,176,233886,2,0,P|128:128|88:120,1,85
96,56,234286,1,0,0:0:0:0:
112,56,234386,1,0,0:0:0:0:
128,56,234486,1,0,0:0:0:0:
208,56,234686,5,0,0:0:0:0:
224,56,234786,1,0,0:0:0:0:
240,56,234886,1,0,0:0:0:0:
280,152,235086,5,0,0:0:0:0:
208,208,235286,1,0,0:0:0:0:
125,126,235486,2,0,P|83:125|48:104,1,85
144,288,235886,1,0,0:0:0:0:
48,272,236086,2,0,L|104:208,1,85
224,112,236486,1,0,0:0:0:0:
256,192,236686,1,0,0:0:0:0:
256,192,237286,12,0,243486,0:0:0:0:
