osu file format v13

[General]
AudioFilename: I-love-Glasslip.mp3
AudioLeadIn: 0
PreviewTime: 48750
Countdown: 0
SampleSet: Soft
StackLeniency: 0.7
Mode: 0
LetterboxInBreaks: 0
WidescreenStoryboard: 1

[Editor]
DistanceSpacing: 1.5
BeatDivisor: 4
GridSize: 4
TimelineZoom: 1

[Metadata]
Title:Natsu no Hi to Kimi no Koe (TV size ver.)
TitleUnicode:夏の日と君の声 (TV size ver.)
Artist:ChouCho
ArtistUnicode:ChouCho
Creator:Oyatsu
Version:Normal
Source:グラスリップ
Tags:kuo kyoka opening glasslip p.a.works lantis drama comedy romance daily life love
BeatmapID:459351
BeatmapSetID:190756

[Difficulty]
HPDrainRate:4
CircleSize:3.7
OverallDifficulty:4
ApproachRate:5
SliderMultiplier:1.1
SliderTickRate:1

[Events]
//Background and Video events
Video,0,"heart.avi"
0,0,"BG.jpg",0,0
//Break Periods
//Storyboard Layer 0 (Background)
//Storyboard Layer 1 (Fail)
//Storyboard Layer 2 (Pass)
//Storyboard Layer 3 (Foreground)
//Storyboard Sound Samples
//Background Colour Transformations
3,100,163,162,255

[TimingPoints]
526,560.747663551402,4,2,2,25,1,0
5011,-100,4,2,1,40,0,0
13983,-100,4,2,1,20,0,1
14124,-100,4,2,1,40,0,0
29965,-100,4,2,2,20,0,0
31927,-100,4,2,1,20,0,0
32068,-100,4,2,1,50,0,0
47628,-100,4,2,2,20,0,0
48750,-100,4,2,1,30,0,0
49871,-100,4,2,1,40,0,1
50011,-100,4,2,1,50,0,1
58002,-100,4,2,1,20,0,1
58983,-100,4,2,1,50,0,1
62208,-100,4,2,2,30,0,1
62768,-100,4,2,1,50,0,1
63329,-100,4,2,1,25,0,1
63890,-100,4,2,1,50,0,1
64451,-100,4,2,1,20,0,1
65011,-100,4,2,1,50,0,1
65572,-100,4,2,1,25,0,1
66133,-100,4,2,1,50,0,1
70619,-100,4,2,1,20,0,1
71180,-100,4,2,1,15,0,1
71740,-100,4,2,1,20,0,1
72301,-100,4,2,1,15,0,1
72582,-100,4,2,1,50,0,1
73423,-100,4,2,1,30,0,1
74544,-100,4,2,1,30,0,0
74684,-100,4,2,1,50,0,0
82675,-100,4,2,2,30,0,0
83516,-100,4,2,1,30,0,0
83656,-100,4,2,1,5,0,0

[Colours]
Combo1 : 255,255,255
Combo2 : 28,169,244
Combo3 : 0,187,0

[HitObjects]
324,96,5011,6,0,L|420:88,2,82.5,2|2|2,0:0|0:0|0:0,0:0:0:0:
252,136,6133,2,0,P|200:136|128:132,1,110,0|0,0:0|0:0,0:0:0:0:
44,180,7254,5,0,0:0:0:0:
124,264,7815,2,0,P|168:268|240:280,1,110,0|0,0:0|0:0,0:0:0:0:
308,312,8656,1,0,0:0:0:0:
400,248,9217,1,0,0:0:0:0:
420,168,9497,6,0,P|428:124|436:64,2,82.5,2|2|2,0:0|0:0|0:0,0:0:0:0:
400,248,10619,2,0,P|332:236|284:228,1,110,0|0,0:0|0:0,0:0:0:0:
216,152,11740,6,0,P|220:100|232:48,2,82.5,0|0|0,0:0|0:0|0:0,0:0:0:0:
172,224,12862,2,0,P|112:228|60:192,1,110,0|0,0:0|0:0,0:0:0:0:
32,132,13703,1,0,0:0:0:0:
96,80,13983,6,0,L|208:72,1,110,6|0,0:0|0:0,0:0:0:0:
288,64,14825,1,2,0:0:0:0:
376,132,15385,2,0,P|396:180|376:248,1,110,0|0,0:0|0:0,0:0:0:0:
348,308,16226,6,0,P|380:320|408:332,2,55,0|0|0,0:0|0:0|0:0,0:0:0:0:
268,288,17068,2,0,P|204:280|140:276,1,110,0|0,0:0|0:0,0:0:0:0:
76,204,18189,1,0,0:0:0:0:
108,128,18469,6,0,L|148:80,1,55,2|0,0:0|0:0,0:0:0:0:
212,36,19030,1,0,0:0:0:0:
260,104,19311,2,0,P|268:152|280:228,1,110,2|0,0:0|0:0,0:0:0:0:
404,316,20432,1,0,0:0:0:0:
432,240,20712,6,0,P|448:192|424:136,1,110,0|0,0:0|0:0,0:0:0:0:
344,156,21554,2,0,P|300:168|224:188,1,110,0|0,0:0|0:0,0:0:0:0:
164,216,22395,1,0,0:0:0:0:
96,128,22955,6,0,L|88:40,2,82.5,2|2|2,0:0|0:0|0:0,0:0:0:0:
164,216,24357,1,0,0:0:0:0:
224,272,24638,2,0,P|260:280|288:280,1,55,0|0,0:0|0:0,0:0:0:0:
340,228,25198,6,0,P|376:212|448:232,1,110,0|0,0:0|0:0,0:0:0:0:
468,148,26040,2,0,L|472:80,1,55,0|0,0:0|0:0,0:0:0:0:
416,32,26600,1,0,0:0:0:0:
344,72,26881,2,0,P|312:76|276:80,1,55,0|0,0:0|0:0,0:0:0:0:
212,108,27441,6,0,L|108:96,2,82.5,2|2|2,0:0|0:0|0:0,0:0:0:0:
276,160,28563,1,0,0:0:0:0:
328,256,29124,1,0,0:0:0:0:
224,296,29684,6,0,P|176:312|112:292,1,110,0|2,0:0|0:0,0:0:0:0:
128,216,30526,1,2,0:0:0:0:
48,192,30806,2,0,L|40:104,2,82.5,2|2|2,0:0|0:0|0:0,0:0:0:0:
128,216,31927,6,0,P|172:204|236:228,1,110,6|2,0:0|0:0,0:0:0:0:
288,284,32768,1,0,0:0:0:0:
360,244,33049,2,0,P|372:208|372:176,1,55,2|0,0:0|0:0,0:0:0:0:
364,108,33610,1,2,0:0:0:0:
252,104,34170,6,0,L|128:88,2,110,2|2|2,0:0|0:0|0:0,0:0:0:0:
304,200,35853,1,2,0:0:0:0:
288,280,36133,1,0,0:0:0:0:
208,260,36413,6,0,L|148:256,1,55,2|0,0:0|0:0,0:0:0:0:
72,240,36974,2,0,P|56:188|76:132,1,110,2|2,0:0|0:0,0:0:0:0:
144,56,38096,1,2,0:0:0:0:
228,128,38656,6,0,P|288:132|344:128,1,110,2|2,0:0|0:0,0:0:0:0:
420,112,39497,1,0,0:0:0:0:
428,196,39778,2,0,L|444:256,1,55,2|0,0:0|0:0,0:0:0:0:
364,272,40339,2,0,L|328:324,1,55,2|0,0:0|0:0,0:0:0:0:
252,320,40899,6,0,P|192:332|140:304,1,110,2|2,0:0|0:0,0:0:0:0:
88,256,41740,2,0,L|80:136,1,110,0|0,0:0|0:0,0:0:0:0:
100,64,42582,1,2,0:0:0:0:
176,100,42862,6,0,P|232:108|304:108,1,110,0|0,0:0|0:0,0:0:0:0:
364,84,43703,1,2,0:0:0:0:
424,176,44264,1,2,0:0:0:0:
352,264,44825,2,0,L|320:320,1,55,2|0,0:0|0:0,0:0:0:0:
244,320,45385,6,0,L|128:312,2,110,2|2|2,0:0|0:0|0:0,0:0:0:0:
232,212,47068,1,2,0:0:0:0:
180,148,47348,1,0,0:0:0:0:
248,104,47628,6,0,L|256:48,1,55,2|2,0:0|0:0,0:0:0:0:
336,40,48189,2,0,L|328:94,1,55,2|2,0:0|0:0,0:0:0:0:
400,136,48750,2,0,L|408:92,2,27.5,8|8|8,0:0|0:0|0:0,0:0:0:0:
384,216,49311,2,0,P|360:240|328:256,1,55,8|8,0:0|0:0,0:0:0:0:
260,236,49871,6,0,P|224:216|144:228,1,110,6|8,0:0|0:0,0:0:0:0:
56,176,50993,2,0,P|48:116|44:60,1,110,2|8,0:0|0:0,0:0:0:0:
152,48,52114,6,0,L|216:56,1,55,2|0,0:0|0:0,0:0:0:0:
256,124,52675,2,0,L|320:132,1,55,8|0,0:0|0:0,0:0:0:0:
392,148,53236,2,0,P|416:200|400:260,1,110,2|8,0:0|0:0,0:0:0:0:
356,316,54077,1,0,0:0:0:0:
288,272,54357,6,0,B|212:276|212:276|168:264,1,110,2|8,0:0|0:0,0:0:0:0:
116,212,55198,2,0,L|112:152,1,55,0|2,0:0|0:0,0:0:0:0:
172,64,56040,1,8,0:0:0:0:
244,144,56600,6,0,L|304:140,2,55,2|0|8,0:0|0:0|0:0,0:0:0:0:
300,240,57722,1,2,0:0:0:0:
372,200,58002,1,8,0:1:0:0:
436,252,58283,2,0,P|464:244|496:224,1,55,8|8,1:0|0:1,0:0:0:0:
476,148,58843,6,0,L|464:32,1,110,10|8,0:1|0:0,0:0:0:0:
356,48,59965,2,0,P|324:48|284:56,1,55,2|0,0:0|0:0,0:0:0:0:
232,96,60526,2,0,P|196:96|164:92,1,55,8|0,0:0|0:0,0:0:0:0:
100,60,61086,2,0,P|60:104|64:168,1,110,2|8,0:0|0:0,0:0:0:0:
88,260,62208,2,0,L|156:248,1,55,2|0,0:0|0:0,0:0:0:0:
224,236,62768,1,8,0:0:0:0:
288,288,63049,1,0,0:0:0:0:
348,232,63329,6,0,P|400:212|460:228,2,110,8|8|8,0:1|0:0|0:1,0:0:0:0:
256,172,65011,2,0,P|228:156|192:148,1,55,8|0,0:0|0:0,0:0:0:0:
200,232,65572,2,0,P|140:244|92:224,1,110,8|8,0:1|0:0,0:0:0:0:
28,132,66694,2,0,P|88:120|136:140,1,110,2|8,0:0|0:0,0:0:0:0:
200,188,67535,1,0,0:0:0:0:
264,136,67815,6,0,L|384:148,1,110,2|8,0:0|0:0,0:0:0:0:
456,224,68937,1,2,0:0:0:0:
400,284,69217,1,0,0:0:0:0:
328,244,69497,2,0,L|256:252,1,55,8|0,0:0|0:0,0:0:0:0:
200,288,70058,6,0,P|144:280|96:312,1,110,2|8,0:0|1:0,0:0:0:0:
20,228,71180,1,10,0:1:0:0:
80,136,71740,1,8,1:0:0:0:
152,96,72021,1,0,0:0:0:0:
204,160,72301,6,0,L|272:152,1,55,10|0,0:1|0:0,0:0:0:0:
304,220,72862,2,0,L|368:208,1,55,8|0,0:0|0:0,0:0:0:0:
440,192,73423,2,0,P|472:140|456:84,1,110,8|8,0:0|0:0,0:0:0:0:
412,32,74264,1,8,0:0:0:0:
332,52,74544,6,0,L|216:64,1,110,6|8,0:0|0:0,0:0:0:0:
124,108,75666,2,0,L|112:232,1,110,2|8,0:0|0:0,0:0:0:0:
128,300,76507,1,0,0:0:0:0:
196,256,76787,6,0,P|252:244|308:268,1,110,2|8,0:0|0:0,0:0:0:0:
360,320,77628,2,0,P|416:316|456:272,1,110,0|0,0:0|0:0,0:0:0:0:
488,204,78469,1,8,0:0:0:0:
388,160,79030,6,0,L|380:228,2,55,2|0|8,0:0|0:0|0:0,0:0:0:0:
404,80,79871,1,0,0:0:0:0:
320,84,80152,2,0,P|272:92|192:96,1,110,2|8,0:0|0:0,0:0:0:0:
100,96,81273,6,0,L|108:212,1,110,2|8,0:0|0:0,0:0:0:0:
116,288,82114,1,0,0:0:0:0:
204,220,82675,1,2,0:0:0:0:
260,280,82955,2,0,L|332:276,1,55,2|2,0:0|0:0,0:0:0:0:
376,220,83516,5,6,0:0:0:0:
256,192,83656,12,0,88002,0:0:0:0:
