osu file format v13

[General]
AudioFilename: I-love-Glasslip.mp3
AudioLeadIn: 0
PreviewTime: 48750
Countdown: 0
SampleSet: Soft
StackLeniency: 0.7
Mode: 0
LetterboxInBreaks: 0
WidescreenStoryboard: 1

[Editor]
DistanceSpacing: 1
BeatDivisor: 4
GridSize: 4
TimelineZoom: 1

[Metadata]
Title:Natsu no Hi to Kimi no Koe (TV size ver.)
TitleUnicode:夏の日と君の声 (TV size ver.)
Artist:ChouCho
ArtistUnicode:ChouCho
Creator:Oyatsu
Version:Easy
Source:グラスリップ
Tags:kuo kyoka opening glasslip p.a.works lantis drama comedy romance daily life love
BeatmapID:459350
BeatmapSetID:190756

[Difficulty]
HPDrainRate:2
CircleSize:3.3
OverallDifficulty:2
ApproachRate:3
SliderMultiplier:0.9
SliderTickRate:1

[Events]
//Background and Video events
Video,0,"heart.avi"
0,0,"BG.jpg",0,0
//Break Periods
2,6052,8057
2,10538,12543
//Storyboard Layer 0 (Background)
//Storyboard Layer 1 (Fail)
//Storyboard Layer 2 (Pass)
//Storyboard Layer 3 (Foreground)
//Storyboard Sound Samples
//Background Colour Transformations
3,100,163,162,255

[TimingPoints]
526,560.747663551402,4,2,2,25,1,0
5011,-100,4,2,1,40,0,0
13983,-100,4,2,1,20,0,1
14124,-100,4,2,1,40,0,0
15385,-100,4,2,1,5,0,0
15526,-100,4,2,1,40,0,0
16787,-100,4,2,1,5,0,0
16927,-100,4,2,1,40,0,0
17348,-100,4,2,1,5,0,0
17488,-100,4,2,1,40,0,0
19030,-100,4,2,1,5,0,0
19170,-100,4,2,1,40,0,0
21273,-100,4,2,1,5,0,0
21413,-100,4,2,1,40,0,0
21834,-100,4,2,1,5,0,0
21974,-100,4,2,1,40,0,0
23516,-100,4,2,1,5,0,0
23656,-100,4,2,1,40,0,0
25759,-100,4,2,1,5,0,0
25899,-100,4,2,1,40,0,0
27722,-100,4,2,1,5,0,0
27862,-100,4,2,1,40,0,0
29965,-100,4,2,2,20,0,0
31927,-100,4,2,1,20,0,0
32068,-100,4,2,1,50,0,0
34731,-100,4,2,3,50,0,0
34871,-100,4,2,1,50,0,0
39217,-100,4,2,3,50,0,0
39357,-100,4,2,1,50,0,0
42582,-100,4,2,3,50,0,0
42722,-100,4,2,1,50,0,0
43142,-100,4,2,3,50,0,0
43283,-100,4,2,1,50,0,0
47628,-100,4,2,2,20,0,0
48750,-100,4,2,1,30,0,0
49871,-100,4,2,1,40,0,1
50011,-100,4,2,1,50,0,1
52675,-100,4,3,1,50,0,1
52815,-100,4,2,1,50,0,1
57161,-100,4,3,1,50,0,1
57301,-100,4,2,1,50,0,1
57722,-100,4,2,3,50,0,1
58002,-100,4,2,1,20,0,1
58983,-100,4,2,1,50,0,1
62208,-100,4,2,2,30,0,1
62768,-100,4,2,1,50,0,1
63329,-100,4,2,1,25,0,1
63890,-100,4,2,1,50,0,1
64451,-100,4,2,1,20,0,1
65011,-100,4,2,1,50,0,1
65572,-100,4,2,1,25,0,1
66133,-100,4,2,1,50,0,1
68376,-100,4,3,1,50,0,1
68516,-100,4,2,1,50,0,1
70619,-100,4,2,1,20,0,1
71180,-100,4,2,1,15,0,1
71740,-100,4,2,1,20,0,1
72301,-100,4,2,1,15,0,1
72582,-100,4,2,1,50,0,1
73423,-100,4,2,1,30,0,1
74544,-100,4,2,1,30,0,0
74684,-100,4,2,1,50,0,0
75105,-100,4,3,1,50,0,0
75245,-100,4,2,1,50,0,0
81834,-100,4,3,1,50,0,0
81974,-100,4,2,1,50,0,0
82675,-100,4,2,2,30,0,0
83516,-100,4,2,1,30,0,0
83656,-100,4,2,1,5,0,0

[Colours]
Combo1 : 255,255,255
Combo2 : 28,169,244
Combo3 : 0,187,0

[HitObjects]
120,132,5011,6,0,L|112:216,2,67.5,2|2|2,0:0|0:0|0:0,0:0:0:0:
392,156,9497,6,0,L|404:80,2,67.5,2|2|0,0:0|0:0|0:0,0:0:0:0:
340,292,13983,5,6,0:0:0:0:
276,228,14544,1,0,0:0:0:0:
276,228,14825,2,0,P|276:168|280:80,1,135,2|0,0:0|0:0,0:0:0:0:
196,60,16226,2,0,P|144:88|72:64,2,135,0|0|0,0:0|0:0|0:0,0:0:0:0:
284,56,18469,6,0,P|344:40|416:80,1,135,2|2,0:0|0:0,0:0:0:0:
460,144,19871,1,0,0:0:0:0:
396,208,20432,1,0,0:0:0:0:
396,208,20712,2,0,B|300:196|300:196|256:220,2,135,0|0|0,0:0|0:0|0:0,0:0:0:0:
400,296,22955,6,0,P|344:324|272:296,1,135,2|2,0:0|0:0,0:0:0:0:
208,248,24357,2,0,L|144:236,1,45,0|0,0:0|0:0,0:0:0:0:
84,196,25198,6,0,P|56:136|92:68,1,135,0|0,0:0|0:0,0:0:0:0:
160,32,26600,1,0,0:0:0:0:
236,80,27161,2,0,P|304:84|380:80,1,135,0|0,0:0|0:0,0:0:0:0:
456,104,28563,2,0,P|464:144|472:204,1,90,0|0,0:0|0:0,0:0:0:0:
428,272,29684,6,0,P|356:312|268:264,1,180,0|2,0:0|0:0,0:0:0:0:
224,196,31367,1,0,0:0:0:0:
164,260,31927,6,0,L|68:252,1,90,6|2,0:0|0:0,0:0:0:0:
40,168,33049,2,0,P|32:128|48:76,1,90,2|2,0:0|0:0,0:0:0:0:
132,56,34170,2,0,P|224:64|320:68,1,180,2|2,0:0|0:0,0:0:0:0:
400,44,35853,1,2,0:0:0:0:
444,124,36413,6,0,P|439:173|440:220,1,90,2|2,0:0|0:0,0:0:0:0:
356,244,37535,2,0,P|304:232|260:228,1,90,2|2,0:0|0:0,0:0:0:0:
184,264,38656,2,0,P|96:276|40:192,1,180,2|2,0:0|0:0,0:0:0:0:
72,128,40339,1,2,0:0:0:0:
148,84,40899,6,0,P|196:80|248:76,1,90,2|2,0:0|0:0,0:0:0:0:
316,120,42021,2,0,P|372:140|448:104,2,135,2|0|2,0:0|0:0|0:0,0:0:0:0:
228,136,44264,2,0,L|224:236,1,90,2|2,0:0|0:0,0:0:0:0:
220,316,45385,5,2,0:0:0:0:
304,348,45946,1,2,0:0:0:0:
368,288,46507,2,0,P|384:240|376:200,1,90,2|2,0:0|0:0,0:0:0:0:
336,120,47628,6,0,L|336:72,2,45,2|2|2,0:0|0:0|0:0,0:0:0:0:
264,172,48750,2,0,L|216:164,1,45,8|8,0:0|0:0,0:0:0:0:
192,128,49311,2,0,L|136:108,1,45,8|8,0:0|0:0,0:0:0:0:
108,128,49871,6,0,P|92:184|80:224,1,90,6|8,0:0|0:0,0:0:0:0:
108,300,50993,2,0,P|152:316|208:308,1,90,2|8,0:0|0:0,0:0:0:0:
232,232,52114,2,0,P|296:192|388:228,1,180,2|2,0:0|0:0,0:0:0:0:
452,292,53797,1,8,0:0:0:0:
480,208,54357,6,0,L|484:108,1,90,2|8,0:0|0:0,0:0:0:0:
460,32,55479,1,0,0:0:0:0:
372,48,56040,1,8,0:0:0:0:
316,120,56600,2,0,B|268:128|224:108|224:108|168:128,2,135,2|0|8,0:0|0:0|1:0,0:0:0:0:
360,200,58843,6,0,L|352:296,1,90,10|8,0:1|0:0,0:0:0:0:
272,332,59965,1,2,0:0:0:0:
196,288,60526,1,8,0:0:0:0:
116,328,61086,2,0,P|80:296|60:252,1,90,2|8,0:0|0:0,0:0:0:0:
76,168,62208,2,0,L|52:108,2,45,2|0|8,0:0|0:0|0:0,0:0:0:0:
164,184,63329,6,0,P|224:184|264:168,1,90,8|8,0:1|0:0,0:0:0:0:
292,96,64451,2,0,P|348:84|392:96,1,90,8|8,0:1|0:0,0:0:0:0:
432,164,65572,1,8,0:1:0:0:
496,228,66133,1,8,0:0:0:0:
440,296,66694,2,0,P|396:288|344:276,1,90,2|8,0:0|0:0,0:0:0:0:
276,328,67815,6,0,P|216:324|84:316,1,180,2|2,0:0|0:0,0:0:0:0:
32,252,69497,1,8,0:0:0:0:
84,176,70058,2,0,P|92:128|76:80,1,90,2|8,0:0|1:0,0:0:0:0:
152,36,71180,2,0,L|252:40,1,90,10|8,0:1|1:0,0:0:0:0:
332,48,72301,5,10,0:1:0:0:
400,108,72862,1,8,0:0:0:0:
328,164,73423,2,0,P|324:204|316:268,1,90,8|8,0:0|0:0,0:0:0:0:
260,324,74544,6,0,P|164:332|112:268,1,180,6|2,0:0|0:0,0:0:0:0:
84,188,76226,1,8,0:0:0:0:
156,132,76787,2,0,L|248:112,1,90,2|8,0:0|0:0,0:0:0:0:
328,140,77909,1,0,0:0:0:0:
376,64,78469,1,8,0:0:0:0:
432,132,79030,6,0,P|440:176|440:232,1,90,2|8,0:0|0:0,0:0:0:0:
388,296,80152,2,0,P|340:280|292:272,1,90,2|8,0:0|0:0,0:0:0:0:
216,300,81273,2,0,P|148:316|84:272,1,135,2|0,0:0|0:0,0:0:0:0:
64,200,82675,6,0,L|68:136,2,45,2|2|2,0:0|0:0|0:0,0:0:0:0:
256,192,83516,12,0,88002,0:0:0:0:
