osu file format v13

[General]
AudioFilename: HUEHUE.mp3
AudioLeadIn: 2460
PreviewTime: 49046
Countdown: 0
SampleSet: Soft
StackLeniency: 0.7
Mode: 0
LetterboxInBreaks: 0
WidescreenStoryboard: 0

[Editor]
Bookmarks: 542,5027,9513,13999,18485,22971,27457,29981,31943,49887,74560,83532,86301
DistanceSpacing: 1.4
BeatDivisor: 4
GridSize: 4
TimelineZoom: 2.4

[Metadata]
Title:Natsu no Hi to Kimi no Koe (TV size ver.)
TitleUnicode:夏の日と君の声 (TV size ver.)
Artist:ChouCho
ArtistUnicode:ちょうちょ
Creator:Kin
Version:Insane
Source:グラスリップ
Tags:glasslip P.A.Works opening op
BeatmapID:510687
BeatmapSetID:190577

[Difficulty]
HPDrainRate:7
CircleSize:4
OverallDifficulty:7
ApproachRate:8
SliderMultiplier:2.2
SliderTickRate:1

[Events]
//Background and Video events
0,0,"Hi I'm a background.jpg",0,0
Video,0,"I think it's a video but well idk how to name this so this will be the name of the video.avi"
//Break Periods
//Storyboard Layer 0 (Background)
//Storyboard Layer 1 (Fail)
//Storyboard Layer 2 (Pass)
//Storyboard Layer 3 (Foreground)
//Storyboard Sound Samples
//Background Colour Transformations
3,100,163,162,255

[TimingPoints]
542,560.747663551402,4,2,2,30,1,0
542,-133.333333333333,4,2,2,20,0,0
5027,-133.333333333333,4,2,1,40,0,0
6009,-133.333333333333,4,2,1,20,0,0
6990,-133.333333333333,4,2,1,40,0,0
7270,-133.333333333333,4,2,1,20,0,0
8672,-133.333333333333,4,2,1,20,0,0
9233,-133.333333333333,4,2,1,40,0,0
10495,-133.333333333333,4,2,1,20,0,0
11616,-133.333333333333,4,2,1,30,0,0
11756,-133.333333333333,4,2,1,20,0,0
12738,-133.333333333333,4,2,1,30,0,0
12878,-133.333333333333,4,2,1,20,0,0
13158,-133.333333333333,4,2,1,30,0,0
13299,-133.333333333333,4,2,1,20,0,0
13649,-133.333333333333,4,2,1,30,0,0
13719,-133.333333333333,4,2,1,40,0,0
15121,-133.333333333333,4,2,1,20,0,0
15962,-133.333333333333,4,2,1,30,0,0
16102,-133.333333333333,4,2,1,20,0,0
18485,-133.333333333333,4,2,1,40,0,0
19607,-133.333333333333,4,2,1,20,0,0
20588,-133.333333333333,4,2,1,30,0,0
20728,-133.333333333333,4,2,1,20,0,0
22341,-133.333333333333,4,2,1,30,0,0
22411,-133.333333333333,4,2,1,40,0,0
23953,-133.333333333333,4,2,1,20,0,0
24373,-133.333333333333,4,2,1,30,0,0
24513,-133.333333333333,4,2,1,20,0,0
24934,-133.333333333333,4,2,1,30,0,0
25074,-133.333333333333,4,2,1,20,0,0
26756,-133.333333333333,4,2,1,30,0,0
26897,-133.333333333333,4,2,1,20,0,0
27457,-133.333333333333,4,2,1,40,0,0
28439,-133.333333333333,4,2,1,20,0,0
29560,-133.333333333333,4,2,1,30,0,0
29700,-133.333333333333,4,2,1,20,0,0
29981,-133.333333333333,4,2,2,20,0,0
31943,-100,4,2,1,35,0,0
32084,-100,4,2,1,50,0,0
49887,-100,4,2,1,50,0,1
74560,-100,4,2,1,50,0,0
86301,-100,4,2,2,5,0,0

[Colours]
Combo1 : 255,255,0
Combo2 : 0,128,255
Combo3 : 255,128,0
Combo4 : 255,128,128

[HitObjects]
328,44,542,6,0,P|360:92|360:132,1,82.5000031471254,2|0,0:0|0:0,0:0:0:0:
356,148,962,1,2,0:0:0:0:
156,148,1242,1,0,0:0:0:0:
149,115,1383,2,0,P|157:75|184:44,1,82.5000031471254,2|0,0:0|0:0,0:0:0:0:
256,228,1943,1,0,0:0:0:0:
256,228,2084,2,0,L|256:336,1,82.5000031471254,2|0,0:0|0:0,0:0:0:0:
256,344,2504,1,2,0:0:0:0:
125,195,2784,6,0,L|148:116,1,82.5000031471254,2|0,0:0|0:0,0:0:0:0:
148,116,3205,1,2,0:0:0:0:
364,116,3485,1,0,0:0:0:0:
364,116,3626,2,0,L|386:195,1,82.5000031471254,2|0,0:0|0:0,0:0:0:0:
184,268,4186,1,0,0:0:0:0:
184,268,4327,2,0,P|144:284|76:268,1,82.5000031471254,2|0,0:0|0:0,0:0:0:0:
72,272,4747,1,2,0:0:0:0:
148,116,5027,6,0,L|125:195,1,82.5000031471254,0|0,1:0|0:0,0:0:0:0:
256,264,5448,2,0,L|256:172,1,82.5000031471254,0|0,1:0|0:0,0:0:0:0:
364,116,5869,2,0,L|387:195,1,82.5000031471254,0|0,1:0|0:0,0:0:0:0:
372,324,6429,5,2,0:0:0:0:
372,324,6570,2,0,P|336:344|284:344,1,82.5000031471254,0|2,0:0|0:0,0:0:0:0:
264,340,6990,1,2,0:0:0:0:
304,196,7270,5,0,0:0:0:0:
176,272,7551,1,0,0:0:0:0:
176,272,7691,2,0,P|156:236|156:184,1,82.5000031471254
160,164,8112,1,0,0:0:0:0:
304,196,8392,5,0,0:0:0:0:
224,72,8672,1,2,0:0:0:0:
224,72,8813,2,0,P|260:52|312:52,1,82.5000031471254,2|2,0:0|0:0,0:0:0:0:
332,56,9233,1,2,0:0:0:0:
304,196,9513,6,0,P|352:212|396:208,1,82.5000031471254,0|0,1:0|0:0,0:0:0:0:
208,188,9934,2,0,P|160:172|116:176,1,82.5000031471254,0|0,1:0|0:0,0:0:0:0:
256,276,10355,1,0,1:0:0:0:
256,276,10635,6,0,L|256:364,1,82.5000031471254
172,296,11056,2,0,B|172:272|172:272|172:224|216:204,1,82.5000031471254,0|0,0:0|0:0,0:0:0:0:
232,188,11476,1,2,0:0:0:0:
280,188,11616,1,2,0:0:0:0:
319,218,11756,2,0,B|340:240|340:268|340:268|340:294,1,82.5000031471254
192,220,12177,6,0,B|171:198|171:170|171:170|171:144,1,82.5000031471254,0|2,0:0|0:0,0:0:0:0:
176,112,12598,1,2,0:0:0:0:
192,84,12738,1,2,0:0:0:0:
220,68,12878,2,0,P|240:64|280:68,1,41.2500015735627,0|2,0:0|0:0,0:0:0:0:
396,108,13158,2,0,P|376:112|336:108,1,41.2500015735627,2|0,0:0|0:0,0:0:0:0:
476,36,13439,2,0,L|508:32,4,20.6250007867813,0|0|2|2|2,0:0|0:0|0:0|0:0|0:0,0:0:0:0:
500,132,13999,6,0,P|508:176|492:228,1,82.5000031471254,4|0,1:2|0:0,0:0:0:0:
400,328,14420,2,0,P|392:283|408:232,1,82.5000031471254,0|0,1:2|0:0,0:0:0:0:
304,132,14841,1,0,1:0:0:0:
304,132,15121,6,0,P|312:176|296:227,1,82.5000031471254,0|0,0:0|0:0,0:0:0:0:
288,240,15542,2,0,L|196:256,1,82.5000031471254
68,200,15962,2,0,L|108:192,1,41.2500015735627,2|2,0:0|0:0,0:0:0:0:
216,88,16242,2,0,L|124:104,1,82.5000031471254
268,168,16663,2,0,L|349:153,1,82.5000031471254
380,148,17084,1,0,0:0:0:0:
504,192,17364,6,0,P|476:228|444:248,1,82.5000031471254,0|2,0:0|0:0,0:0:0:0:
416,264,17784,2,0,P|368:252|304:256,1,82.5000031471254
304,264,18205,1,2,0:0:0:0:
180,304,18485,6,0,L|88:272,1,82.5000031471254,0|0,1:0|0:0,0:0:0:0:
16,156,18906,2,0,L|93:183,1,82.5000031471254,0|0,1:0|0:0,0:0:0:0:
240,152,19327,1,0,1:0:0:0:
240,152,19607,6,0,L|148:120,1,82.5000031471254
132,112,20027,2,0,P|92:92|72:56,1,82.5000031471254
168,24,20448,2,0,L|220:20,1,41.2500015735627,2|2,0:0|0:0,0:0:0:0:
308,80,20728,6,0,L|390:73,1,82.5000031471254
500,160,21149,2,0,L|418:167,1,82.5000031471254
384,172,21570,2,0,P|344:196|324:232,1,82.5000031471254
452,304,22130,2,0,L|476:332,4,20.6250007867813,0|0|2|2|2,0:0|0:0|0:0|0:0|0:0,0:0:0:0:
256,104,22691,1,2,0:0:0:0:
60,304,22971,6,0,P|40:268|36:216,1,82.5000031471254,0|0,1:0|0:0,0:0:0:0:
152,228,23392,2,0,P|152:186|175:139,1,82.5000031471254,0|0,1:0|0:0,0:0:0:0:
269,208,23813,2,0,P|290:172|333:143,1,82.5000031471254,0|0,1:0|0:0,0:0:0:0:
364,256,24233,6,0,P|385:243|413:231,1,41.2500015735627,2|2,0:0|0:0,0:0:0:0:
284,316,24513,2,0,P|262:329|234:341,1,41.2500015735627,0|0,0:0|0:0,0:0:0:0:
216,348,24794,1,2,0:0:0:0:
184,356,24934,1,2,0:0:0:0:
152,352,25074,1,2,0:0:0:0:
124,336,25214,2,0,P|105:298|101:242,1,82.5000031471254
96,224,25635,1,0,0:0:0:0:
256,104,25915,6,0,L|256:62,1,41.2500015735627
416,224,26336,2,0,P|416:268|396:312,1,82.5000031471254,0|2,0:0|0:0,0:0:0:0:
384,332,26756,1,2,0:0:0:0:
360,352,26897,1,0,0:0:0:0:
328,360,27037,1,0,0:0:0:0:
296,352,27177,1,2,0:0:0:0:
188,280,27457,6,0,L|168:188,1,82.5000031471254,0|0,1:0|0:0,0:0:0:0:
256,77,27878,2,0,L|256:160,1,82.5000031471254,0|0,1:0|0:0,0:0:0:0:
324,280,28299,2,0,L|344:188,1,82.5000031471254,0|0,1:0|0:0,0:0:0:0:
412,128,28859,5,0,0:0:0:0:
412,128,28999,2,0,P|436:164|432:228,1,82.5000031471254,0|0,0:0|0:0,0:0:0:0:
432,236,29420,1,2,0:0:0:0:
424,268,29560,1,2,0:0:0:0:
416,300,29700,1,0,0:0:0:0:
352,376,29981,5,2,0:0:0:0:
160,376,30261,1,2,0:0:0:0:
352,196,30542,1,2,0:0:0:0:
160,196,30822,1,2,0:0:0:0:
392,286,31102,2,0,P|417:274|436:253,1,41.2500015735627,0|2,0:0|0:0,0:0:0:0:
120,286,31523,2,0,P|95:274|76:253,1,41.2500015735627,0|2,0:0|0:0,0:0:0:0:
256,164,31943,6,0,L|256:52,1,110,4|2,1:2|0:0,0:0:0:0:
348,88,32364,1,0,0:0:0:0:
348,88,32504,2,0,L|348:144,1,55,0|0,1:0|0:0,0:0:0:0:
164,88,32784,2,0,L|164:208,1,110,2|0,0:0|1:0,0:0:0:0:
256,292,33345,1,2,0:0:0:0:
348,198,33626,2,0,P|372:176|404:168,1,55,0|0,1:0|0:0,0:0:0:0:
480,288,33906,2,0,P|456:310|424:318,1,55,2|0,0:0|0:0,0:0:0:0:
292,260,34186,2,0,P|264:208|276:156,1,110,0|2,1:0|0:0,0:0:0:0:
176,12,34747,6,0,P|204:64|192:116,1,110,0|2,1:0|0:0,0:0:0:0:
176,140,35168,1,0,0:0:0:0:
156,168,35308,2,0,P|136:208|144:272,1,110,0|2,1:0|0:0,0:0:0:0:
368,271,35869,2,0,P|377:217|356:168,1,110,0|2,1:0|0:0,0:0:0:0:
256,256,36429,2,0,L|256:368,2,110,0|2|0,1:0|0:0|1:0,0:0:0:0:
156,168,37270,5,2,0:0:0:0:
156,168,37411,1,0,0:0:0:0:
156,168,37551,2,0,P|140:108|164:52,1,110,0|2,1:0|0:0,0:0:0:0:
268,128,38112,1,0,1:0:0:0:
268,128,38252,1,0,0:0:0:0:
268,128,38392,2,0,P|328:140|392:116,1,110,2|0,0:0|1:0,0:0:0:0:
324,4,38953,1,2,0:0:0:0:
320,244,39233,2,0,B|312:304|312:304|284:348,1,110,0|2,1:0|0:0,0:0:0:0:
116,168,39794,2,0,B|124:108|124:108|152:64,1,110,0|2,1:0|0:0,0:0:0:0:
274,26,40355,6,0,P|329:28|376:56,1,110,0|2,1:0|0:0,0:0:0:0:
376,328,40915,2,0,P|340:352|268:356,1,110,0|2,1:0|0:0,0:0:0:0:
148,316,41476,1,0,1:0:0:0:
76,208,41756,2,0,L|48:158,1,55,2|0,0:0|0:0,0:0:0:0:
145,139,42037,2,0,L|146:20,1,110,0|2,1:0|0:0,0:0:0:0:
264,92,42598,1,0,1:0:0:0:
300,110,42738,1,0,0:0:0:0:
341,117,42878,1,2,0:0:0:0:
381,112,43018,1,2,0:0:0:0:
419,95,43158,6,0,P|444:152|436:204,1,110,0|2,1:0|0:0,0:0:0:0:
356,300,43719,2,0,B|304:320|304:320|244:316,1,110,0|2,1:0|0:0,0:0:0:0:
204,312,44140,1,0,0:0:0:0:
160,308,44280,2,4,P|108:291|74:249,1,110,0|2,1:0|0:0,0:0:0:0:
256,172,44841,1,0,1:0:0:0:
98,93,45121,2,4,P|132:50|183:34,1,110,2|0,0:0|1:0,0:0:0:0:
312,68,45682,2,0,B|364:84|364:84|428:80,1,110,2|0,0:0|1:0,0:0:0:0:
464,80,46102,1,0,0:0:0:0:
480,120,46242,1,2,0:0:0:0:
483,164,46383,1,2,0:0:0:0:
471,206,46523,1,0,1:0:0:0:
384,304,46803,5,2,0:0:0:0:
256,336,47084,2,0,P|204:312|140:312,1,110,0|2,1:0|0:0,0:0:0:0:
108,316,47504,1,0,0:0:0:0:
64,304,47644,2,0,P|21:268|10:213,2,110,0|2|0,1:0|0:0|1:0,0:0:0:0:
192,152,48485,1,2,0:0:0:0:
287,239,48766,5,8,0:0:0:0:
311,206,48906,1,8,0:0:0:0:
324,167,49046,1,8,1:2:0:0:
322,126,49186,1,8,0:0:0:0:
308,88,49327,1,8,0:0:0:0:
192,152,49607,1,8,0:0:0:0:
404,32,49887,6,0,P|440:112|432:200,1,165,4|0,1:2|0:0,0:0:0:0:
420,228,50448,2,0,P|388:280|320:300,1,110,8|2,0:0|0:0,0:0:0:0:
212,300,51009,2,0,P|163:275|136:228,1,110,0|2,1:0|0:0,0:0:0:0:
124,196,51429,1,0,0:0:0:0:
123,159,51570,2,0,P|120:132|124:100,1,55,8|0,0:0|0:0,0:0:0:0:
252,24,51850,2,0,P|255:51|250:83,1,55,2|0,0:0|0:0,0:0:0:0:
380,160,52130,6,0,P|376:100|400:48,1,110,0|2,1:0|0:0,0:0:0:0:
472,188,52691,1,8,0:0:0:0:
461,219,52831,1,0,0:0:0:0:
439,243,52971,1,2,0:0:0:0:
409,256,53112,1,0,0:0:0:0:
376,257,53252,1,0,1:0:0:0:
256,128,53532,5,0,0:0:0:0:
135,257,53813,1,8,0:0:0:0:
102,256,53953,1,0,0:0:0:0:
72,243,54093,1,2,0:0:0:0:
50,219,54233,1,0,0:0:0:0:
40,188,54373,1,0,1:0:0:0:
140,156,54654,5,0,0:0:0:0:
256,24,54934,1,8,0:0:0:0:
372,156,55214,1,2,0:0:0:0:
372,156,55355,1,0,0:0:0:0:
372,156,55495,2,0,L|484:168,1,110,0|2,1:0|0:0,0:0:0:0:
328,252,56056,2,0,L|218:240,1,110,8|2,0:0|0:0,0:0:0:0:
88,224,56616,5,0,1:0:0:0:
232,120,56897,1,2,0:0:0:0:
196,368,57177,1,8,0:0:0:0:
328,252,57457,1,2,0:0:0:0:
88,224,57738,5,0,1:0:0:0:
56,215,57878,1,0,0:0:0:0:
31,194,58018,1,8,0:0:0:0:
18,164,58158,1,8,0:0:0:0:
19,132,58299,1,0,1:0:0:0:
188,28,58579,1,8,0:0:0:0:
220,31,58719,1,8,0:0:0:0:
247,48,58859,6,0,P|284:72|356:68,1,110,0|2,1:0|0:0,0:0:0:0:
476,44,59420,2,0,P|500:84|492:160,1,110,8|2,0:0|0:0,0:0:0:0:
484,176,59841,1,0,0:0:0:0:
468,204,59981,2,0,B|439:252|439:252|372:292,1,110,0|2,1:0|0:0,0:0:0:0:
256,168,60542,2,0,L|192:152,1,55,8|0,0:0|0:0,0:0:0:0:
36,208,60822,2,0,L|89:221,1,55,2|0,1:2|0:0,0:0:0:0:
216,344,61102,2,0,L|109:317,2,110,0|2|8,1:0|0:0|0:0,0:0:0:0:
344,372,61943,5,2,0:0:0:0:
376,380,62084,2,0,P|408:384|436:376,1,55,0|0,0:0|1:0,0:0:0:0:
464,228,62364,2,0,L|512:220,2,27.5,0|2|0,0:0|0:0|0:0,0:0:0:0:
380,100,62644,1,0,0:0:0:0:
380,100,62784,2,0,P|320:84|256:96,1,110,8|2,0:0|0:0,0:0:0:0:
132,284,63345,6,0,P|192:299|256:287,1,110,0|2,1:0|0:0,0:0:0:0:
360,236,63906,1,8,0:0:0:0:
244,172,64186,2,0,L|192:144,1,55,2|0,0:0|0:0,0:0:0:0:
168,128,64467,1,0,1:0:0:0:
340,32,64747,1,10,0:0:0:0:
380,26,64887,1,8,0:0:0:0:
419,38,65027,1,0,1:0:0:0:
450,65,65168,1,8,0:0:0:0:
466,103,65308,1,10,0:0:0:0:
360,268,65588,6,0,P|304:280|236:256,1,110,0|2,1:0|0:0,0:0:0:0:
224,256,66009,1,0,0:0:0:0:
192,244,66149,2,0,B|138:228|138:228|79:236,1,110,8|2,0:0|0:0,0:0:0:0:
248,168,66710,2,0,B|301:183|301:183|360:175,1,110,0|2,1:0|0:0,0:0:0:0:
208,80,67270,1,8,0:0:0:0:
175,104,67411,1,0,0:0:0:0:
155,140,67551,1,2,1:2:0:0:
152,181,67691,1,0,0:0:0:0:
167,219,67831,1,0,1:0:0:0:
268,308,68112,6,0,P|316:280|372:280,1,110,2|8,0:0|0:0,0:0:0:0:
508,136,68672,2,0,P|464:160|404:164,1,110,2|0,0:0|1:0,0:0:0:0:
424,32,69233,1,2,0:0:0:0:
328,204,69513,1,8,0:0:0:0:
296,230,69654,1,0,0:0:0:0:
256,239,69794,1,2,3:0:0:0:
217,231,69934,1,0,0:0:0:0:
185,205,70074,1,0,1:0:0:0:
256,92,70355,1,0,0:0:0:0:
128,128,70635,5,8,0:0:0:0:
98,156,70775,1,0,0:0:0:0:
86,195,70915,1,2,0:0:0:0:
93,235,71056,1,0,0:0:0:0:
119,267,71196,2,0,P|128:296|128:336,1,55,0|8,1:0|0:0,0:0:0:0:
382,321,71616,2,0,P|384:293|392:267,1,55,0|8,1:0|0:0,0:0:0:0:
418,235,71897,1,0,0:0:0:0:
425,195,72037,1,2,0:0:0:0:
413,156,72177,1,0,0:0:0:0:
384,128,72317,2,0,P|372:100|372:64,1,55,0|8,1:0|0:0,0:0:0:0:
256,236,72738,6,0,L|256:296,1,55,0|8,1:0|0:0,0:0:0:0:
141,75,73158,1,2,1:2:0:0:
116,204,73439,1,8,1:2:0:0:
152,209,73579,1,8,0:0:0:0:
188,205,73719,1,8,0:0:0:0:
221,189,73859,1,8,0:0:0:0:
248,165,73999,1,8,1:2:0:0:
267,133,74140,1,8,0:0:0:0:
275,98,74280,1,8,0:0:0:0:
141,75,74560,5,4,1:2:0:0:
256,264,74841,1,2,0:0:0:0:
371,75,75121,1,8,0:0:0:0:
140,204,75401,1,2,0:0:0:0:
255,15,75682,1,0,1:0:0:0:
370,204,75962,1,2,0:0:0:0:
184,324,76242,6,0,P|124:336|64:308,1,110,8|2,0:0|0:0,0:0:0:0:
328,324,76803,2,0,P|388:336|448:308,1,110,0|2,1:0|0:0,0:0:0:0:
468,308,77224,1,0,0:0:0:0:
480,272,77364,1,8,0:0:0:0:
468,236,77504,1,0,0:0:0:0:
480,200,77644,1,2,0:0:0:0:
380,48,77925,6,0,L|377:102,1,55,0|8,1:0|0:0,0:0:0:0:
256,232,78345,2,0,L|258:177,1,55,0|8,1:0|0:0,0:0:0:0:
172,24,78766,1,10,0:0:0:0:
172,24,79046,6,0,B|136:68|136:68|124:120,1,110,0|2,1:0|0:0,0:0:0:0:
340,360,79607,2,0,B|375:316|375:316|388:264,1,110,8|2,0:0|0:0,0:0:0:0:
124,264,80168,2,0,B|136:316|136:316|171:360,1,110,0|2,1:0|0:0,0:0:0:0:
388,120,80728,2,0,B|375:68|375:68|340:24,1,110,8|2,0:0|0:0,0:0:0:0:
256,252,81289,2,0,L|256:368,2,110,0|2|8,1:0|0:0|1:2,0:0:0:0:
164,156,82130,5,0,1:0:0:0:
164,156,82270,1,8,0:0:0:0:
164,156,82411,2,0,P|152:112|172:52,1,110,0|8,1:0|0:0,0:0:0:0:
288,112,82971,2,0,L|360:128,1,55,8|0,0:0|1:0,0:0:0:0:
416,192,83252,1,8,0:0:0:0:
288,276,83532,1,4,1:2:0:0:
256,192,83672,12,2,86301,0:0:0:0:
