osu file format v13

[General]
AudioFilename: Choucho - Natsu no Hi to Kimi no Koe (TV size).mp3
AudioLeadIn: 1500
PreviewTime: 49004
Countdown: 0
SampleSet: Soft
StackLeniency: 0.7
Mode: 0
LetterboxInBreaks: 0
WidescreenStoryboard: 0

[Editor]
DistanceSpacing: 1.8
BeatDivisor: 4
GridSize: 4
TimelineZoom: 1.7

[Metadata]
Title:Natsu no Hi to Kimi no Koe (TV size ver.)
TitleUnicode:夏の日と君の声 (TV size ver.)
Artist:ChouCho
ArtistUnicode:ChouCho
Creator:Gaia
Version:Hard
Source:グラスリップ
Tags:Kibbleru Glasslip Opening ちょうちょ P.A.WORKS
BeatmapID:463098
BeatmapSetID:195103

[Difficulty]
HPDrainRate:5
CircleSize:4
OverallDifficulty:6
ApproachRate:7.5
SliderMultiplier:1.8
SliderTickRate:2

[Events]
//Background and Video events
Video,0,"Hnng Choucho.avi"
0,0,"lovepentagon.jpg",0,0
//Break Periods
//Storyboard Layer 0 (Background)
//Storyboard Layer 1 (Fail)
//Storyboard Layer 2 (Pass)
//Storyboard Layer 3 (Foreground)
//Storyboard Sound Samples
//Background Colour Transformations
3,100,163,162,255

[TimingPoints]
500,560.747663551402,4,2,1,20,1,0
4985,-100,4,2,1,35,0,0
31901,-100,4,2,1,50,0,0
32182,-80,4,2,1,50,0,0
47042,-80,4,2,1,50,0,0
48724,-80,4,2,1,55,0,0
49845,-80,4,2,4,60,0,1
49985,-80,4,2,1,60,0,1
65266,-100,4,2,1,60,0,1
65546,-100,4,2,3,60,0,1
65686,-100,4,2,1,60,0,1
66668,-100,4,2,3,60,0,1
66808,-100,4,2,1,60,0,1
74518,-100,4,2,4,55,0,0
74658,-100,4,2,1,55,0,0
83490,-100,4,2,4,55,0,0
83630,-100,4,2,1,10,0,0

[Colours]
Combo1 : 189,235,244
Combo2 : 255,170,255
Combo3 : 128,191,255
Combo4 : 139,243,152

[HitObjects]
284,64,500,6,0,P|332:68|372:100,1,90,2|2,0:0|0:0,0:0:0:0:
304,144,920,2,0,P|228:120|212:76,1,90,2|2,0:0|0:0,0:0:0:0:
184,44,1341,1,2,0:0:0:0:
44,124,1621,2,0,P|56:168|64:220,1,90,2|2,0:0|0:0,0:0:0:0:
108,280,2042,2,0,P|160:276|216:280,1,90,2|2,0:0|0:0,0:0:0:0:
272,316,2462,1,2,0:0:0:0:
344,172,2742,6,0,P|388:168|432:156,1,90,2|2,0:0|0:0,0:0:0:0:
512,180,3163,2,0,P|484:124|484:88,1,90,2|2,0:0|0:0,0:0:0:0:
472,16,3584,1,2,0:0:0:0:
312,40,3864,2,0,L|312:132,1,90,2|2,0:0|0:0,0:0:0:0:
296,208,4285,2,0,P|324:176|372:168,1,90,2|2,0:0|0:0,0:0:0:0:
364,248,4705,1,2,0:0:0:0:
504,320,4985,22,0,P|480:372|428:384,1,90,6|2,0:0|0:0,0:0:0:0:
380,348,5406,2,0,P|332:344|268:352,1,90,6|2,0:0|0:0,0:0:0:0:
212,372,5827,1,6,0:0:0:0:
68,296,6107,2,0,P|24:268|8:224,1,90,2|2,0:0|0:0,0:0:0:0:
88,220,6528,2,0,P|92:180|128:136,1,90,2|2,0:0|0:0,0:0:0:0:
192,112,6948,1,2,0:0:0:0:
340,180,7228,6,0,P|368:214|381:257,1,90,2|2,0:0|0:0,0:0:0:0:
364,336,7649,2,0,P|416:332|452:272,1,90,2|2,0:0|0:0,0:0:0:0:
472,232,8070,1,2,0:0:0:0:
476,72,8350,2,0,P|436:40|392:28,1,90,2|2,0:0|0:0,0:0:0:0:
320,52,8771,2,0,P|272:56|228:52,1,90,2|2,0:0|0:0,0:0:0:0:
152,32,9191,1,2,0:0:0:0:
20,128,9471,38,0,P|48:168|64:232,1,90,6|2,0:0|0:0,0:0:0:0:
72,288,9892,2,0,P|20:332|20:388,1,90,6|2,0:0|0:0,0:0:0:0:
96,368,10313,2,4,P|152:372|220:368,1,90,6|2,0:0|0:0,0:0:0:0:
344,340,10873,1,2,0:0:0:0:
420,308,11014,2,0,P|468:264|480:216,1,90,2|2,0:0|0:0,0:0:0:0:
488,160,11434,1,2,0:0:0:0:
340,92,11714,6,0,P|276:104|256:132,1,90,2|2,0:0|0:0,0:0:0:0:
324,168,12135,2,0,P|308:236|268:284,1,90,2|2,0:0|0:0,0:0:0:0:
232,300,12556,1,2,0:0:0:0:
192,144,12836,2,0,P|120:152|84:172,1,90,2|2,0:0|0:0,0:0:0:0:
24,176,13257,2,0,P|60:112|52:64,1,90,2|2,0:0|0:0,0:0:0:0:
80,20,13677,1,2,0:0:0:0:
240,24,13957,6,0,P|236:92|248:160,1,135,6|6,0:0|0:0,0:0:0:0:
168,152,14518,2,0,L|108:148,1,45,6|0,0:0|0:0,0:0:0:0:
48,124,14799,2,0,P|56:188|52:236,1,90,6|2,0:0|0:0,0:0:0:0:
36,372,15359,2,0,L|116:376,1,45,2|0,0:0|0:0,0:0:0:0:
156,368,15640,1,2,0:0:0:0:
304,296,15920,2,0,P|336:284|364:268,1,45,2|0,0:0|0:0,0:0:0:0:
416,316,16200,6,0,P|407:271|408:226,2,90,2|2|2,0:0|0:0|0:0,0:0:0:0:
484,168,17042,2,0,P|412:128|328:172,1,180,2|2,0:0|0:0,0:0:0:0:
284,100,17742,1,2,0:0:0:0:
108,264,18163,1,2,0:0:0:0:
108,264,18443,22,0,P|64:268|16:264,1,90,6|2,0:0|0:0,0:0:0:0:
64,195,18864,2,0,P|108:191|153:195,1,90,6|2,0:0|0:0,0:0:0:0:
188,272,19285,2,0,P|231:222|225:153,1,135,6|0,0:0|0:0,0:0:0:0:
164,104,19845,2,0,P|200:128|272:88,1,135,2|2,0:0|0:0,0:0:0:0:
348,56,20406,1,2,0:0:0:0:
376,40,20546,1,0,0:0:0:0:
408,40,20686,6,0,P|452:64|472:116,1,90,2|0,0:0|0:0,0:0:0:0:
444,168,21107,2,0,P|436:220|448:272,1,90,2|2,0:0|0:0,0:0:0:0:
476,332,21528,1,2,0:0:0:0:
292,348,21808,2,0,P|268:304|288:244,1,90,2|0,0:0|0:0,0:0:0:0:
320,200,22228,2,0,P|268:204|192:200,1,90,2|2,0:0|0:0,0:0:0:0:
176,264,22649,1,2,0:0:0:0:
20,216,22929,38,0,P|36:136|20:52,1,135,6|6,0:0|0:0,0:0:0:0:
100,44,23490,2,0,P|156:52|204:36,1,90,2|6,0:0|0:0,0:0:0:0:
352,44,24051,1,0,0:0:0:0:
460,164,24331,2,0,L|456:104,1,45,2|2,0:0|0:0,0:0:0:0:
388,164,24612,2,0,P|392:216|392:264,1,90,2|0,0:0|0:0,0:0:0:0:
244,320,25172,5,2,0:0:0:0:
272,160,25453,2,0,L|252:108,1,45,2|2,0:0|0:0,0:0:0:0:
196,172,25733,2,0,L|164:244,1,45
156,292,26014,2,0,L|264:236,1,90,2|0,0:0|0:0,0:0:0:0:
348,136,26574,2,0,P|380:168|392:228,2,90,2|2|2,0:0|0:0|0:0,0:0:0:0:
204,60,27415,6,0,P|160:72|112:124,1,90,4|2,0:0|0:0,0:0:0:0:
72,160,27836,2,0,P|80:200|68:256,1,90,4|0,0:0|0:0,0:0:0:0:
124,312,28257,2,0,P|158:340|201:351,1,90,6|2,0:0|0:0,0:0:0:0:
356,308,28817,2,0,P|400:276|408:228,1,90,2|2,0:0|0:0,0:0:0:0:
328,232,29238,2,0,L|276:231,1,45,2|2,0:0|0:0,0:0:0:0:
236,44,29658,5,2,0:0:0:0:
96,160,29939,2,0,L|64:184,2,22.5,2|2|2,0:0|0:0|0:0,0:0:0:0:
176,168,30219,1,2,0:0:0:0:
316,184,30500,1,2,0:0:0:0:
236,44,30780,2,0,P|191:53|158:91,1,90,2|2,0:0|0:0,0:0:0:0:
232,122,31200,2,0,P|280:142|336:142,1,90,2|2,0:0|0:0,0:0:0:0:
392,124,31621,1,2,0:0:0:0:
204,268,31901,5,4,0:0:0:0:
340,216,32182,2,0,B|396:224|396:208|452:216,1,112.5,0|4,0:0|0:0,0:0:0:0:
360,76,32742,2,0,B|304:68|304:84|248:76,1,112.5,2|4,0:0|0:0,0:0:0:0:
108,168,33303,2,0,P|104:112|109:56,1,112.5,2|4,0:0|0:0,0:0:0:0:
268,112,33864,2,0,P|272:168|268:224,1,112.5,2|4,0:0|0:0,0:0:0:0:
128,320,34425,22,0,L|104:228,1,56.25,2|2,0:0|0:0,0:0:0:0:
196,272,34705,2,0,P|228:272|276:264,1,56.25,4|2,0:0|0:0,0:0:0:0:
328,300,34985,2,0,L|404:276,1,56.25
452,236,35266,2,0,P|444:180|444:120,1,112.5,4|2,0:0|0:0,0:0:0:0:
360,112,35686,1,2,0:0:0:0:
276,116,35827,2,0,L|248:60,1,56.25,4|2,0:0|0:0,0:0:0:0:
176,100,36107,2,0,L|149:149,1,56.25
100,216,36387,6,0,B|152:240|196:212|196:212|209:226,1,112.5,4|0,0:0|0:0,0:0:0:0:
364,180,36948,2,0,B|312:156|268:184|268:184|255:170,1,112.5,4|2,0:0|0:0,0:0:0:0:
92,148,37509,2,0,L|112:0,1,112.5,4|2,0:0|0:0,0:0:0:0:
192,184,38070,2,0,L|176:316,1,112.5,4|2,0:0|0:0,0:0:0:0:
348,292,38630,6,0,P|388:232|384:164,1,112.5,4|2,0:0|0:0,0:0:0:0:
360,116,39051,1,2,0:0:0:0:
360,116,39191,1,4,0:0:0:0:
172,60,39471,2,0,L|140:20,2,28.125,2|2|2,0:0|0:0|0:0,0:0:0:0:
244,108,39752,1,6,0:0:0:0:
84,156,40032,2,0,P|68:192|72:236,1,56.25,2|2,0:0|0:0,0:0:0:0:
84,284,40313,2,0,P|122:323|177:334,1,112.5,4|2,0:0|0:0,0:0:0:0:
388,320,40873,22,0,P|380:248|384:188,1,112.5,4|2,0:0|0:0,0:0:0:0:
264,104,41434,2,0,P|272:168|264:222,1,112.5,4|2,0:0|0:0,0:0:0:0:
128,316,41995,1,4,0:0:0:0:
128,316,42275,2,0,L|112:248,1,56.25,2|0,0:0|0:0,0:0:0:0:
72,180,42556,2,0,L|96:128,1,56.25,2|0,0:0|0:0,0:0:0:0:
184,116,42836,2,0,L|240:156,1,56.25,2|0,0:0|0:0,0:0:0:0:
308,196,43116,6,0,P|252:192|180:200,1,112.5,4|2,0:0|0:0,0:0:0:0:
348,56,43677,2,0,P|402:67|441:107,1,112.5,4|2,0:0|0:0,0:0:0:0:
188,252,44238,2,0,P|170:198|185:145,1,112.5,4|2,0:0|0:0,0:0:0:0:
452,272,44799,2,0,P|415:313|361:327,1,112.5,4|2,0:0|0:0,0:0:0:0:
256,192,45359,12,2,46481,0:0:0:0:
216,80,47042,5,6,0:0:0:0:
280,260,47322,1,2,0:0:0:0:
368,92,47602,6,0,P|376:176|360:240,1,112.5,6|2,0:0|0:0,0:0:0:0:
144,292,48163,2,0,P|136:208|152:144,1,112.5,6|2,0:0|0:0,0:0:0:0:
276,44,48724,6,0,P|300:92|300:128,1,56.25,8|8,0:0|0:0,0:0:0:0:
216,108,49004,2,0,P|206:161|216:196,1,56.25,8|8,0:0|0:0,0:0:0:0:
216,248,49285,1,10,0:0:0:0:
216,248,49565,1,10,0:0:0:0:
216,248,49845,6,0,P|236:304|316:336,1,112.5,4|2,0:0|0:0,0:0:0:0:
432,260,50406,2,0,L|322:241,1,112.5,14|2,0:0|0:0,0:0:0:0:
276,76,50967,2,0,P|326:98|349:149,1,112.5,6|2,0:0|0:0,0:0:0:0:
264,272,51528,2,0,L|268:340,1,56.25,12|0,0:0|0:0,0:0:0:0:
188,296,51808,2,0,L|184:228,1,56.25,2|0,0:0|0:0,0:0:0:0:
176,156,52088,5,6,0:0:0:0:
176,156,52369,2,0,P|152:92|92:60,1,112.5,2|14,0:0|0:0,0:0:0:0:
272,140,52929,2,0,L|356:132,1,56.25,2|2,0:0|0:0,0:0:0:0:
408,104,53210,2,0,P|404:160|412:224,1,112.5,6|2,0:0|0:0,0:0:0:0:
384,296,53630,2,0,L|440:300,1,56.25,2|12,0:0|0:0,0:0:0:0:
204,308,54051,2,0,L|140:320,1,56.25,2|0,0:0|0:0,0:0:0:0:
100,252,54331,22,0,P|80:184|112:136,1,112.5,6|2,0:0|0:0,0:0:0:0:
212,24,54892,2,0,P|272:28|356:20,1,112.5,14|2,0:0|0:0,0:0:0:0:
484,120,55453,2,0,L|456:52,1,56.25,6|0,0:0|0:0,0:0:0:0:
404,128,55733,2,0,L|400:204,1,56.25,2|0,0:0|0:0,0:0:0:0:
324,148,56014,2,0,L|284:80,1,56.25,14|0,0:0|0:0,0:0:0:0:
252,172,56294,2,0,L|236:260,1,56.25,2|0,0:0|0:0,0:0:0:0:
292,296,56574,5,6,0:0:0:0:
448,364,56855,2,0,P|484:316|472:240,1,112.5,2|14,0:0|0:0,0:0:0:0:
436,104,57415,2,0,P|368:80|296:108,1,112.5,2|6,0:0|0:0,0:0:0:0:
172,144,57976,2,0,L|164:200,1,56.25,2|0,0:0|0:0,0:0:0:0:
240,236,58257,2,0,L|328:236,1,56.25,14|0,0:0|0:0,0:0:0:0:
368,192,58537,1,2,0:0:0:0:
340,24,58817,6,0,P|395:18|446:40,2,112.5,6|2|14,0:0|0:0|0:0,0:0:0:0:
188,96,59658,2,0,P|152:164|172:240,1,112.5,2|6,0:0|0:0,0:0:0:0:
236,344,60219,2,0,L|336:332,1,56.25,2|0,0:0|0:0,0:0:0:0:
292,252,60500,2,0,L|328:196,1,56.25,14|0,0:0|0:0,0:0:0:0:
404,196,60780,2,0,P|484:164|544:204,1,112.5,2|6,0:0|0:0,0:0:0:0:
404,196,61341,6,0,P|384:112|364:72,1,112.5,2|14,0:0|0:0,0:0:0:0:
180,52,61901,1,2,0:0:0:0:
156,84,62042,1,2,0:0:0:0:
140,120,62182,2,0,P|140:176|192:216,1,112.5,6|2,0:0|0:0,0:0:0:0:
260,232,62602,2,0,P|288:264|300:304,1,56.25,2|14,0:0|0:0,0:0:0:0:
148,372,63023,1,2,0:0:0:0:
44,240,63303,22,0,P|28:184|56:120,1,112.5,6|0,0:0|0:0,0:0:0:0:
200,64,63864,2,0,P|256:48|320:76,1,112.5,14|0,0:0|0:0,0:0:0:0:
456,140,64425,2,0,P|473:193|457:247,2,112.5,6|0|14,0:0|0:0|0:0,0:0:0:0:
292,92,65266,6,0,P|202:72|127:154,1,180,2|2,0:0|0:0,0:0:0:0:
300,192,66107,1,12,0:0:0:0:
292,92,66387,2,0,P|215:141|220:252,1,180,2|2,0:0|0:0,0:0:0:0:
449,216,67228,2,0,P|452:172|444:128,1,90,14|2,0:0|0:0,0:0:0:0:
336,236,67789,6,0,P|331:281|335:326,1,90,6|2,0:0|0:0,0:0:0:0:
256,152,68350,1,14,0:0:0:0:
180,296,68630,1,2,0:0:0:0:
60,188,68911,1,6,0:0:0:0:
60,188,69051,2,0,P|104:191|149:187,1,90,8|0,0:0|0:0,0:0:0:0:
192,120,69471,1,14,0:0:0:0:
272,276,69752,1,10,0:0:0:0:
256,80,70032,5,6,0:0:0:0:
344,216,70313,1,0,0:0:0:0:
184,196,70593,1,14,0:0:0:0:
380,92,70873,1,2,0:0:0:0:
248,188,71154,1,6,0:0:0:0:
248,188,71294,2,0,P|264:232|272:288,1,90,8|0,0:0|0:0,0:0:0:0:
344,240,71714,1,14,0:0:0:0:
344,240,71995,2,0,L|408:256,1,45,2|0,0:0|0:0,0:0:0:0:
460,284,72275,22,0,P|408:304|336:328,1,90,6|2,0:0|0:0,0:0:0:0:
216,340,72836,2,0,L|300:308,1,90,10|2,0:0|0:0,0:0:0:0:
164,292,73397,2,0,P|124:284|88:260,1,45,14|8,0:0|0:0,0:0:0:0:
172,220,73677,2,0,P|135:201|106:169,1,45,10|8,0:0|0:0,0:0:0:0:
192,144,73957,2,0,P|161:117|142:78,1,45,6|8,0:0|0:0,0:0:0:0:
140,36,74238,1,8,0:0:0:0:
40,196,74518,6,0,P|16:144|20:96,2,90,4|2|14,0:0|0:0|0:0,0:0:0:0:
160,308,75359,2,0,P|220:332|276:304,2,90,2|6|2,0:0|0:0|0:0,0:0:0:0:
212,144,76200,2,0,L|324:100,1,90,14|2,0:0|0:0,0:0:0:0:
452,60,76761,6,0,P|448:128|456:192,1,90,6|2,0:0|0:0,0:0:0:0:
404,300,77322,1,14,0:0:0:0:
252,360,77602,2,0,P|188:368|140:360,1,90,2|6,0:0|0:0,0:0:0:0:
72,208,78163,2,0,P|72:256|60:304,2,90,2|14|10,0:0|0:0|0:0,0:0:0:0:
244,108,79004,6,0,P|296:96|344:112,2,90,2|2|10,0:0|0:0|0:0,0:0:0:0:
295,247,79845,2,0,P|304:292|288:340,2,90,2|6|2,0:0|0:0|0:0,0:0:0:0:
140,300,80686,2,0,L|230:289,1,90,14|2,0:0|0:0,0:0:0:0:
360,200,81247,6,0,L|376:252,2,45,14|8|10,0:0|0:0|0:0,0:0:0:0:
356,40,81808,2,0,L|424:40,1,45,14|8,0:0|0:0,0:0:0:0:
368,112,82088,2,0,L|316:112,1,45,8|8,0:0|0:0,0:0:0:0:
256,156,82369,2,0,P|260:200|252:272,1,90,4|10,0:0|0:0,0:0:0:0:
104,200,82929,2,0,L|44:200,2,45,6|10|8,0:0|0:0|0:0,0:0:0:0:
320,280,83490,5,4,0:0:0:0:
256,192,83771,12,0,87976,0:0:0:0:
