osu file format v13

[General]
AudioFilename: Glasslip Opening.mp3
AudioLeadIn: 2000
PreviewTime: 49048
Countdown: 0
SampleSet: Soft
StackLeniency: 0.7
Mode: 0
LetterboxInBreaks: 0
WidescreenStoryboard: 0

[Editor]
DistanceSpacing: 1.1
BeatDivisor: 4
GridSize: 4
TimelineZoom: 1

[Metadata]
Title:Natsu no Hi to Kimi no Koe (TV size ver.)
TitleUnicode:夏の日と君の声 (TV size ver.)
Artist:ChouCho
ArtistUnicode:ChouCho
Creator:AliomLoung
Version:Easy
Source:GLASSLIP
Tags:グラスリップ opening p.a.works ちょうちょ iamkwan yf_bmp size project
BeatmapID:494816
BeatmapSetID:203721

[Difficulty]
HPDrainRate:2
CircleSize:3
OverallDifficulty:1.5
ApproachRate:3
SliderMultiplier:0.9
SliderTickRate:1

[Events]
//Background and Video events
0,0,"687474703a2f2f7075752e73682f64344a47382f633035383130323730332e706e67.png",0,0
Video,-76,"TV.avi"
//Break Periods
//Storyboard Layer 0 (Background)
//Storyboard Layer 1 (Fail)
//Storyboard Layer 2 (Pass)
//Storyboard Layer 3 (Foreground)
//Storyboard Sound Samples

[TimingPoints]
544,560.747663551402,4,2,1,35,1,0
5029,-100,4,2,3,30,0,0
16665,-100,4,2,1,30,0,0
17506,-100,4,2,3,30,0,0
21151,-100,4,2,1,30,0,0
21992,-100,4,2,3,30,0,0
24796,-100,4,2,1,20,0,0
25637,-100,4,2,3,30,0,0
29001,-100,4,2,1,30,0,0
29282,-100,4,2,3,30,0,0
31945,-100,4,2,1,40,0,0
32506,-100,4,2,2,30,0,0
34609,-100,4,2,2,20,0,0
34889,-100,4,2,2,30,0,0
35730,-100,4,2,2,20,0,0
36011,-100,4,2,2,30,0,0
39095,-100,4,2,2,20,0,0
39375,-100,4,2,2,30,0,0
43581,-100,4,2,2,20,0,0
43861,-100,4,2,2,30,0,0
44142,-100,4,2,2,20,0,0
44422,-100,4,2,2,30,0,0
47646,-100,4,2,1,30,0,0
49889,-100,4,2,1,40,0,1
57039,-100,4,2,3,30,0,1
57319,-100,4,2,2,40,0,1
57600,-100,4,2,1,20,0,1
57880,-100,4,2,1,40,0,1
63347,-100,4,2,2,20,0,1
66011,-100,4,2,3,30,0,1
66291,-100,4,2,1,40,0,1
68254,-100,4,2,3,30,0,1
68534,-100,4,2,1,40,0,1
70637,-100,4,2,2,35,0,1
71198,-100,4,2,2,20,0,1
71758,-100,4,2,2,30,0,1
72319,-100,4,2,2,20,0,1
72880,-100,4,2,1,40,0,1
73441,-100,4,2,2,40,0,1
74562,-100,4,2,1,30,0,0
74983,-100,4,2,3,25,0,0
75263,-100,4,2,1,30,0,0
77226,-100,4,2,3,25,0,0
77506,-100,4,2,1,30,0,0
81712,-100,4,2,3,40,0,0
81992,-100,4,2,2,30,0,0
83534,-100,4,2,1,35,0,0
84095,-100,4,2,1,30,0,0
84656,-100,4,2,1,25,0,0
85216,-100,4,2,1,20,0,0
85777,-100,4,2,1,15,0,0
86338,-100,4,2,1,10,0,0
86899,-100,4,2,1,5,0,0

[Colours]
Combo1 : 255,104,104
Combo2 : 168,84,0
Combo3 : 255,255,85
Combo4 : 255,148,40

[HitObjects]
288,184,544,6,0,P|328:176|360:148,2,67.5,2|0|2,0:0|0:0|0:0,0:0:0:0:
252,152,1665,2,0,P|243:111|215:79,2,67.5,2|0|2,0:0|0:0|0:0,0:0:0:0:
232,196,2786,2,0,P|191:204|159:232,2,67.5,2|0|2,0:0|0:0|0:0,0:0:0:0:
280,212,3908,1,2,0:0:0:0:
472,260,5029,6,0,P|479:292|470:324,2,67.5,4|4|4,0:0|0:0|0:0,0:0:0:0:
432,228,6151,2,0,P|424:180|440:148,1,67.5,2|0,0:0|0:0,0:0:0:0:
404,44,7272,2,0,P|437:39|470:45,2,67.5,2|0|2,0:0|0:0|0:0,0:0:0:0:
366,76,8394,2,0,P|333:83|301:73,1,67.5,2|0,0:0|0:0,0:0:0:0:
180,99,9515,6,0,P|176:62|196:21,2,67.5,4|0|0,0:0|0:0|0:0,0:0:0:0:
172,148,10637,2,0,L|84:147,1,67.5,2|0,0:0|0:0,0:0:0:0:
116,272,11758,2,0,L|48:272,2,67.5,2|0|2,0:0|0:0|0:0,0:0:0:0:
164,272,12880,2,0,P|208:272|240:252,1,67.5,2|0,0:0|0:0,0:0:0:0:
328,192,14001,6,0,L|328:280,2,67.5,4|4|4,0:0|0:0|0:0,0:0:0:0:
256,124,15403,2,0,P|216:108|172:124,1,90,2|0,0:0|0:0,0:0:0:0:
160,172,16244,2,0,L|192:320,2,135,0|2|0,0:0|0:0|0:0,0:0:0:0:
96,96,18487,6,0,L|140:28,2,67.5,4|4|4,0:0|0:0|0:0,0:0:0:0:
80,196,19889,2,0,P|97:237|140:266,1,90,2|0,0:0|0:0,0:0:0:0:
180,280,20730,2,0,P|228:296|312:264,2,135,0|2|0,0:0|0:0|0:0,0:0:0:0:
80,276,22973,6,0,L|40:352,2,67.5,4|4|4,0:0|0:0|0:0,0:0:0:0:
100,180,24375,2,0,P|114:125|81:52,2,135,2|0|2,0:0|0:0|0:0,0:0:0:0:
160,260,26618,2,0,P|204:272|248:248,1,90,2|0,0:0|0:0,0:0:0:0:
292,264,27459,6,0,L|340:328,2,67.5,4|4|4,0:0|0:0|0:0,0:0:0:0:
316,220,28581,2,0,P|348:148|324:92,1,135,2|0,0:0|0:0,0:0:0:0:
240,60,29983,2,0,P|198:45|154:61,1,90,2|2,0:0|0:0,0:0:0:0:
128,100,30824,2,0,P|117:142|132:184,1,90,2|2,0:0|0:0,0:0:0:0:
192,264,31945,6,0,P|231:273|287:263,1,90,4|8,0:0|0:0,0:0:0:0:
368,220,33067,2,0,P|383:161|378:130,1,90,8|8,0:0|0:0,0:0:0:0:
477,138,34188,2,0,B|481:214|463:242|463:242|472:289|436:320,2,180,8|0|8,0:0|0:0|0:0,0:0:0:0:
404,68,36992,5,8,0:0:0:0:
304,68,37553,2,0,B|256:68|256:68|196:68,1,90,8|8,0:0|0:0,0:0:0:0:
116,60,38674,2,0,B|116:120|116:120|144:168|144:168|144:248,1,180,8|8,0:0|0:0,0:0:0:0:
236,268,40357,1,8,0:0:0:0:
264,172,40917,5,8,0:0:0:0:
352,124,41478,2,0,P|365:166|356:212,1,90,8|8,0:0|0:0,0:0:0:0:
328,304,42600,1,8,0:0:0:0:
236,336,43160,2,0,B|179:352|141:329|141:329|103:346,2,135,8|0|8,0:0|0:0|0:0,0:0:0:0:
192,248,45403,6,0,P|139:191|134:165,1,90,8|8,0:0|0:0,0:0:0:0:
40,200,46525,2,0,P|40:155|61:116,1,90,8|8,0:0|0:0,0:0:0:0:
141,58,47646,2,0,P|203:52|279:73,1,135,2|2,0:0|0:0,0:0:0:0:
351,304,49889,6,0,P|343:255|368:201,2,90,4|8|0,0:0|0:0|0:0,0:0:0:0:
256,328,51572,1,8,0:0:0:0:
161,303,52132,2,0,P|169:260|156:217,1,90,0|8,0:0|0:0,0:0:0:0:
112,128,53254,2,0,L|40:156,2,67.5,2|2|0,0:0|0:0|0:0,0:0:0:0:
156,104,54375,6,0,L|200:116|244:128,1,90,0|8,0:0|0:0,0:0:0:0:
292,216,55497,2,0,P|344:200|392:180,1,90,0|8,0:0|0:0,0:0:0:0:
428,272,56618,2,0,P|468:224|468:148,2,135,0|0|8,0:0|0:0|0:0,0:0:0:0:
332,256,58861,6,0,P|296:232|264:192,1,90,0|8,0:0|0:0,0:0:0:0:
288,100,59983,2,0,P|340:136|360:164,1,90,0|8,0:0|0:0,0:0:0:0:
408,240,61104,1,0,0:0:0:0:
376,332,61665,1,8,0:0:0:0:
280,316,62226,2,0,L|216:348,2,67.5,2|2|0,0:0|0:0|0:0,0:0:0:0:
304,272,63347,6,0,P|292:220|316:176,1,90,4|8,0:0|0:0,0:0:0:0:
400,152,64469,2,0,P|408:104|388:56,1,90,4|8,0:0|0:0,0:0:0:0:
296,56,65590,2,0,P|256:72|116:60,1,180,4|0,0:0|0:0,0:0:0:0:
52,136,67272,1,8,0:0:0:0:
84,228,67833,6,0,B|116:276|168:272|168:272|208:232|248:240,1,180
332,204,69515,1,8,0:0:0:0:
260,136,70076,2,0,P|212:136|168:160,1,90,2|4,0:0|0:0,0:0:0:0:
104,224,71198,1,4,0:0:0:0:
52,140,71758,1,4,0:0:0:0:
136,88,72319,6,0,L|228:72,1,90,4|8,0:0|0:0,0:0:0:0:
288,148,73441,2,0,L|192:168,1,90,2|2,0:0|0:0,0:0:0:0:
184,264,74562,6,0,P|224:308|340:316,1,180,4|0,0:0|0:0,0:0:0:0:
424,268,76244,1,8,0:0:0:0:
376,180,76805,2,0,P|336:136|220:128,1,180
144,188,78487,1,8,0:0:0:0:
112,280,79048,6,0,P|152:316|192:324,1,90,0|8,0:0|0:0,0:0:0:0:
244,240,80170,2,0,L|340:240,1,90,0|8,0:0|0:0,0:0:0:0:
430,218,81291,2,0,P|411:302|329:341,1,180,0|0,0:0|0:0,0:0:0:0:
256,280,82973,2,0,L|256:184,1,90,2|4,0:0|0:0,0:0:0:0:
256,192,83815,12,0,87179,0:0:0:0:
