osu file format v9

[General]
AudioFilename: Million of Bravery.mp3
AudioLeadIn: 1500
PreviewTime: 62684
Countdown: 0
SampleSet: Soft
StackLeniency: 0.7
Mode: 0
LetterboxInBreaks: 0

[Editor]
DistanceSpacing: 1
BeatDivisor: 4
GridSize: 8

[Metadata]
Title:Million of Bravery
Artist:ChouCho
Creator:kioukiou
Version:Hard
Source:Kaku-San-Sei Million Arthur
Tags:Square Enix

[Difficulty]
HPDrainRate:4
CircleSize:4
OverallDifficulty:5
ApproachRate:6
SliderMultiplier:1.4
SliderTickRate:1

[Events]
//Background and Video events
0,0,"BG.jpg"
//Break Periods
2,14884,25634
2,89684,99134
2,176884,190634
2,217384,220634
//Storyboard Layer 0 (Background)
//Storyboard Layer 1 (Fail)
//Storyboard Layer 2 (Pass)
//Storyboard Layer 3 (Foreground)
//Storyboard Sound Samples
//Background Colour Transformations
3,100,163,162,255

[TimingPoints]
1184,375,4,2,1,70,1,0
11684,-100,4,2,1,5,0,0
14684,-100,4,2,1,80,0,0
26965,-100,4,1,1,60,0,0
27152,-100,4,2,1,80,0,0
27715,-100,4,1,1,60,0,0
27902,-100,4,2,1,80,0,0
28184,-100,4,1,1,60,0,0
28652,-100,4,2,1,80,0,0
49934,-133.333333333333,4,2,1,80,0,0
55746,-100,4,2,1,80,0,0
62684,-100,4,2,1,90,0,0
100184,-100,4,2,1,70,0,0
113684,-100,4,2,1,80,0,0
113965,-100,4,1,1,60,0,0
114152,-100,4,2,1,80,0,0
114715,-100,4,1,1,60,0,0
114902,-100,4,2,1,80,0,0
115277,-100,4,1,1,60,0,0
115652,-100,4,2,1,80,0,0
137684,-100,4,2,1,90,0,0
191684,-133.333333333333,4,2,1,70,0,0
203684,-100,4,2,1,70,0,0
214184,-100,4,2,1,5,0,0
221684,-100,4,2,1,90,0,0
248684,-100,4,2,1,40,0,0
251684,-100,4,2,1,5,0,0

[Colours]
Combo1 : 255,150,0
Combo2 : 200,251,26
Combo3 : 36,146,255
Combo4 : 240,5,5

[HitObjects]
464,136,1184,2,0,B|424:72|352:56,2,140,2|0|2
464,208,2121,1,0
464,280,2309,2,0,B|464:360,2,70,0|0|2
328,280,3059,2,0,B|240:280,1,70
208,328,3434,2,0,B|40:328,1,140,2|0
32,192,4184,5,2
256,32,4934,1,2
480,192,5684,1,2
408,328,6059,1,2
256,352,6434,1,2
64,320,7184,6,0,B|16:272|-8:192|16:104|72:64,1,280,2|2
208,88,8309,1,0
344,72,8684,1,2
480,96,9059,1,0
488,168,9246,1,0
496,240,9434,1,2
376,312,9809,6,0,B|352:280|312:280,1,70
240,280,10184,2,0,B|88:280,1,140,2|0
152,152,10934,2,0,B|304:152,1,140,2|0
256,192,11684,12,0,12996
256,192,13184,12,4,14684
144,48,26684,6,0,B|192:112|144:184,1,140,4|0
77,178,27246,2,0,B|237:177,1,140,4|0
287,177,27809,1,0
356,177,27996,1,4
424,304,28371,1,0
352,304,28559,1,0
280,304,28746,1,4
144,304,29121,6,0,B|80:264|16:248,1,140
16,176,29684,2,0,B|16:88,1,70,4|2
88,88,30059,2,0,B|88:176,1,70,8|2
224,160,30621,1,2
296,160,30809,1,8
368,160,30996,1,2
512,160,31371,1,2
368,240,31746,1,2
512,240,32121,2,0,B|512:328,2,70,2|8|8
512,160,32684,6,0,B|488:80|400:64,1,140,4|8
328,176,33434,1,0
192,176,33809,1,8
96,67,34184,2,0,B|24:80|0:160,1,140,0|8
88,264,34934,1,0
136,320,35121,1,0
192,368,35309,1,8
328,368,35684,6,0,B|368:296|440:288,1,140,4|0
432,216,36246,2,0,B|363:208|323:136,1,140
184,104,36996,1,4
48,128,37371,2,0,B|40:88|0:64,2,70,4|4|4
361,282,38684,6,0,B|340:383|164:383|148:271,1,280,4|0
203,67,40184,2,0,B|204:19|308:19|308:70,2,140
456,192,41684,5,4
392,320,42059,1,8
256,344,42434,1,0
184,336,42621,1,0
112,328,42809,2,0,B|96:256|24:224,1,140,8|0
16,88,43559,1,8
136,24,43934,1,0
256,88,44309,1,8
328,96,44496,1,8
400,104,44684,6,0,B|416:176|488:208,1,140,4|8
392,312,45434,1,0
256,272,45809,1,8
120,312,46184,1,0
256,272,46559,1,8
256,136,46934,2,0,B|256:48,2,70,0|0|8
392,144,47684,6,0,B|432:208|496:240,1,140,0|8
456,304,48246,2,0,B|416:368,1,70
360,320,48621,2,0,B|400:256,2,70,0|8|0
224,320,49371,1,8
152,320,49559,1,8
80,200,49934,5,0
152,200,50121,1,2
184,136,50309,1,0
256,136,50496,1,2
416,280,51246,2,0,B|456:320|504:336,2,104.999996870756,2|2|2
120,280,52746,6,0,B|64:296|24:352,2,104.999996870756,2|0|2
256,280,53871,2,0,B|312:296|352:352,2,104.999996870756,0|2|0
176,168,54996,2,0,B|176:64,2,104.999996870756,2|0|4
176,304,56121,1,4
176,304,56496,1,4
336,304,56871,5,0
408,304,57059,1,8
488,192,57434,1,0
408,80,57809,1,8
336,80,57996,1,0
272,192,58371,1,0
272,192,58559,1,8
272,192,58746,6,0,B|128:192,2,140,2|2|2
416,192,59871,1,0
416,264,60059,1,8
280,264,60434,1,0
144,264,60809,1,8
144,336,60996,1,4
24,264,61371,1,0
24,192,61559,1,8
24,120,61746,1,4
448,96,62684,6,0,B|480:168|444:242,1,140,4|8
320,176,63434,1,0
256,144,63621,2,0,B|216:120|176:120,2,70,0|8|0
256,288,64371,1,0
320,320,64559,1,8
456,320,64934,5,0
488,192,65309,1,8
456,64,65684,1,0
320,88,66059,2,0,B|248:104,1,70,8|0
120,136,66621,1,0
160,200,66809,1,8
232,216,66996,1,0
304,216,67184,2,0,B|312:384,1,140,0|8
168,320,67934,5,0
56,240,68309,1,8
40,104,68684,2,0,B|64:32|152:24,1,140,4|8
192,80,69246,2,0,B|168:152|80:160,1,140,0|2
256,192,69996,5,2
392,192,70371,2,0,B|480:192,1,70,2|8
392,312,70934,1,0
256,312,71309,2,0,B|176:312,1,70,8|0
112,312,71684,2,0,B|96:232|8:200,1,140,0|8
80,80,72434,5,0
152,64,72621,1,0
224,48,72809,1,0
296,32,72996,1,4
408,120,73371,5,0
424,192,73559,1,0
408,264,73746,1,4
296,352,74121,5,0
224,336,74309,1,0
152,320,74496,1,0
80,304,74684,1,4
336,168,75434,5,0
264,192,75621,2,0,B|192:192|120:192,3,140,4|2|2|2
64,232,76934,5,0
168,320,77309,1,0
294,264,77684,2,0,B|322:346|409:377,1,140,4|0
447,317,78246,2,0,B|353:292|353:193,1,140,4|0
344,80,78996,5,4
280,40,79184,1,0
208,32,79371,1,0
80,80,79746,1,4
48,216,80121,1,0
120,216,80309,2,0,B|192:184|261:219,1,140,4|0
256,352,81059,5,8
392,352,81434,1,0
256,272,81809,1,8
120,272,82184,1,0
256,192,82559,1,8
392,192,82934,1,0
256,112,83309,1,8
120,192,83684,6,0,B|80:272,2,70,4|0|8
392,192,84621,2,0,B|432:112,2,70,4|8|0
256,192,85371,1,8
256,192,85559,1,8
120,296,85934,6,0,B|192:262|256:300,1,140,4|8
254,299,86496,2,0,B|326:333|392:295,1,140
392,224,87059,1,8
392,80,87434,5,0
320,80,87621,1,0
248,80,87809,1,8
176,80,87996,1,4
104,224,88371,1,0
176,224,88559,1,0
248,224,88746,1,0
320,224,88934,1,4
256,192,100184,12,2,101309
448,48,101684,6,0,B|448:200,1,140,0|2
384,224,102246,1,0
272,312,102621,2,0,B|240:336|192:336,1,70,0|2
136,336,102996,1,0
96,200,103371,1,0
152,152,103559,2,0,B|184:128|232:128,1,70,2|0
336,56,104121,5,0
456,136,104496,1,0
456,208,104684,1,0
336,280,105059,1,2
336,208,105246,1,0
216,136,105621,1,0
216,208,105809,1,2
216,280,105996,1,2
80,280,106371,2,0,B|8:280,1,70,2|0
24,208,106746,2,0,B|96:208,1,70,2|0
80,136,107121,2,0,B|8:136,2,70,0|2|2
152,136,107684,6,0,B|224:160|304:136,1,140,0|2
290,69,108246,2,0,B|290:237,1,140,0|2
425,272,108996,1,0
289,320,109371,1,2
161,264,109746,1,0
32,312,110121,1,0
32,312,110309,1,2
32,176,110684,6,0,B|48:104|112:64,1,140,0|2
160,120,111246,2,0,B|208:176,1,70
320,352,111996,1,2
456,352,112371,2,0,B|472:320|512:312,2,70,0|0|2
104,352,113684,5,4
104,216,114059,1,0
104,144,114246,1,4
224,72,114621,1,0
224,144,114809,1,0
224,216,114996,1,4
344,288,115371,1,0
344,216,115559,1,0
344,144,115746,1,4
464,72,116121,5,0
464,144,116309,1,0
464,216,116496,1,0
464,288,116684,2,0,B|432:360|336:360,1,140,4|8
212,359,117434,2,0,B|124:359,2,70,0|0|8
216,216,118184,1,0
96,136,118559,1,8
216,56,118934,1,0
320,144,119309,1,8
320,144,119496,1,8
320,144,119684,6,0,B|320:304,1,140,4|8
448,336,120434,2,0,B|456:296|496:272,1,70
488,208,120809,2,0,B|488:48,1,140,8|0
352,32,121559,1,8
256,120,121934,1,0
160,32,122309,1,8
256,120,122684,6,0,B|304:184,1,70
240,216,123059,2,0,B|176:264,1,70,8|4
272,368,123621,2,0,B|224:304,1,70,0|8
288,272,123996,2,0,B|352:224,1,70
416,232,124371,5,2
416,160,124559,1,0
416,88,124746,1,2
416,16,124934,2,0,B|328:16,1,70,0|2
304,72,125309,2,0,B|224:72,1,70,0|4
40,248,126246,6,0,B|112:296|128:352,1,140
200,352,126809,2,0,B|296:352,1,70,0|4
480,208,127746,6,0,B|480:48,2,140,0|0|4
336,208,128871,2,0,B|336:360,2,140,0|4|0
192,208,129996,2,0,B|192:48,2,140,4|0|4
192,352,131121,1,4
192,352,131496,1,4
56,352,131871,5,0
56,280,132059,1,8
56,144,132434,2,0,B|32:112|-8:104,2,70,0|0|8
96,208,132996,2,0,B|165:236|240:206,1,140
296,176,133559,1,8
360,144,133746,2,0,B|429:116|504:146,2,140
360,280,134871,5,0
360,352,135059,1,8
224,352,135434,1,0
88,352,135809,1,8
88,280,135996,1,4
224,280,136371,1,0
224,208,136559,1,0
224,136,136746,1,4
400,56,137684,6,0,B|432:136|388:217,1,140,4|8
256,192,138434,1,0
112,328,138809,2,0,B|80:248|124:167,1,140,8|0
256,192,139559,1,8
256,264,139746,1,0
256,336,139934,1,0
400,336,140309,6,0,B|432:264|504:232,1,140,8|4
424,112,141059,1,8
368,64,141246,1,0
256,144,141621,1,0
184,144,141809,1,8
112,144,141996,1,0
176,272,142371,1,0
120,320,142559,2,0,B|64:376,2,70,8|0|0
256,352,143309,5,8
400,352,143684,2,0,B|440:280|393:211,1,140,4|8
328,216,144246,1,0
256,216,144434,1,0
184,216,144621,2,0,B|144:144|191:75,1,140,0|4
256,83,145184,5,0
392,48,145559,1,8
440,184,145934,1,0
304,224,146309,1,8
256,83,146684,1,0
184,88,146871,6,0,B|96:88,1,70,0|8
112,160,147246,2,0,B|16:184,1,70
56,248,147621,2,0,B|0:304,1,70,0|8
56,352,147996,2,0,B|155:250,1,140,4|0
224,256,148559,1,8
296,256,148746,1,4
432,256,149121,2,0,B|333:154,1,140
264,160,149684,5,4
480,40,150434,1,0
408,40,150621,2,0,B|248:40,1,140,4|2
128,32,151371,1,2
80,88,151559,1,8
32,144,151746,1,0
32,216,151934,6,0,B|-16:288|48:368,1,140,0|8
176,352,152684,2,0,B|224:280|160:200,1,140,4|0
104,220,153246,2,0,B|264:220,1,140,4|0
384,220,153996,1,4
245,149,154371,1,0
385,149,154746,1,4
312,28,155121,1,0
312,28,155309,6,0,B|169:28,1,140,4|0
88,136,156059,2,0,B|231:136,1,140,8|0
312,248,156809,2,0,B|169:248,1,140,8|0
88,360,157559,2,0,B|231:360,1,140,8|0
304,360,158121,1,0
376,360,158309,1,8
368,128,158684,6,0,B|416:200|352:280,1,140,4|8
144,256,159621,2,8,B|96:184|160:104,1,140,4|0
256,192,160371,1,8
256,192,160559,1,8
312,64,160934,6,0,B|352:40|384:40,2,70,4|0|8
240,64,161496,2,0,B|80:64,1,140
88,136,162059,2,0,B|232:136,1,140,8|0
368,136,162809,1,8
440,136,162996,1,4
440,280,163371,1,4
368,280,163559,1,8
296,280,163746,1,0
224,280,163934,2,0,B|64:280,2,140,4|0|4
224,144,165059,5,8
352,80,165434,2,0,B|400:56|448:56,2,70,0|0|8
352,152,165996,2,0,B|352:304,1,140
280,296,166559,1,8
144,328,166934,1,0
48,224,167309,1,8
120,104,167684,6,0,B|144:24|248:16,1,140,0|8
264,80,168246,2,0,B|240:160|136:168,1,140
160,240,168809,1,8
296,240,169184,1,0
160,320,169559,1,8
296,320,169934,1,0
368,320,170121,6,0,B|456:320,2,70,0|8|0
440,200,170871,2,0,B|488:144,2,70,0|8|0
312,136,171621,2,0,B|312:64,2,70,0|8|0
176,152,172371,2,0,B|128:88,2,70,0|8|0
176,224,172934,5,0
176,360,173309,1,8
320,360,173684,2,0,B|360:288|320:224,1,140,0|8
251,226,174246,2,0,B|411:226,1,140
391,86,174996,5,4
248,88,175371,2,0,B|200:80|184:48,2,70,0|0|4
160,200,176121,1,0
216,256,176309,1,0
160,312,176496,1,0
104,256,176684,1,4
456,88,191684,6,0,B|515:189|445:310,1,209.999993741512,2|2
352,264,192809,1,0
256,296,193184,1,2
152,272,193559,2,0,B|80:272,2,52.4999984353781,0|0|2
104,176,194309,6,0,B|64:72,1,104.999996870756,0|2
168,80,195059,2,0,B|208:184,1,104.999996870756,0|2
312,176,195809,1,0
352,271,196184,1,2
448,231,196559,1,2
407,135,196934,1,2
256,352,197684,6,0,B|224:296|160:296,1,104.999996870756,2|0
144,192,198434,1,2
104,96,198809,2,0,B|80:40,2,52.4999984353781,0|0|2
208,96,199559,2,0,B|328:96,1,104.999996870756,0|2
192,312,200684,5,2
152,217,201059,1,0
56,257,201434,1,2
97,353,201809,1,0
192,312,202184,2,0,B|240:280|304:288,2,104.999996870756,2|2|2
384,104,203684,6,0,B|336:40|256:48,1,140,0|2
128,88,204434,2,0,B|144:168,1,70
216,160,204809,2,0,B|184:240,1,70,2|0
112,224,205184,2,0,B|128:376,2,140,0|2|0
208,328,206309,5,2
280,336,206496,1,0
352,344,206684,1,0
280,224,207059,1,2
352,224,207246,1,0
424,224,207434,1,0
352,104,207809,2,0,B|424:80|488:112,2,140,2|0|2
280,104,208746,1,0
208,104,208934,2,0,B|48:104,1,140,0|2
16,232,209684,5,0
96,352,210059,1,2
16,232,210434,1,0
144,296,210809,1,2
16,232,211184,1,0
152,224,211559,1,2
16,232,211934,1,0
128,152,212309,1,2
258,62,212684,6,0,B|306:134|250:198,1,140,0|2
253,321,213434,2,0,B|205:249|261:185,1,140,0|2
256,192,214184,12,0,215496
256,192,215684,12,0,217184
256,48,221684,5,4
256,336,222434,1,4
256,336,222621,1,4
256,192,222996,1,4
88,144,223934,6,0,B|64:96|32:80,2,70,4|0|4
88,288,224684,2,0,B|160:320|244:281,1,140,4|8
360,280,225434,1,0
472,192,225809,1,8
360,104,226184,2,0,B|416:48,2,70,0|0|8
224,152,226934,5,0
224,152,227309,1,8
224,152,227684,2,0,B|152:184|80:144,1,140,4|8
88,78,228246,2,0,B|88:238,1,140
224,264,228996,6,0,B|296:232|368:272,1,140,4|0
359,337,229559,2,0,B|359:177,1,140,8|0
359,56,230309,1,8
359,56,230496,1,0
359,56,230684,2,0,B|208:56,1,140,0|8
80,96,231434,5,0
48,160,231621,1,0
112,192,231809,1,8
144,128,231996,1,4
256,208,232371,5,0
256,280,232559,1,8
256,352,232746,1,4
432,288,233121,5,0
464,224,233309,1,0
400,192,233496,1,0
368,256,233684,1,4
96,192,234434,5,0
144,136,234621,2,0,B|184:64|272:64,3,140,4|2|2|2
328,64,235934,1,0
464,64,236309,1,0
464,204,236684,6,0,B|432:244|304:244|268:199,1,210,4|4
184,88,237621,2,0,B|112:64|32:88,2,140,0|4|0
184,160,238559,1,0
184,232,238746,1,4
48,232,239121,1,0
48,304,239309,2,0,B|200:304,1,140,4|0
328,304,240059,6,0,B|368:248|448:232,1,140,8|0
392,104,240809,1,8
256,136,241184,1,0
120,104,241559,1,8
67,232,241934,2,0,B|143:247|183:303,1,140,0|8
320,344,242684,5,4
416,240,243059,1,8
320,56,243621,1,4
416,160,243996,1,0
280,200,244371,1,8
208,200,244559,1,8
88,128,244934,6,0,B|56:200|96:280,2,140,4|8|0
200,40,246059,1,8
312,128,246434,2,0,B|264:192,1,70
328,224,246809,2,0,B|392:272,1,70,8|4
296,376,247371,2,0,B|344:312,1,70,0|0
280,280,247746,2,0,B|216:232,1,70,0|4
188,44,248684,6,0,B|255:18|330:46,1,140,2|2
324,340,249621,2,0,B|257:366|182:338,1,140,2|2
312,192,250934,5,2
200,192,251309,1,2
200,192,251496,1,2
256,192,251684,12,0,253934
