osu file format v14

[General]
AudioFilename: ChouCho Melt.mp3
AudioLeadIn: 0
PreviewTime: 138579
Countdown: 0
SampleSet: Soft
StackLeniency: 0.7
Mode: 0
LetterboxInBreaks: 1
WidescreenStoryboard: 1

[Editor]
Bookmarks: 36932
DistanceSpacing: 0.9
BeatDivisor: 4
GridSize: 4
TimelineZoom: 1.3

[Metadata]
Title:Melt
TitleUnicode:メルト
Artist:ChouCho
ArtistUnicode:ChouCho
Creator:Kibbleru
Version:Normal
Source:
Tags:Vocaloid Hatsune Miku ちょうちょ ryo supercell
BeatmapID:654519
BeatmapSetID:290541

[Difficulty]
HPDrainRate:3
CircleSize:3
OverallDifficulty:4
ApproachRate:5
SliderMultiplier:1
SliderTickRate:1

[Events]
//Background and Video events
0,0,"Senpai.jpg",0,0
//Break Periods
2,90579,100461
2,102073,105614
//Storyboard Layer 0 (Background)
//Storyboard Layer 1 (Fail)
//Storyboard Layer 2 (Pass)
//Storyboard Layer 3 (Foreground)
Sprite,Foreground,Centre,"sb/ring.png",320,240 F,0,14194,,0 S,0,14194,,0.17 M,0,14244,,380,164 F,0,14300,14520,0,0.7 S,1,14300,14872,0.17,0.44 F,0,14520,14872,0.7,0
Sprite,Foreground,Centre,"sb/ring.png",320,240 F,0,19841,,0 S,0,19841,,0.2 M,0,19891,,350,404 F,0,19947,20167,0,0.7 S,1,19947,20519,0.2,0.51 F,0,20167,20519,0.7,0
Sprite,Foreground,Centre,"sb/ring.png",320,240 F,0,24076,,0 S,0,24076,,0.15 M,0,24126,,150,205 F,0,24182,24402,0,0.7 S,1,24182,24754,0.15,0.54 F,0,24402,24754,0.7,0
Sprite,Foreground,Centre,"sb/ring.png",320,240 F,0,25488,,0 S,0,25488,,0.19 M,0,25538,,306,124 F,0,25594,25814,0,0.7 S,1,25594,26166,0.19,0.54 F,0,25814,26166,0.7,0
Sprite,Foreground,Centre,"sb/ring.png",320,240 F,0,34664,,0 S,0,34664,,0.16 M,0,34714,,250,188 F,0,34770,34990,0,0.7 S,1,34770,35342,0.16,0.56 F,0,34990,35342,0.7,0
Sprite,Foreground,Centre,"sb/ring.png",320,240 F,0,35194,,0 S,0,35194,,0.17 M,0,35244,,388,204 F,0,35300,35520,0,0.7 S,1,35300,35872,0.17,0.42 F,0,35520,35872,0.7,0
Sprite,Foreground,Centre,"sb/ring.png",320,240 F,0,36782,,0 S,0,36782,,0.19 M,0,36832,,350,280 F,0,36888,37108,0,0.7 S,1,36888,37460,0.19,0.53 F,0,37108,37460,0.7,0
Sprite,Foreground,Centre,"sb/ring.png",320,240 F,0,45958,,0 S,0,45958,,0.19 M,0,46008,,310,221 F,0,46064,46284,0,0.7 S,1,46064,46636,0.19,0.44 F,0,46284,46636,0.7,0
Sprite,Foreground,Centre,"sb/ring.png",320,240 F,0,46488,,0 S,0,46488,,0.17 M,0,46538,,440,182 F,0,46594,46814,0,0.7 S,1,46594,47166,0.17,0.43 F,0,46814,47166,0.7,0
Sprite,Foreground,Centre,"sb/ring.png",320,240 F,0,48076,,0 S,0,48076,,0.2 M,0,48126,,377,414 F,0,48182,48402,0,0.7 S,1,48182,48754,0.2,0.41 F,0,48402,48754,0.7,0
Sprite,Foreground,Centre,"sb/ring.png",320,240 F,0,53017,,0 S,0,53017,,0.18 M,0,53067,,135,208 F,0,53123,53343,0,0.7 S,1,53123,53695,0.18,0.55 F,0,53343,53695,0.7,0
Sprite,Foreground,Centre,"sb/ring.png",320,240 F,0,53723,,0 S,0,53723,,0.18 M,0,53773,,235,87 F,0,53829,54049,0,0.7 S,1,53829,54401,0.18,0.42 F,0,54049,54401,0.7,0
Sprite,Foreground,Centre,"sb/ring.png",320,240 F,0,55841,,0 S,0,55841,,0.15 M,0,55891,,470,420 F,0,55947,56167,0,0.7 S,1,55947,56519,0.15,0.58 F,0,56167,56519,0.7,0
Sprite,Foreground,Centre,"sb/ring.png",320,240 F,0,57252,,0 S,0,57252,,0.19 M,0,57302,,475,331 F,0,57358,57578,0,0.7 S,1,57358,57930,0.19,0.44 F,0,57578,57930,0.7,0
Sprite,Foreground,Centre,"sb/ring.png",320,240 F,0,58664,,0 S,0,58664,,0.18 M,0,58714,,341,105 F,0,58770,58990,0,0.7 S,1,58770,59342,0.18,0.49 F,0,58990,59342,0.7,0
Sprite,Foreground,Centre,"sb/ring.png",320,240 F,0,62194,,0 S,0,62194,,0.16 M,0,62244,,442,254 F,0,62300,62520,0,0.7 S,1,62300,62872,0.16,0.6 F,0,62520,62872,0.7,0
Sprite,Foreground,Centre,"sb/ring.png",320,240 F,0,67841,,0 S,0,67841,,0.18 M,0,67891,,320,370 F,0,67947,68167,0,0.7 S,1,67947,68519,0.18,0.58 F,0,68167,68519,0.7,0
Sprite,Foreground,Centre,"sb/ring.png",320,240 F,0,73135,,0 S,0,73135,,0.19 M,0,73185,,111,322 F,0,73241,73461,0,0.7 S,1,73241,73813,0.19,0.41 F,0,73461,73813,0.7,0
Sprite,Foreground,Centre,"sb/ring.png",320,240 F,0,73488,,0 S,0,73488,,0.17 M,0,73538,,80,240 F,0,73594,73814,0,0.7 S,1,73594,74166,0.17,0.4 F,0,73814,74166,0.7,0
Sprite,Foreground,Centre,"sb/ring.png",320,240 F,0,79135,,0 S,0,79135,,0.17 M,0,79185,,420,102 F,0,79241,79461,0,0.7 S,1,79241,79813,0.17,0.53 F,0,79461,79813,0.7,0
Sprite,Foreground,Centre,"sb/ring.png",320,240 F,0,80547,,0 S,0,80547,,0.19 M,0,80597,,384,365 F,0,80653,80873,0,0.7 S,1,80653,81225,0.19,0.51 F,0,80873,81225,0.7,0
Sprite,Foreground,Centre,"sb/ring.png",320,240 F,0,81958,,0 S,0,81958,,0.16 M,0,82008,,80,264 F,0,82064,82284,0,0.7 S,1,82064,82636,0.16,0.42 F,0,82284,82636,0.7,0
Sprite,Foreground,Centre,"sb/ring.png",320,240 F,0,84782,,0 S,0,84782,,0.2 M,0,84832,,431,290 F,0,84888,85108,0,0.7 S,1,84888,85460,0.2,0.57 F,0,85108,85460,0.7,0
Sprite,Foreground,Centre,"sb/ring.png",320,240 F,0,90429,,0 S,0,90429,,0.18 M,0,90479,,298,240 F,0,90535,90755,0,0.7 S,1,90535,91107,0.18,0.43 F,0,90755,91107,0.7,0
Sprite,Foreground,Centre,"sb/ring.png",320,240 F,0,101723,,0 S,0,101723,,0.17 M,0,101773,,282,155 F,0,101829,102049,0,0.7 S,1,101829,102401,0.17,0.58 F,0,102049,102401,0.7,0
Sprite,Foreground,Centre,"sb/ring.png",320,240 F,0,107370,,0 S,0,107370,,0.18 M,0,107420,,296,352 F,0,107476,107696,0,0.7 S,1,107476,108048,0.18,0.64 F,0,107696,108048,0.7,0
Sprite,Foreground,Centre,"sb/ring.png",320,240 F,0,110194,,0 S,0,110194,,0.18 M,0,110244,,516,211 F,0,110300,110520,0,0.7 S,1,110300,110872,0.18,0.53 F,0,110520,110872,0.7,0
Sprite,Foreground,Centre,"sb/ring.png",320,240 F,0,110723,,0 S,0,110723,,0.17 M,0,110773,,500,355 F,0,110829,111049,0,0.7 S,1,110829,111401,0.17,0.6 F,0,111049,111401,0.7,0
Sprite,Foreground,Centre,"sb/ring.png",320,240 F,0,111252,,0 S,0,111252,,0.18 M,0,111302,,400,355 F,0,111358,111578,0,0.7 S,1,111358,111930,0.18,0.63 F,0,111578,111930,0.7,0
Sprite,Foreground,Centre,"sb/ring.png",320,240 F,0,113017,,0 S,0,113017,,0.17 M,0,113067,,288,188 F,0,113123,113343,0,0.7 S,1,113123,113695,0.17,0.51 F,0,113343,113695,0.7,0
Sprite,Foreground,Centre,"sb/ring.png",320,240 F,0,118664,,0 S,0,118664,,0.2 M,0,118714,,255,110 F,0,118770,118990,0,0.7 S,1,118770,119342,0.2,0.53 F,0,118990,119342,0.7,0
Sprite,Foreground,Centre,"sb/ring.png",320,240 F,0,119370,,0 S,0,119370,,0.2 M,0,119420,,85,123 F,0,119476,119696,0,0.7 S,1,119476,120048,0.2,0.62 F,0,119696,120048,0.7,0
Sprite,Foreground,Centre,"sb/ring.png",320,240 F,0,120076,,0 S,0,120076,,0.17 M,0,120126,,135,295 F,0,120182,120402,0,0.7 S,1,120182,120754,0.17,0.57 F,0,120402,120754,0.7,0
Sprite,Foreground,Centre,"sb/ring.png",320,240 F,0,120782,,0 S,0,120782,,0.17 M,0,120832,,315,323 F,0,120888,121108,0,0.7 S,1,120888,121460,0.17,0.42 F,0,121108,121460,0.7,0
Sprite,Foreground,Centre,"sb/ring.png",320,240 F,0,121488,,0 S,0,121488,,0.19 M,0,121538,,380,185 F,0,121594,121814,0,0.7 S,1,121594,122166,0.19,0.57 F,0,121814,122166,0.7,0
Sprite,Foreground,Centre,"sb/ring.png",320,240 F,0,124311,,0 S,0,124311,,0.19 M,0,124361,,275,225 F,0,124417,124637,0,0.7 S,1,124417,124989,0.19,0.48 F,0,124637,124989,0.7,0
Sprite,Foreground,Centre,"sb/ring.png",320,240 F,0,127841,,0 S,0,127841,,0.19 M,0,127891,,390,195 F,0,127947,128167,0,0.7 S,1,127947,128519,0.19,0.49 F,0,128167,128519,0.7,0
Sprite,Foreground,Centre,"sb/ring.png",320,240 F,0,129252,,0 S,0,129252,,0.16 M,0,129302,,80,130 F,0,129358,129578,0,0.7 S,1,129358,129930,0.16,0.42 F,0,129578,129930,0.7,0
Sprite,Foreground,Centre,"sb/ring.png",320,240 F,0,129958,,0 S,0,129958,,0.17 M,0,130008,,165,294 F,0,130064,130284,0,0.7 S,1,130064,130636,0.17,0.53 F,0,130284,130636,0.7,0
Sprite,Foreground,Centre,"sb/ring.png",320,240 F,0,132076,,0 S,0,132076,,0.16 M,0,132126,,460,330 F,0,132182,132402,0,0.7 S,1,132182,132754,0.16,0.48 F,0,132402,132754,0.7,0
Sprite,Foreground,Centre,"sb/ring.png",320,240 F,0,133488,,0 S,0,133488,,0.15 M,0,133538,,416,215 F,0,133594,133814,0,0.7 S,1,133594,134166,0.15,0.53 F,0,133814,134166,0.7,0
Sprite,Foreground,Centre,"sb/ring.png",320,240 F,0,134899,,0 S,0,134899,,0.19 M,0,134949,,520,200 F,0,135005,135225,0,0.7 S,1,135005,135577,0.19,0.62 F,0,135225,135577,0.7,0
Sprite,Foreground,Centre,"sb/ring.png",320,240 F,0,138429,,0 S,0,138429,,0.19 M,0,138479,,255,355 F,0,138535,138755,0,0.7 S,1,138535,139107,0.19,0.47 F,0,138755,139107,0.7,0
Sprite,Foreground,Centre,"sb/ring.png",320,240 F,0,144076,,0 S,0,144076,,0.16 M,0,144126,,260,351 F,0,144182,144402,0,0.7 S,1,144182,144754,0.16,0.43 F,0,144402,144754,0.7,0
Sprite,Foreground,Centre,"sb/ring.png",320,240 F,0,149370,,0 S,0,149370,,0.16 M,0,149420,,325,211 F,0,149476,149696,0,0.7 S,1,149476,150048,0.16,0.64 F,0,149696,150048,0.7,0
Sprite,Foreground,Centre,"sb/ring.png",320,240 F,0,149723,,0 S,0,149723,,0.17 M,0,149773,,333,300 F,0,149829,150049,0,0.7 S,1,149829,150401,0.17,0.55 F,0,150049,150401,0.7,0
Sprite,Foreground,Centre,"sb/ring.png",320,240 F,0,155370,,0 S,0,155370,,0.18 M,0,155420,,475,299 F,0,155476,155696,0,0.7 S,1,155476,156048,0.18,0.65 F,0,155696,156048,0.7,0
Sprite,Foreground,Centre,"sb/ring.png",320,240 F,0,156782,,0 S,0,156782,,0.18 M,0,156832,,315,99 F,0,156888,157108,0,0.7 S,1,156888,157460,0.18,0.47 F,0,157108,157460,0.7,0
Sprite,Foreground,Centre,"sb/ring.png",320,240 F,0,158194,,0 S,0,158194,,0.17 M,0,158244,,245,245 F,0,158300,158520,0,0.7 S,1,158300,158872,0.17,0.48 F,0,158520,158872,0.7,0
Sprite,Foreground,Centre,"sb/ring.png",320,240 F,0,159605,,0 S,0,159605,,0.19 M,0,159655,,161,351 F,0,159711,159931,0,0.7 S,1,159711,160283,0.19,0.44 F,0,159931,160283,0.7,0
Sprite,Foreground,Centre,"sb/ring.png",320,240 F,0,160311,,0 S,0,160311,,0.16 M,0,160361,,225,211 F,0,160417,160637,0,0.7 S,1,160417,160989,0.16,0.53 F,0,160637,160989,0.7,0
Sprite,Foreground,Centre,"sb/ring.png",320,240 F,0,161017,,0 S,0,161017,,0.17 M,0,161067,,300,90 F,0,161123,161343,0,0.7 S,1,161123,161695,0.17,0.6 F,0,161343,161695,0.7,0
Sprite,Foreground,Centre,"sb/ring.png",320,240 F,0,165958,,0 S,0,165958,,0.15 M,0,166008,,450,295 F,0,166064,166284,0,0.7 S,1,166064,166636,0.15,0.47 F,0,166284,166636,0.7,0
Sprite,Foreground,Centre,"sb/ring.png",320,240 F,0,172311,,0 S,0,172311,,0.16 M,0,172361,,200,131 F,0,172417,172637,0,0.7 S,1,172417,172989,0.16,0.44 F,0,172637,172989,0.7,0
Sprite,Foreground,Centre,"sb/ring.png",320,240 F,0,175135,,0 S,0,175135,,0.16 M,0,175185,,530,165 F,0,175241,175461,0,0.7 S,1,175241,175813,0.16,0.49 F,0,175461,175813,0.7,0
Sprite,Foreground,Centre,"sb/ring.png",320,240 F,0,177958,,0 S,0,177958,,0.17 M,0,178008,,190,231 F,0,178064,178284,0,0.7 S,1,178064,178636,0.17,0.41 F,0,178284,178636,0.7,0
Sprite,Foreground,Centre,"sb/ring.png",320,240 F,0,183605,,0 S,0,183605,,0.18 M,0,183655,,195,422 F,0,183711,183931,0,0.7 S,1,183711,184283,0.18,0.42 F,0,183931,184283,0.7,0
Sprite,Foreground,Centre,"sb/ring.png",320,240 F,0,188899,,0 S,0,188899,,0.17 M,0,188949,,260,325 F,0,189005,189225,0,0.7 S,1,189005,189577,0.17,0.48 F,0,189225,189577,0.7,0
Sprite,Foreground,Centre,"sb/ring.png",320,240 F,0,189252,,0 S,0,189252,,0.19 M,0,189302,,200,253 F,0,189358,189578,0,0.7 S,1,189358,189930,0.19,0.42 F,0,189578,189930,0.7,0
Sprite,Foreground,Centre,"sb/ring.png",320,240 F,0,194899,,0 S,0,194899,,0.15 M,0,194949,,135,321 F,0,195005,195225,0,0.7 S,1,195005,195577,0.15,0.42 F,0,195225,195577,0.7,0
Sprite,Foreground,Centre,"sb/ring.png",320,240 F,0,197723,,0 S,0,197723,,0.17 M,0,197773,,190,290 F,0,197829,198049,0,0.7 S,1,197829,198401,0.17,0.48 F,0,198049,198401,0.7,0
Sprite,Foreground,Centre,"sb/ring.png",320,240 F,0,198252,,0 S,0,198252,,0.2 M,0,198302,,270,360 F,0,198358,198578,0,0.7 S,1,198358,198930,0.2,0.61 F,0,198578,198930,0.7,0
Sprite,Foreground,Centre,"sb/ring.png",320,240 F,0,198782,,0 S,0,198782,,0.16 M,0,198832,,365,345 F,0,198888,199108,0,0.7 S,1,198888,199460,0.16,0.41 F,0,199108,199460,0.7,0
Sprite,Foreground,Centre,"sb/ring.png",320,240 F,0,199311,,0 S,0,199311,,0.19 M,0,199361,,413,248 F,0,199417,199637,0,0.7 S,1,199417,199989,0.19,0.58 F,0,199637,199989,0.7,0
Sprite,Foreground,Centre,"sb/ring.png",320,240 F,0,199841,,0 S,0,199841,,0.19 M,0,199891,,333,171 F,0,199947,200167,0,0.7 S,1,199947,200519,0.19,0.65 F,0,200167,200519,0.7,0
Sprite,Foreground,Centre,"sb/ring.png",320,240 F,0,200547,,0 S,0,200547,,0.18 M,0,200597,,170,105 F,0,200653,200873,0,0.7 S,1,200653,201225,0.18,0.4 F,0,200873,201225,0.7,0
Sprite,Foreground,Centre,"sb/ring.png",320,240 F,0,211841,,0 S,0,211841,,0.19 M,0,211891,,351,114 F,0,211947,212167,0,0.7 S,1,211947,212519,0.19,0.42 F,0,212167,212519,0.7,0
Sprite,Foreground,Centre,"sb/ring.png",320,240 F,0,217488,,0 S,0,217488,,0.15 M,0,217538,,111,206 F,0,217594,217814,0,0.7 S,1,217594,218166,0.15,0.55 F,0,217814,218166,0.7,0
Sprite,Foreground,Centre,"sb/ring.png",320,240 F,0,222782,,0 S,0,222782,,0.15 M,0,222832,,335,87 F,0,222888,223108,0,0.7 S,1,222888,223460,0.15,0.63 F,0,223108,223460,0.7,0
Sprite,Foreground,Centre,"sb/ring.png",320,240 F,0,223135,,0 S,0,223135,,0.19 M,0,223185,,422,98 F,0,223241,223461,0,0.7 S,1,223241,223813,0.19,0.52 F,0,223461,223813,0.7,0
Sprite,Foreground,Centre,"sb/ring.png",320,240 F,0,228782,,0 S,0,228782,,0.15 M,0,228832,,141,303 F,0,228888,229108,0,0.7 S,1,228888,229460,0.15,0.42 F,0,229108,229460,0.7,0
Sprite,Foreground,Centre,"sb/ring.png",320,240 F,0,230194,,0 S,0,230194,,0.2 M,0,230244,,488,306 F,0,230300,230520,0,0.7 S,1,230300,230872,0.2,0.63 F,0,230520,230872,0.7,0
Sprite,Foreground,Centre,"sb/ring.png",320,240 F,0,231605,,0 S,0,231605,,0.18 M,0,231655,,294,218 F,0,231711,231931,0,0.7 S,1,231711,232283,0.18,0.5 F,0,231931,232283,0.7,0
Sprite,Foreground,Centre,"sb/ring.png",320,240 F,0,234429,,0 S,0,234429,,0.2 M,0,234479,,194,400 F,0,234535,234755,0,0.7 S,1,234535,235107,0.2,0.53 F,0,234755,235107,0.7,0
Sprite,Foreground,Centre,"sb/ring.png",320,240 F,0,236547,,0 S,0,236547,,0.18 M,0,236597,,420,211 F,0,236653,236873,0,0.7 S,1,236653,237225,0.18,0.47 F,0,236873,237225,0.7,0
Sprite,Foreground,Centre,"sb/ring.png",320,240 F,0,240076,,0 S,0,240076,,0.17 M,0,240126,,100,290 F,0,240182,240402,0,0.7 S,1,240182,240754,0.17,0.5 F,0,240402,240754,0.7,0
Sprite,Foreground,Centre,"sb/ring.png",320,240 F,0,244841,,0 S,0,244841,,0.16 M,0,244891,,296,190 F,0,244947,245167,0,0.7 S,1,244947,245519,0.16,0.55 F,0,245167,245519,0.7,0
Sprite,Foreground,Centre,"sb/ring.png",320,240 F,0,245723,,0 S,0,245723,,0.19 M,0,245773,,260,260 F,0,245829,246049,0,0.7 S,1,245829,246401,0.19,0.62 F,0,246049,246401,0.7,0
Sprite,Foreground,Centre,"sb/ring.png",320,240 F,0,247841,,0 S,0,247841,,0.18 M,0,247891,,195,70 F,0,247947,248167,0,0.7 S,1,247947,248519,0.18,0.54 F,0,248167,248519,0.7,0
Sprite,Foreground,Centre,"sb/ring.png",320,240 F,0,250147,,0 S,0,250147,,0.18 M,0,250197,,500,131 F,0,250253,250473,0,0.7 S,1,250253,250825,0.18,0.65 F,0,250473,250825,0.7,0
Sprite,Foreground,Centre,"sb/ring.png",320,240 F,0,253446,,0 S,0,253446,,0.18 M,0,253496,,390,350 F,0,253552,253772,0,0.7 S,1,253552,254124,0.18,0.53 F,0,253772,254124,0.7,0
//Storyboard Sound Samples

[TimingPoints]
1810,434.782608695652,4,2,1,40,1,0
2027,379.746835443038,4,2,1,40,1,0
3050,352.941176470588,4,2,1,40,1,0
3050,-100,4,2,1,30,0,0
14344,-100,4,2,1,60,0,0
25638,-100,4,2,1,45,0,0
48226,-100,4,2,1,50,0,0
62344,-100,4,2,1,70,0,1
67461,-100,4,2,1,70,0,0
67991,-100,4,2,1,70,0,1
73285,-100,4,2,1,70,0,0
73638,-100,4,2,1,70,0,1
78755,-100,4,2,1,70,0,0
79285,-100,4,2,1,70,0,1
84932,-100,4,2,1,60,0,0
101873,-100,4,2,1,45,0,0
106814,-100,4,2,1,40,0,0
109991,-100,4,2,1,40,0,0
110344,-100,4,2,1,40,0,0
124461,-100,4,2,1,50,0,0
138579,-100,4,2,1,70,0,1
143697,-100,4,2,1,70,0,0
144226,-100,4,2,1,70,0,1
149520,-100,4,2,1,70,0,0
149873,-100,4,2,1,70,0,1
154991,-100,4,2,1,70,0,0
155520,-100,4,2,1,70,0,1
161167,-100,4,2,1,60,0,0
166108,-100,4,2,1,45,0,0
166814,-100,4,2,1,30,0,0
172461,-100,4,2,1,40,0,0
174579,-100,4,2,1,50,0,0
175285,-100,4,2,1,60,0,0
178108,-100,4,2,1,50,0,0
197873,-100,4,2,1,55,0,1
197961,-100,4,2,1,55,0,0
198402,-100,4,2,1,55,0,1
198491,-100,4,2,1,55,0,0
198932,-100,4,2,1,55,0,1
199020,-100,4,2,1,55,0,0
199461,-100,4,2,1,55,0,1
199549,-100,4,2,1,55,0,0
199991,-100,4,2,1,40,0,0
211991,-100,4,2,1,70,0,1
217108,-100,4,2,1,70,0,0
217638,-100,4,2,1,70,0,1
222932,-100,4,2,1,70,0,0
223285,-100,4,2,1,70,0,1
228402,-100,4,2,1,70,0,0
228932,-100,4,2,1,70,0,1
234579,-100,4,2,1,60,0,0
248697,400,4,2,1,60,1,0
250297,600,4,2,1,60,1,0
250597,416.666666666667,4,2,1,60,1,8
252263,333.333333333333,4,2,1,60,1,0
253596,379.746835443038,4,2,1,60,1,0

[Colours]
Combo1 : 248,148,73
Combo2 : 71,99,116
Combo3 : 54,126,248
Combo4 : 169,101,199

[HitObjects]
132,132,2027,6,0,L|231:120,1,100,0|0,3:0|3:0,0:0:0:0:
416,48,3050,6,0,B|432:148|432:148|402:186,1,150,2|0,0:0|0:0,0:0:0:0:
364,212,3755,2,0,L|308:200,2,50,0|2|0,0:0|0:0|0:0,0:0:0:0:
360,304,4461,2,0,L|262:281,1,100,2|2,0:0|0:0,0:0:0:0:
175,252,5167,2,0,P|154:265|138:284,2,50,0|2|0,0:0|0:0|0:0,0:0:0:0:
240,187,5873,6,0,P|224:116|161:80,1,150,2|0,0:0|0:0,0:0:0:0:
148,36,6579,2,0,L|247:22,1,100
336,44,7285,5,2,0:0:0:0:
296,124,7638,1,2,0:0:0:0:
371,171,7991,2,0,P|386:192|393:216,2,50,0|2|0,0:0|0:0|0:0,0:0:0:0:
304,232,8697,6,0,P|229:221|155:212,1,150,2|0,0:0|0:0,0:0:0:0:
116,192,9402,2,0,P|84:229|78:278,2,100,0|0|2,0:0|0:0|0:0,0:0:0:0:
156,112,10461,1,2,0:0:0:0:
244,104,10814,1,0,0:0:0:0:
312,164,11167,2,0,L|364:160,1,50,2|0,0:0|0:0,0:0:0:0:
404,144,11520,6,0,P|436:234|384:315,1,200,2|0,0:0|0:0,0:0:0:0:
340,296,12402,2,0,L|240:285,1,100,2|0,0:0|0:0,0:0:0:0:
204,312,12932,1,2,0:0:0:0:
156,236,13285,2,0,B|172:140|172:140|214:108,1,150
252,132,13991,1,0,0:0:0:0:
340,108,14344,6,0,P|346:182|351:257,1,150,12|0,0:1|0:0,0:0:0:0:
323,292,15049,2,0,P|274:287|224:281,1,100,10|10,0:1|0:0,0:0:0:0:
176,204,15755,1,10,0:1:0:0:
104,256,16108,1,10,0:0:0:0:
36,196,16461,2,0,P|31:146|51:101,1,100,10|8,0:1|0:0,0:0:0:0:
132,56,17167,6,0,P|198:87|268:68,1,150,10|0,0:1|0:0,0:0:0:0:
296,32,17873,2,0,L|352:24,2,50,10|8|10,0:1|0:1|0:0,0:0:0:0:
340,112,18579,2,0,B|356:212|356:212|331:254,1,150,10|8,0:1|0:0,0:0:0:0:
288,256,19285,2,0,L|224:248,2,50,10|8|8,0:1|0:1|0:0,0:0:0:0:
308,343,19991,6,0,P|236:360|170:327,1,150,12|8,0:1|0:1,0:0:0:0:
124,327,20697,2,0,P|137:254|151:180,1,150,10|0,0:0|3:2,0:0:0:0:
132,140,21402,2,0,P|216:92|309:121,1,200,10|10,0:1|0:0,0:0:0:0:
332,300,22814,5,10,0:1:0:0:
252,256,23167,2,0,L|152:272,1,100,8|8,0:1|0:0,0:0:0:0:
108,284,23697,2,0,P|100:236|126:185,1,100,10|8,0:1|0:0,0:0:0:0:
112,148,24226,2,0,B|134:138|157:122|157:122|160:72|138:26|138:26|108:12|91:10,1,200,12|8,0:1|0:0,0:0:0:0:
264,64,25638,6,0,L|368:44,1,100,12|10,0:1|0:1,0:0:0:0:
428,108,26344,2,0,L|419:157|410:206,1,100,10|10,0:0|0:1,0:0:0:0:
320,208,27049,2,0,L|328:158,2,50,10|0|10,0:1|3:2|0:1,0:0:0:0:
340,296,27755,1,8,0:0:0:0:
256,328,28108,1,10,0:1:0:0:
184,276,28461,6,0,P|148:296|120:352,1,100,10|8,0:1|0:1,0:0:0:0:
52,283,29167,2,0,P|47:234|44:184,1,100,10|8,0:0|0:1,0:0:0:0:
100,112,29873,1,10,0:1:0:0:
164,176,30226,1,8,0:1:0:0:
256,148,30579,1,10,0:0:0:0:
272,60,30932,1,10,0:1:0:0:
360,68,31285,6,0,P|388:120|376:172,1,100,10|8,0:1|0:0,0:0:0:0:
388,248,31991,2,0,P|339:237|289:228,1,100,10|8,0:1|0:0,0:0:0:0:
212,184,32697,2,0,P|163:196|115:209,1,100,10|8,0:1|0:0,0:0:0:0:
104,120,33402,2,0,P|100:70|126:29,1,100,10|8,0:1|0:0,0:0:0:0:
216,44,34108,6,0,L|280:36,2,50,10|8|10,0:1|0:0|0:1,0:0:0:0:
207,131,34814,2,0,P|274:163|346:146,1,150,12|4,0:1|0:0,0:0:0:0:
384,168,35520,1,10,0:1:0:0:
456,224,35873,1,8,0:1:0:0:
424,308,36226,1,10,0:0:0:0:
336,300,36579,1,10,0:0:0:0:
304,216,36932,6,0,P|259:194|210:196,1,100,12|10,0:1|0:1,0:0:0:0:
124,224,37638,2,0,P|127:174|132:124,1,100,10|10,0:0|0:1,0:0:0:0:
196,60,38344,2,0,L|184:4,2,50,10|0|10,0:1|3:2|0:1,0:0:0:0:
240,140,39049,1,10,0:0:0:0:
320,96,39402,1,8,0:1:0:0:
396,144,39755,6,0,P|412:180|400:240,1,100,10|10,0:1|0:1,0:0:0:0:
312,232,40461,2,0,L|204:224,1,100,10|10,0:0|0:1,0:0:0:0:
136,272,41167,1,10,0:1:0:0:
52,236,41520,1,10,0:1:0:0:
56,148,41873,2,0,P|61:99|96:64,1,100,10|10,0:1|0:1,0:0:0:0:
180,100,42579,6,0,L|279:92,1,100,10|8,0:1|0:0,0:0:0:0:
276,184,43285,2,0,L|176:191,1,100,10|8,0:1|0:0,0:0:0:0:
116,260,43991,2,0,P|102:308|93:357,1,100,10|8,0:1|0:0,0:0:0:0:
180,380,44697,2,0,P|193:331|202:282,1,100,10|8,0:1|0:0,0:0:0:0:
284,248,45402,6,0,L|344:256,2,50,10|0|8,0:1|3:2|0:1,0:0:0:0:
264,160,46108,2,0,P|316:120|408:132,1,150,12|4,0:1|3:2,0:0:0:0:
432,156,46814,1,10,0:1:0:0:
488,228,47167,1,8,0:1:0:0:
408,272,47520,2,0,L|420:376,1,100,10|12,0:1|0:1,0:0:0:0:
332,344,48226,6,0,P|284:356|237:340,1,100,14|2,0:1|0:0,0:0:0:0:
172,280,48932,2,0,P|179:205|194:131,1,150,10|8,0:0|0:0,0:0:0:0:
172,91,49638,2,0,P|220:81|270:76,1,100,10|2,0:1|0:0,0:0:0:0:
344,124,50344,2,0,P|320:168|323:217,1,100,10|2,0:0|0:0,0:0:0:0:
412,244,51049,6,0,P|401:297|392:348,1,100,10|2,0:1|0:0,0:0:0:0:
304,347,51755,2,0,P|232:364|168:329,1,150,10|8,0:0|0:0,0:0:0:0:
128,308,52461,2,0,P|156:248|124:160,1,150,2|10,0:0|0:1,0:0:0:0:
96,148,53167,2,0,P|98:98|103:48,1,100,12|10,0:0|0:1,0:0:0:0:
192,28,53873,6,0,P|248:16|296:36,1,100,12|2,0:1|0:0,0:0:0:0:
284,120,54579,2,0,P|333:117|383:113,1,100,10|2,0:0|0:0,0:0:0:0:
456,168,55285,2,0,P|432:239|412:311,1,150,10|2,0:1|3:2,0:0:0:0:
424,356,55991,1,4,3:2:0:0:
336,380,56344,1,2,0:0:0:0:
288,304,56697,5,10,0:1:0:0:
348,236,57049,1,8,0:1:0:0:
432,268,57402,2,0,P|468:224|452:132,1,150,12|8,0:0|0:0,0:0:0:0:
456,92,58108,2,0,P|407:102|357:111,1,100,10|10,0:1|0:1,0:0:0:0:
296,44,58814,2,0,P|246:36|196:32,1,100,12|10,0:1|0:1,0:0:0:0:
124,88,59520,6,0,P|158:126|164:240,1,150,10|8,0:1|0:1,0:0:0:0:
132,244,60226,1,8,0:0:0:0:
160,376,60755,2,0,L|225:363,1,50,8|2,0:0|0:0,0:0:0:0:
260,292,61285,1,2,0:0:0:0:
340,332,61638,1,2,0:0:0:0:
420,280,61991,1,2,0:0:0:0:
396,192,62344,6,0,B|408:92|408:92|448:60,1,150,12|0,0:1|0:0,0:0:0:0:
428,20,63049,2,0,L|324:12,1,100,10|10,0:1|0:0,0:0:0:0:
256,64,63755,2,0,P|244:110|260:158,1,100,10|10,0:1|0:0,0:0:0:0:
240,196,64285,2,0,L|232:260,1,50,8|10,0:0|0:1,0:0:0:0:
168,304,64814,1,10,0:0:0:0:
100,244,65167,6,0,B|112:144,1,100,10|10,0:1|0:0,0:0:0:0:
144,116,65697,2,0,P|212:139|275:102,1,150,2|8,0:0|0:0,0:0:0:0:
356,60,66579,2,0,P|402:79|430:120,1,100,10|8,0:1|0:0,0:0:0:0:
392,200,67285,2,0,L|388:256,1,50,10|10,0:0|0:1,0:0:0:0:
276,312,67991,6,0,P|202:295|129:280,1,150,12|0,0:1|0:0,0:0:0:0:
84,292,68697,2,0,P|72:240|92:188,1,100,10|10,0:1|0:0,0:0:0:0:
48,116,69402,2,0,P|97:106|146:97,1,100,10|8,0:1|0:0,0:0:0:0:
180,128,69932,2,0,L|229:136,1,50,8|10,0:0|0:1,0:0:0:0:
312,100,70461,1,10,0:0:0:0:
380,160,70814,6,0,B|416:200|388:256|388:256|336:236|295:262,1,200,10|10,0:1|0:0,0:0:0:0:
284,304,71697,2,0,L|176:292,1,100,8|0,0:1|3:2,0:0:0:0:
159,252,72226,2,0,P|182:208|174:159,2,100,2|2|2,3:2|3:2|0:0,0:0:0:0:
72,260,73285,1,4,3:2:0:0:
40,176,73638,6,0,B|56:76|56:76|112:48,1,150,12|0,0:1|0:0,0:0:0:0:
140,76,74344,2,0,L|260:68,1,100,10|10,0:1|0:0,0:0:0:0:
324,100,75049,2,0,P|340:148|324:200,1,100,10|10,0:1|0:0,0:0:0:0:
288,216,75579,2,0,P|283:240|287:265,1,50,8|10,0:0|0:1,0:0:0:0:
344,336,76108,1,10,0:0:0:0:
256,360,76461,6,0,L|157:345,1,100,10|10,0:1|0:0,0:0:0:0:
116,368,76991,2,0,P|76:328|84:232,1,150,2|10,0:0|0:0,0:0:0:0:
160,200,77873,1,10,0:1:0:0:
128,116,78226,1,8,0:0:0:0:
192,52,78579,2,0,P|216:55|241:59,1,50,10|10,0:0|0:1,0:0:0:0:
376,47,79285,6,0,P|351:90|354:139,1,100,12|8,0:1|0:1,0:0:0:0:
376,180,79814,2,0,B|420:200|420:200|426:301,1,150,2|10,0:0|0:0,0:0:0:0:
336,304,80697,2,0,L|232:300,1,100,12|8,0:1|0:1,0:0:0:0:
216,260,81226,2,0,P|152:244|80:296,1,150,2|10,0:0|0:0,0:0:0:0:
40,208,82108,6,0,P|45:155|52:104,1,100,10|10,0:1|0:1,0:0:0:0:
128,59,82814,2,0,P|177:64|215:95,1,100,10|10,3:1|3:1,0:0:0:0:
300,64,83520,2,0,L|400:36,1,100,10|10,0:0|0:0,0:0:0:0:
467,91,84226,2,0,P|480:139|464:186,1,100,10|2,0:0|3:2,0:0:0:0:
388,236,84932,6,0,P|320:240|264:176,1,150,12|0,0:1|0:0,0:0:0:0:
280,140,85638,2,0,L|176:136,1,100,10|10,0:0|0:1,0:0:0:0:
92,120,86344,2,0,P|91:195|98:270,1,150,10|0,0:1|0:0,0:0:0:0:
124,300,87049,2,0,P|180:312|228:292,1,100,10|10,0:0|0:1,0:0:0:0:
244,212,87755,5,10,0:1:0:0:
308,152,88108,1,10,0:1:0:0:
388,192,88461,1,10,3:1:0:0:
376,280,88814,1,10,3:1:0:0:
288,292,89167,2,0,P|282:312|276:340,2,50,10|10|10,0:2|0:2|0:2,0:0:0:0:
244,212,89873,1,2,0:0:0:0:
236,96,101873,5,12,0:1:0:0:
256,95,106814,6,0,B|284:192|228:192|256:292,1,200,10|12,0:1|0:1,0:0:0:0:
292,128,109638,6,0,L|400:112,1,100,2|4,0:0|0:0,0:0:0:0:
472,152,110344,6,0,P|466:226|454:300,1,150,12|12,0:0|0:1,0:0:0:0:
372,336,111226,1,8,0:1:0:0:
356,296,111402,2,0,P|300:272|216:300,1,150,12|8,0:1|0:0,0:0:0:0:
184,328,112108,1,8,0:0:0:0:
140,248,112461,2,0,P|140:192|172:148,1,100,8|8,0:0|0:0,0:0:0:0:
248,128,113167,6,0,L|316:132,2,50,12|0|10,0:1|0:0|0:1,0:0:0:0:
240,40,113873,2,0,L|339:46,1,100,10|10,0:1|0:1,0:0:0:0:
416,96,114579,2,0,P|424:144|400:200,1,100,10|10,0:1|0:1,0:0:0:0:
328,236,115285,2,0,P|335:285|343:334,1,100,8|10,0:1|0:1,0:0:0:0:
252,320,115991,5,10,0:1:0:0:
168,356,116344,1,10,0:1:0:0:
104,292,116697,2,0,P|92:244|105:196,1,100,10|10,0:1|0:1,0:0:0:0:
168,128,117402,1,10,0:1:0:0:
228,196,117755,1,8,0:1:0:0:
312,160,118108,1,10,0:1:0:0:
296,72,118461,1,10,0:1:0:0:
208,52,118814,6,0,P|134:35|60:28,1,150,12|8,0:1|0:0,0:0:0:0:
43,67,119520,2,0,P|59:114|47:162,1,100,12|8,0:1|0:1,0:0:0:0:
96,240,120226,2,0,P|144:276|236:256,1,150,12|8,0:1|0:0,0:0:0:0:
272,264,120932,2,0,P|264:214|256:165,1,100,12|8,0:1|0:1,0:0:0:0:
340,128,121638,6,0,P|344:152|347:177,2,50,12|0|8,0:1|3:2|0:1,0:0:0:0:
268,72,122344,2,0,B|168:64|168:64|128:100,1,150,10|4,0:1|3:2,0:0:0:0:
88,88,123049,2,0,L|112:244,1,150,10|8,0:0|0:1,0:0:0:0:
92,276,123755,1,2,0:0:0:0:
236,164,124461,6,0,P|288:157|335:153,1,100,12|2,0:1|0:0,0:0:0:0:
376,236,125167,2,0,P|301:245|226:251,1,150,10|8,0:0|0:0,0:0:0:0:
184,232,125873,2,0,P|140:276|144:364,1,150,10|8,0:1|0:1,0:0:0:0:
184,372,126579,1,10,0:0:0:0:
360,328,127285,6,0,L|353:253|346:178,1,150,10|8,0:1|0:1,0:0:0:0:
352,132,127991,2,0,P|290:91|217:102,1,150,12|0,0:0|3:2,0:0:0:0:
200,144,128697,1,2,0:0:0:0:
32,80,129402,2,0,L|39:129|46:178,1,100,4|10,3:2|0:1,0:0:0:0:
116,236,130108,6,0,P|69:256|26:281,1,100,12|10,0:1|0:1,0:0:0:0:
76,356,130814,2,0,P|122:336|165:311,1,100,2|2,3:2|0:0,0:0:0:0:
244,264,131520,2,0,B|284:292|284:292|328:252|392:248|392:248|421:274,1,200,10|2,0:1|3:2,0:0:0:0:
492,224,132579,1,2,3:2:0:0:
460,140,132932,5,10,0:1:0:0:
372,156,133285,2,0,L|312:144,2,50,0|0|12,0:1|3:2|0:0,0:0:0:0:
384,68,133991,2,0,L|335:59,2,50,8|8|10,0:1|0:0|0:1,0:0:0:0:
472,44,134697,2,0,P|477:93|480:143,1,100,10|12,0:1|0:1,0:0:0:0:
428,220,135402,1,10,0:1:0:0:
348,176,135755,6,0,P|273:165|199:157,1,150,10|10,0:1|0:1,0:0:0:0:
164,188,136461,1,8,0:0:0:0:
240,300,136991,2,0,L|232:360,1,50,0|0,3:0|0:0,0:0:0:0:
215,275,138579,6,0,P|287:293|354:263,1,150,12|0,0:1|0:0,0:0:0:0:
399,276,139285,2,0,P|406:226|411:176,1,100,10|10,0:1|0:0,0:0:0:0:
360,104,139991,1,10,0:1:0:0:
276,136,140344,2,0,L|228:121,2,50,10|8|10,0:0|0:0|0:1,0:0:0:0:
296,224,141049,1,10,0:0:0:0:
216,268,141402,6,0,B|120:236,1,100,10|10,0:1|0:0,0:0:0:0:
80,256,141932,2,0,P|44:208|68:120,1,150,2|10,0:0|0:0,0:0:0:0:
116,52,142814,2,0,P|190:60|264:70,1,150,10|8,0:1|0:1,0:0:0:0:
276,116,143520,2,0,P|270:140|265:164,1,50,10|10,0:0|0:1,0:0:0:0:
220,292,144226,6,0,P|273:286|324:280,1,100,12|2,0:1|0:0,0:0:0:0:
360,300,144755,2,0,P|412:224|400:172,1,150,2|10,0:0|3:2,0:0:0:0:
376,84,145638,2,0,P|320:92|272:104,1,100,10|8,0:1|0:0,0:0:0:0:
236,80,146167,2,0,L|228:24,1,50,10|8,0:0|0:1,0:0:0:0:
140,16,146697,1,10,0:0:0:0:
112,100,147049,6,0,P|63:92|13:88,1,100,10|10,0:1|0:1,0:0:0:0:
40,176,147755,2,0,L|45:225,2,50,10|8|0,0:0|0:0|0:0,0:0:0:0:
128,188,148461,2,0,L|133:237,2,50,2|2|10,3:2|3:2|0:1,0:0:0:0:
196,128,149167,1,2,0:0:0:0:
284,152,149520,1,4,3:2:0:0:
292,240,149873,6,0,B|392:232|392:232|420:192,1,150,12|0,0:1|0:0,0:0:0:0:
464,176,150579,2,0,P|492:216|480:284,1,100,10|10,0:1|0:0,0:0:0:0:
480,356,151285,2,0,P|430:349|380:345,1,100,10|10,0:1|0:0,0:0:0:0:
344,320,151814,2,0,P|317:326|295:332,1,50,8|10,0:0|0:1,0:0:0:0:
220,284,152344,1,10,0:0:0:0:
152,344,152697,6,0,P|108:360|52:344,1,100,10|10,0:1|0:0,0:0:0:0:
32,311,153226,2,0,P|42:237|53:163,1,150,2|10,0:0|0:0,0:0:0:0:
140,184,154108,2,0,L|252:172,1,100,10|8,0:1|0:0,0:0:0:0:
312,228,154814,2,0,L|306:277,1,50,10|10,0:0|0:1,0:0:0:0:
436,236,155520,6,0,L|447:136,1,100,12|10,0:1|0:0,0:0:0:0:
468,94,156049,2,0,P|402:127|330:109,1,150,2|10,0:0|0:0,0:0:0:0:
272,40,156932,2,0,L|156:56,1,100,12|8,0:1|0:0,0:0:0:0:
140,84,157461,2,0,P|108:172|128:228,1,150,2|10,0:0|0:0,0:0:0:0:
204,180,158344,5,12,0:1:0:0:
292,172,158697,1,8,0:1:0:0:
303,260,159049,2,0,P|254:266|204:271,1,100,8|8,0:1|0:1,0:0:0:0:
116,288,159755,2,0,P|96:232|112:184,1,100,4|0,3:2|3:2,0:0:0:0:
184,148,160461,2,0,P|193:99|173:54,1,100,4|10,3:2|0:0,0:0:0:0:
260,32,161167,6,0,L|420:48,1,150,12|0,0:1|0:0,0:0:0:0:
440,80,161873,1,10,0:0:0:0:
444,168,162226,1,10,0:1:0:0:
368,215,162579,2,0,P|294:219|238:173,1,150,10|0,0:1|3:2,0:0:0:0:
196,156,163285,2,0,P|160:196|160:248,1,100,8|10,0:0|0:1,0:0:0:0:
136,328,163991,6,0,L|296:308,1,150,10|10,0:1|0:0,0:0:0:0:
304,348,164697,2,0,L|456:368,1,150,8|0,0:0|3:2,0:0:0:0:
491,344,165402,2,0,P|497:319|494:294,1,50,2|10,0:0|0:0,0:0:0:0:
448,216,165932,1,8,0:1:0:0:
406,235,166108,6,0,B|368:208|312:224|312:224|280:168|308:124,1,200,4|2,3:2|0:0,0:0:0:0:
148,108,168226,1,2,0:0:0:0:
240,296,169638,5,2,0:0:0:0:
356,128,171049,1,2,0:0:0:0:
159,75,172461,6,0,P|172:149|179:224,1,150,12|8,0:1|0:1,0:0:0:0:
156,264,173167,1,10,0:0:0:0:
271,335,173697,2,0,P|321:339|363:314,1,100,10|8,0:0|0:1,0:0:0:0:
364,268,174226,2,0,L|472:284,1,100,10|10,0:1|0:0,0:0:0:0:
484,104,175285,6,0,L|385:89,1,100,12|2,0:1|3:2,0:0:0:0:
296,112,175991,2,0,P|276:76|284:8,1,100,10|10,0:0|0:0,0:0:0:0:
188,32,176697,2,0,P|138:27|88:24,1,100,10|10,0:0|0:1,0:0:0:0:
68,64,177226,2,0,P|44:112|64:204,1,150,8|10,0:0|0:0,0:0:0:0:
148,176,178108,6,0,B|156:276|156:276|116:316,1,150,12|10,0:1|0:1,0:0:0:0:
252,340,179167,2,0,P|296:364|392:336,1,150,10|10,0:0|0:1,0:0:0:0:
404,296,179873,2,0,L|396:240,2,50,8|8|2,0:0|0:1|3:2,0:0:0:0:
488,324,180579,1,2,3:2:0:0:
508,236,180932,6,0,L|493:137,1,100,10|8,0:1|0:0,0:0:0:0:
456,116,181461,2,0,P|381:107|304:100,1,150,10|10,0:1|0:0,0:0:0:0:
216,108,182344,2,0,P|188:152|208:248,1,150,2|10,0:0|0:1,0:0:0:0:
248,248,183049,1,2,0:0:0:0:
236,336,183402,1,10,0:0:0:0:
152,364,183755,6,0,P|102:357|53:346,1,100,12|8,0:1|0:0,0:0:0:0:
48,300,184285,2,0,P|42:225|40:150,1,150,10|10,0:1|0:0,0:0:0:0:
127,135,185167,2,0,P|176:149|225:152,1,100,2|10,0:0|0:0,0:0:0:0:
244,64,185873,2,0,P|195:50|146:47,1,100,2|10,3:2|0:0,0:0:0:0:
56,56,186579,6,0,P|62:105|70:154,1,100,10|8,0:1|0:0,0:0:0:0:
136,220,187285,1,12,0:1:0:0:
128,308,187638,1,8,0:0:0:0:
208,352,187991,2,0,L|257:343,2,50,10|0|10,0:1|0:0|0:0,0:0:0:0:
216,264,188697,2,0,L|265:255,2,50,10|0|12,0:0|0:0|0:1,0:0:0:0:
156,196,189402,6,0,P|151:146|187:99,1,100,12|8,0:1|0:0,0:0:0:0:
224,108,189932,2,0,P|280:128|368:88,1,150,10|10,0:1|0:0,0:0:0:0:
436,148,190814,1,2,0:0:0:0:
424,236,191167,1,8,0:0:0:0:
383,256,191344,2,0,P|310:243|236:228,1,150,10|2,0:1|3:2,0:0:0:0:
152,256,192226,6,0,P|128:212|133:164,1,100,10|10,0:1|0:0,0:0:0:0:
220,132,192932,2,0,L|213:82|206:32,1,100,2|10,0:0|0:0,0:0:0:0:
120,56,193638,2,0,L|21:40,1,100,2|8,0:0|0:0,0:0:0:0:
28,132,194344,2,0,P|5:175|10:224,1,100,2|8,0:0|0:0,0:0:0:0:
92,260,195049,6,0,P|152:228|240:252,1,150,14|10,0:1|0:1,0:0:0:0:
300,304,195932,1,8,0:1:0:0:
340,284,196108,2,0,B|356:184|356:184|328:132,1,150,10|10,0:0|0:1,0:0:0:0:
328,96,196814,2,0,P|253:101|178:110,1,150,8|8,0:0|0:1,0:0:0:0:
148,144,197520,1,10,0:0:0:0:
152,232,197873,5,12,0:1:0:0:
240,252,198226,2,0,L|226:300,1,50,8|12,0:0|0:1,0:0:0:0:
308,336,198755,2,0,L|321:287,1,50,8|12,0:0|0:1,0:0:0:0:
320,196,199285,2,0,L|372:188,1,50,8|12,0:0|0:1,0:0:0:0:
344,104,199814,2,0,L|294:111,1,50,8|10,0:0|0:0,0:0:0:0:
128,44,200697,5,4,0:0:0:0:
160,252,202108,1,2,0:0:0:0:
288,108,203520,5,2,0:0:0:0:
56,112,204932,1,2,0:0:0:0:
232,156,205638,6,0,B|244:196|220:236|220:236|224:256|244:268|244:268|248:312|232:344,1,200,2|2,0:0|0:0,0:0:0:0:
384,168,207755,1,2,0:0:0:0:
260,76,209167,6,0,B|232:75|212:68|212:68|185:73|168:92|168:92|136:44|82:50,2,200,2|2|2,0:0|0:0|0:0,0:0:0:0:
304,56,211991,6,0,P|287:129|272:202,1,150,12|0,0:1|0:0,0:0:0:0:
296,240,212697,1,10,0:1:0:0:
216,280,213049,1,10,0:0:0:0:
152,216,213402,2,0,P|104:240|52:228,1,100,10|10,0:1|0:0,0:0:0:0:
36,196,213932,2,0,L|44:136,1,50,8|10,0:0|0:1,0:0:0:0:
120,100,214461,1,10,0:0:0:0:
203,132,214814,6,0,P|253:125|303:120,1,100,10|10,0:1|0:0,0:0:0:0:
343,95,215344,2,0,P|334:170|324:244,1,150,2|10,0:0|0:0,0:0:0:0:
264,312,216226,1,10,0:1:0:0:
196,252,216579,1,8,0:0:0:0:
116,288,216932,2,0,L|56:280,1,50,10|10,0:0|0:1,0:0:0:0:
68,148,217638,6,0,L|167:161,1,100,12|0,0:1|0:0,0:0:0:0:
200,192,218167,2,0,L|352:176,1,150,2|10,0:0|0:0,0:0:0:0:
412,240,219049,1,10,0:1:0:0:
360,312,219402,2,0,L|352:368,2,50,10|8|10,0:0|0:0|0:1,0:0:0:0:
276,276,220108,1,10,0:0:0:0:
216,344,220461,6,0,B|160:352|120:316|120:316|152:268|120:216,1,200,10|10,0:1|0:0,0:0:0:0:
84,204,221344,2,0,L|104:92,1,100,10|0,0:1|0:0,0:0:0:0:
136,80,221873,1,2,3:2:0:0:
200,144,222226,1,2,0:0:0:0:
284,116,222579,1,2,3:2:0:0:
292,28,222932,1,6,3:2:0:0:
380,39,223285,6,0,P|382:114|383:189,1,150,12|0,0:1|0:0,0:0:0:0:
396,231,223991,2,0,P|358:263|309:262,1,100,10|10,0:1|0:0,0:0:0:0:
268,184,224697,2,0,P|218:174|169:165,1,100,10|10,0:1|0:0,0:0:0:0:
140,199,225226,2,0,L|143:224|146:249,1,50,8|10,0:0|0:1,0:0:0:0:
92,320,225755,1,10,0:0:0:0:
8,284,226108,6,0,P|-4:232|20:180,1,100,10|10,0:1|0:0,0:0:0:0:
52,172,226638,2,0,P|41:97|28:24,1,150,2|10,0:0|0:0,0:0:0:0:
116,36,227520,2,0,L|215:25,1,100,10|8,0:1|0:0,0:0:0:0:
204,116,228226,2,0,L|154:121,1,50,10|10,0:0|0:1,0:0:0:0:
100,244,228932,6,0,P|144:272|200:260,1,100,12|10,0:1|0:0,0:0:0:0:
216,232,229461,2,0,B|264:212|264:212|364:224,1,150,2|10,0:0|0:0,0:0:0:0:
448,244,230344,2,0,P|472:200|460:140,1,100,12|8,0:1|0:1,0:0:0:0:
460,107,230873,2,0,P|389:128|322:98,1,150,2|10,0:0|0:0,0:0:0:0:
252,156,231755,5,14,0:1:0:0:
300,232,232108,1,10,0:1:0:0:
240,296,232461,1,10,3:1:0:0:
156,264,232814,1,10,3:1:0:0:
164,176,233167,2,0,P|120:152|70:154,1,100,10|8,0:0|0:0,0:0:0:0:
48,240,233873,2,0,P|55:289|59:339,1,100,8|2,0:0|3:2,0:0:0:0:
152,340,234579,6,0,P|216:300|296:316,1,150,12|0,0:1|0:0,0:0:0:0:
316,344,235285,2,0,P|365:356|412:342,1,100,10|2,0:0|3:2,0:0:0:0:
456,264,235991,2,0,B|448:164|448:164|412:128,1,150,10|0,0:1|0:0,0:0:0:0:
376,152,236697,2,0,L|276:148,1,100,12|10,0:0|0:1,0:0:0:0:
236,228,237402,5,10,0:1:0:0:
148,212,237755,1,10,0:1:0:0:
140,124,238108,1,10,3:1:0:0:
220,84,238461,1,10,3:1:0:0:
276,152,238814,2,0,L|332:140,2,50,10|10|10,0:0|0:0|0:0,0:0:0:0:
236,232,239520,1,2,0:0:0:0:
56,228,240226,6,0,P|63:153|75:79,1,150,12|0,0:1|0:0,0:0:0:0:
112,52,240932,2,0,L|161:44,2,50,10|8|10,0:1|0:1|0:0,0:0:0:0:
156,132,241638,2,0,P|180:174|176:223,1,100,10|10,0:1|0:0,0:0:0:0:
128,300,242344,2,0,L|136:372,2,50,10|8|8,0:1|0:1|0:0,0:0:0:0:
216,304,243049,6,0,P|272:324|368:296,1,150,10|0,0:1|0:0,0:0:0:0:
404,308,243755,2,0,P|398:258|390:208,1,100,10|10,0:1|0:0,0:0:0:0:
396,120,244461,2,0,B|296:104|296:104|240:136,1,150,10|4,0:1|3:2,0:0:0:0:
208,120,245167,2,0,L|156:124,2,50,10|8|10,0:1|0:1|0:0,0:0:0:0:
216,207,245873,6,0,P|167:262|94:265,1,150,14|8,0:1|0:1,0:0:0:0:
52,248,246579,1,10,0:0:0:0:
12,164,246932,1,10,0:1:0:0:
84,112,247285,2,0,P|88:64|60:12,1,100,10|2,0:1|0:0,0:0:0:0:
156,12,247991,2,0,L|255:19,1,100,6|2,3:2|0:0,0:0:0:0:
308,92,248697,6,0,L|280:188,1,100,10|10,0:1|0:1,0:0:0:0:
368,232,249497,2,0,L|396:136,1,100,10|0,0:0|0:0,0:0:0:0:
456,72,250297,6,0,L|508:60,1,50,12|8,0:1|0:0,0:0:0:0:
224,100,252263,5,8,0:1:0:0:
348,284,253596,5,12,0:1:0:0:
256,192,253785,12,2,256633,0:0:0:0:
