osu file format v14

[General]
AudioFilename: Kawaru Mirai.mp3
AudioLeadIn: 1500
PreviewTime: 51660
Countdown: 0
SampleSet: Soft
StackLeniency: 0.7
Mode: 0
LetterboxInBreaks: 1
WidescreenStoryboard: 0

[Editor]
DistanceSpacing: 1
BeatDivisor: 4
GridSize: 4
TimelineZoom: 1

[Metadata]
Title:Kawaru Mirai
TitleUnicode:カワルミライ
Artist:ChouCho
ArtistUnicode:ChouCho
Creator:CelsiusLK
Version:Easy
Source:神様のメモ帳
Tags:ちょうちょ It's the Only NEET Thing to Do Kami-sama no Memo-chou Notebook of God Heaven's Memo Pad Opening Full lantis
BeatmapID:631787
BeatmapSetID:278961

[Difficulty]
HPDrainRate:3
CircleSize:3
OverallDifficulty:3
ApproachRate:3
SliderMultiplier:0.85
SliderTickRate:1

[Events]
//Background and Video events
0,0,"bg.png",0,0
//Break Periods
2,85632,88304
2,147429,148664
2,153177,163035
2,176172,186029
//Storyboard Layer 0 (Background)
//Storyboard Layer 1 (Fail)
//Storyboard Layer 2 (Pass)
//Storyboard Layer 3 (Foreground)
//Storyboard Sound Samples

[TimingPoints]
643,359.281437125748,4,2,1,35,1,0
6391,-100,4,2,1,55,0,0
17888,-100,4,2,1,40,0,0
29385,-100,4,2,1,50,0,0
40882,-100,4,2,1,45,0,0
51301,-100,4,2,1,40,0,0
52199,-100,4,2,1,60,0,1
83996,-100,4,2,1,50,0,0
89744,-100,4,2,1,40,0,0
101241,-100,4,2,1,50,0,0
112738,-100,4,2,1,45,0,0
124056,-100,4,2,1,60,0,1
147229,-100,4,2,1,40,0,0
164475,-100,4,2,1,50,0,0
187469,-100,4,2,1,40,0,0
194654,-100,4,2,1,55,0,0
197888,-100,4,2,1,40,0,0
198786,-100,4,2,1,60,0,1
230583,-100,4,2,1,40,0,0

[Colours]
Combo1 : 255,235,174
Combo2 : 255,193,164
Combo3 : 164,205,255
Combo4 : 250,160,174

[HitObjects]
296,216,643,6,0,P|356:200|444:212,2,127.5,2|2|2,0:0|0:0|0:0,0:0:0:0:
224,260,2080,2,0,P|164:276|76:264,2,127.5,2|2|2,0:0|0:0|0:0,0:0:0:0:
296,216,3517,2,0,L|272:88,1,127.5,2|2,0:0|0:0,0:0:0:0:
192,68,4415,2,0,P|152:72|112:96,1,85,2|2,0:0|0:0,0:0:0:0:
404,152,6032,1,4,0:3:0:0:
376,232,6391,6,0,L|368:336,1,85,4|8,0:0|0:0,0:0:0:0:
288,288,7110,2,0,L|281:203,1,85,2|8,0:0|0:0,0:0:0:0:
200,176,7828,2,0,P|120:200|48:156,1,170,2|2,0:0|0:0,0:0:0:0:
68,76,8906,1,8,0:0:0:0:
152,76,9265,6,0,P|188:68|264:80,1,85,2|8,0:0|0:0,0:0:0:0:
288,140,9984,2,0,L|384:148,1,85,2|8,0:0|0:0,0:0:0:0:
416,220,10702,2,0,B|352:272|352:272|256:264,1,170,2|2,0:0|0:0,0:0:0:0:
188,228,11780,1,8,0:0:0:0:
112,272,12140,6,0,P|103:228|116:180,1,85,2|8,0:0|0:0,0:0:0:0:
180,140,12858,2,0,P|224:148|268:184,1,85,2|8,0:0|0:0,0:0:0:0:
312,236,13577,2,0,P|336:200|340:152,1,85,2|8,0:0|0:0,0:0:0:0:
324,76,14295,1,2,0:0:0:0:
240,76,14654,1,8,0:0:0:0:
172,128,15014,6,0,L|64:156,2,85,2|8|8,0:0|0:0|0:3,0:0:0:0:
240,76,16092,1,8,0:0:0:0:
256,160,16451,2,0,L|244:248,1,85,0|8,0:0|0:0,0:0:0:0:
328,268,17169,2,0,L|340:356,1,85,8|8,0:0|0:0,0:0:0:0:
420,320,17888,6,0,P|448:296|456:224,1,85,4|8,0:1|0:0,0:0:0:0:
424,172,18607,2,0,P|392:148|336:132,1,85,8|8,0:0|0:0,0:0:0:0:
272,168,19325,2,0,P|204:216|112:208,1,170,8|8,0:0|0:0,0:0:0:0:
56,160,20403,1,8,0:0:0:0:
92,84,20762,6,0,B|180:112|180:40|264:60,1,170,8|8,0:0|0:0,0:0:0:0:
416,116,22199,2,0,L|404:285,1,170,8|8,0:0|0:0,0:0:0:0:
336,336,23277,1,8,0:0:0:0:
256,308,23637,6,0,L|160:328,2,85,8|8|8,0:0|0:0|0:0,0:0:0:0:
336,336,24714,1,8,0:0:0:0:
405,286,25074,2,0,P|448:240|457:198,1,85,8|8,0:0|0:0,0:0:0:0:
392,164,25792,2,0,L|364:76,1,85,8|8,0:0|0:0,0:0:0:0:
288,52,26511,6,0,P|200:36|108:92,1,170,8|8,0:0|0:0,0:0:0:0:
32,208,27948,2,0,P|108:241|190:224,1,170,8|8,0:0|0:0,0:0:0:0:
212,144,29026,1,8,0:0:0:0:
292,176,29385,6,0,P|360:244|448:228,1,170,4|2,0:0|0:0,0:0:0:0:
436,156,30463,1,8,0:0:0:0:
368,104,30822,2,0,L|340:20,2,85,2|8|2,0:0|0:0|0:0,0:0:0:0:
436,156,31900,1,8,0:0:0:0:
408,236,32259,6,0,P|376:276|328:296,1,85,2|8,0:0|0:0,0:0:0:0:
264,276,32978,2,0,L|248:172,1,85,2|8,0:0|0:0,0:0:0:0:
224,112,33696,2,0,P|168:84|128:80,1,85,2|8,0:0|0:0,0:0:0:0:
60,68,34415,1,0,0:0:0:0:
48,152,34774,1,8,0:0:0:0:
76,232,35134,6,0,B|88:280|88:280|128:320,1,85,2|8,0:0|0:0,0:0:0:0:
180,256,35852,2,0,L|280:248,1,85,2|8,0:0|0:0,0:0:0:0:
348,240,36571,1,2,0:0:0:0:
396,307,36930,2,0,P|429:233|384:165,1,170,8|8,0:0|0:0,0:0:0:0:
300,168,38008,6,0,L|208:188,2,85,2|8|2,0:0|0:0|0:0,0:0:0:0:
384,165,39086,1,8,0:0:0:0:
448,108,39445,2,0,P|472:80|496:24,2,85,2|8|8,0:0|0:0|0:0,0:0:0:0:
384,165,40523,1,8,0:0:0:0:
304,188,40882,6,0,P|312:280|264:352,1,170,4|8,0:0|0:0,0:0:0:0:
188,328,41960,1,8,0:0:0:0:
136,260,42319,2,0,P|96:256|48:236,1,85,8|8,0:0|0:0,0:0:0:0:
80,160,43038,2,0,L|112:68,1,85,8|8,0:0|0:0,0:0:0:0:
192,88,43756,6,0,B|168:168|168:168|212:156|268:180,1,170,8|8,0:0|0:0,0:0:0:0:
332,208,44834,1,8,0:0:0:0:
412,176,45193,2,0,P|444:148|468:92,1,85,8|8,0:0|0:0,0:0:0:0:
380,92,45912,2,0,L|288:100,1,85,8|8,0:0|0:0,0:0:0:0:
248,168,46631,6,0,P|256:224|244:268,1,85,4|8,0:2|0:2,0:0:0:0:
184,304,47349,1,8,0:0:0:0:
128,240,47708,1,8,0:0:0:0:
128,156,48068,2,0,P|140:108|168:76,1,85,8|8,0:0|0:0,0:0:0:0:
248,88,48786,6,0,L|375:80,1,127.5,8|8,0:0|0:0,0:0:0:0:
444,132,49684,2,0,P|448:160|448:192,1,42.5,2|8,0:0|0:0,0:0:0:0:
392,240,50223,2,0,B|420:304|420:304|424:384,1,127.5,8|4,0:0|0:0,0:0:0:0:
336,356,51122,6,0,L|296:336,1,42.5,8|4,0:0|0:2,0:0:0:0:
212,340,51660,1,0,0:0:0:0:
116,256,52199,6,0,P|100:184|152:136,1,127.5,4|8,0:0|0:0,0:0:0:0:
216,156,53098,2,0,L|312:144,1,85,2|8,0:0|0:0,0:0:0:0:
384,160,53816,2,0,L|376:256,2,85,2|8|2,0:0|0:0|0:0,0:0:0:0:
392,76,54894,1,8,0:0:0:0:
308,64,55253,6,0,P|268:48|196:44,1,85,2|8,0:0|0:0,0:0:0:0:
156,88,55972,2,0,L|144:184,1,85,2|8,0:0|0:0,0:0:0:0:
112,248,56690,2,0,L|124:344,1,85,2|8,0:0|0:0,0:0:0:0:
208,320,57409,1,2,0:0:0:0:
292,336,57768,1,8,0:0:0:0:
360,288,58128,6,0,P|408:252|412:196,1,85,2|8,0:0|0:0,0:0:0:0:
368,160,58846,2,0,L|248:172,1,85,2|8,0:0|0:0,0:0:0:0:
236,240,59565,1,0,0:0:0:0:
152,228,59924,2,0,B|124:196|124:196|140:128,1,85,8|2,0:0|0:0,0:0:0:0:
188,88,60642,1,8,0:0:0:0:
272,80,61002,6,0,P|332:60|412:84,1,127.5,4|2,0:0|0:0,0:0:0:0:
436,148,61900,1,2,0:0:0:0:
384,216,62259,2,0,B|332:228|300:204|300:204|248:228,1,127.5,4|8,0:0|0:0,0:0:0:0:
208,284,63157,2,0,P|188:256|184:188,1,85,2|8,0:0|0:0,0:0:0:0:
104,168,63876,6,0,L|64:280,1,85,4|8,0:0|0:0,0:0:0:0:
128,316,64595,2,0,P|164:360|216:364,1,85,2|8,0:0|0:0,0:0:0:0:
272,356,65313,2,0,P|296:312|296:264,1,85,2|8,0:0|0:0,0:0:0:0:
292,192,66032,2,0,L|392:212,1,85,2|8,0:0|0:0,0:0:0:0:
380,124,66750,6,0,L|213:90,1,170,2|2,0:0|0:0,0:0:0:0:
140,132,67828,1,8,0:0:0:0:
96,204,68187,2,0,P|84:248|92:296,1,85,2|8,0:0|0:0,0:0:0:0:
168,256,68906,2,0,L|284:236,1,85,2|8,0:0|0:0,0:0:0:0:
336,236,69625,6,0,L|408:332,2,85,2|8|2,0:0|0:0|0:0,0:0:0:0:
292,164,70702,1,8,0:0:0:0:
348,100,71062,2,0,P|416:104|456:200,1,170,2|2,0:0|0:0,0:0:0:0:
292,164,72499,6,0,L|196:212,2,85,2|8|2,0:0|0:0|0:0,0:0:0:0:
348,100,73577,1,8,0:0:0:0:
264,80,73936,2,0,L|152:68,1,85,2|8,0:0|0:0,0:0:0:0:
108,116,74654,2,0,P|104:160|111:200,1,85,2|8,0:0|0:0,0:0:0:0:
148,276,75373,6,0,B|184:288|212:272|212:272|232:288|276:276,1,127.5,4|4,0:0|0:0,0:0:0:0:
392,320,76451,2,0,P|408:228|396:136,1,170,8|2,0:0|0:0,0:0:0:0:
328,104,77529,2,0,L|264:168,1,85,2|2,0:0|0:0,0:0:0:0:
192,200,78247,6,0,L|202:327,1,127.5,4|4,0:0|0:0,0:0:0:0:
112,236,79325,2,0,P|112:160|196:112,1,170,8|2,0:0|0:0,0:0:0:0:
264,144,80403,2,0,L|372:152,1,85,8|2,0:0|0:0,0:0:0:0:
412,208,81122,6,0,P|432:164|428:104,1,85,4|8,0:0|0:0,0:0:0:0:
380,60,81840,2,0,L|292:52,1,85,8|8,0:0|0:0,0:0:0:0:
216,88,82559,1,8,0:0:0:0:
156,148,82918,1,8,0:0:0:0:
124,228,83277,2,0,B|124:272|124:272|143:310,1,85,8|8,0:0|0:0,0:0:0:0:
224,292,83996,5,4,0:0:0:0:
344,172,84714,2,0,B|384:172|384:172|440:188,2,85,0|2|2,0:0|0:0|0:0,0:0:0:0:
248,260,89744,6,0,B|278:230|278:230|294:191,1,85,4|2,0:2|0:0,0:0:0:0:
320,112,90463,2,0,P|261:89|200:105,2,127.5,2|8|0,0:0|0:0|0:0,0:0:0:0:
388,168,91900,2,0,L|380:268,1,85,8|8,0:0|0:0,0:0:0:0:
312,300,92619,6,0,P|252:316|184:300,1,127.5,2|0,0:0|0:0,0:0:0:0:
84,168,93876,2,0,B|168:184|168:108|250:134,1,170,8|8,0:0|0:0,0:0:0:0:
328,152,94954,2,0,L|384:132,1,42.5,0|8,0:0|0:0,0:0:0:0:
428,80,95493,6,0,P|452:132|448:192,1,85,2|8,0:0|0:0,0:0:0:0:
356,240,96391,2,0,L|328:352,1,85,8|8,0:0|0:0,0:0:0:0:
356,240,98367,6,0,P|276:224|180:244,1,170,2|2,0:0|0:0,0:0:0:0:
84,312,99625,2,0,P|132:352|212:348,1,127.5,2|0,0:0|0:0,0:0:0:0:
272,204,100882,1,0,0:0:0:0:
344,252,101241,6,0,P|356:208|340:148,1,85,4|8,0:0|0:0,0:0:0:0:
296,104,101960,2,0,L|192:116,1,85,2|8,0:0|0:0,0:0:0:0:
152,176,102678,2,0,L|184:256,1,85,2|8,0:0|0:0,0:0:0:0:
264,280,103397,2,0,P|280:232|336:200,1,85,2|8,0:0|0:0,0:0:0:0:
388,220,104116,6,0,L|404:328,2,85,2|8|2,0:0|0:0|0:0,0:0:0:0:
376,136,105193,1,8,0:0:0:0:
300,100,105553,2,0,P|224:84|196:92,1,85,2|8,0:0|0:0,0:0:0:0:
148,132,106271,1,0,0:0:0:0:
64,124,106631,1,8,0:0:0:0:
72,208,106990,6,0,L|112:304,1,85,2|8,0:0|0:0,0:0:0:0:
188,284,107708,2,0,P|220:264|276:264,1,85,2|8,0:0|0:0,0:0:0:0:
336,312,108427,2,0,P|348:268|332:200,2,85,2|8|2,0:0|0:0|0:0,0:0:0:0:
256,336,109505,1,8,0:0:0:0:
188,284,109864,6,0,L|164:192,1,85,2|8,0:0|0:0,0:0:0:0:
216,132,110583,2,0,L|240:40,1,85,2|8,0:0|0:0,0:0:0:0:
312,92,111301,2,0,L|420:124,1,85,2|8,0:0|0:0,0:0:0:0:
420,196,112020,1,2,0:0:0:0:
408,280,112379,1,8,0:0:0:0:
344,336,112738,6,0,P|292:284|300:180,1,170,4|8,0:0|0:0,0:0:0:0:
340,72,113996,2,0,L|188:88,1,127.5,2|2,0:0|0:0,0:0:0:0:
136,124,114894,1,8,0:0:0:0:
72,180,115253,1,2,0:0:0:0:
132,240,115613,6,0,L|300:208,1,170,8|8,0:0|0:0,0:0:0:0:
380,180,116690,2,0,B|396:300|396:300|368:360,1,170,2|8,0:0|0:0,0:0:0:0:
292,332,117768,2,0,L|272:249,1,85,8|0,0:0|0:0,0:0:0:0:
208,192,118487,6,0,P|164:176|96:188,2,85,8|2|8,0:0|0:0|0:0,0:0:0:0:
272,249,119565,1,0,0:0:0:0:
196,284,119924,2,0,L|48:336,1,127.5,0|0,0:0|0:0,0:0:0:0:
48,244,120822,1,2,0:0:0:0:
28,160,121181,6,0,P|64:88|124:60,1,127.5,8|2,0:0|0:0,0:0:0:0:
180,104,122080,2,0,B|216:148|216:148|240:132|316:140,1,127.5,0|4,0:0|0:0,0:0:0:0:
364,172,122978,6,0,L|352:252,1,42.5,8|8,0:0|0:0,0:0:0:0:
316,288,123517,1,0,0:0:0:0:
436,332,124056,6,0,P|464:300|480:212,1,127.5,4|8,0:0|0:0,0:0:0:0:
464,136,124954,2,0,L|416:60,1,85,2|8,0:0|0:0,0:0:0:0:
336,76,125672,2,0,L|232:104,1,85,2|8,0:0|0:0,0:0:0:0:
168,108,126391,2,0,B|140:144|140:144|128:200,1,85,2|8,0:0|0:0,0:0:0:0:
140,268,127110,6,0,P|179:251|208:221,2,85,2|8|2,0:0|0:0|0:0,0:0:0:0:
64,228,128187,1,8,0:0:0:0:
52,144,128547,2,0,P|48:96|56:48,1,85,2|8,0:0|0:0,0:0:0:0:
136,68,129265,1,2,0:0:0:0:
220,76,129625,1,8,0:0:0:0:
292,120,129984,6,0,B|308:156|308:156|300:196|304:224,1,85,2|8,0:0|0:0,0:0:0:0:
328,284,130702,2,0,P|312:320|268:364,1,85,0|8,0:0|0:0,0:0:0:0:
196,344,131421,1,0,0:0:0:0:
144,276,131780,2,0,L|32:288,1,85,8|2,0:0|0:0,0:0:0:0:
28,204,132499,1,8,0:0:0:0:
88,144,132858,6,0,P|144:128|216:148,1,127.5,2|0,0:0|0:0,0:0:0:0:
276,196,133756,2,0,P|320:196|388:164,1,85,2|4,0:0|0:0,0:0:0:0:
440,160,134475,2,0,L|464:324,1,127.5,2|2,0:0|0:0,0:0:0:0:
392,340,135373,1,8,0:0:0:0:
324,292,135732,6,0,P|288:300|232:292,1,85,4|8,0:0|0:0,0:0:0:0:
180,236,136451,2,0,L|194:152,1,85,2|8,0:0|0:0,0:0:0:0:
260,96,137169,2,0,B|304:88|304:88|360:104,2,85,2|8|2,0:0|0:0|0:0,0:0:0:0:
195,152,138247,1,8,0:0:0:0:
112,132,138607,6,0,L|8:172,1,85,2|8,0:0|0:0,0:0:0:0:
72,240,139325,2,0,L|184:244,1,85,2|8,0:0|0:0,0:0:0:0:
244,248,140044,1,2,0:0:0:0:
312,300,140403,2,0,P|328:256|320:208,2,85,8|2|8,0:0|0:0|0:0,0:0:0:0:
244,248,141481,6,0,P|256:168|336:136,1,170,2|2,0:0|0:0,0:0:0:0:
408,176,142559,1,8,0:0:0:0:
404,92,142918,2,0,P|372:64|320:56,1,85,2|8,0:0|0:0,0:0:0:0:
252,88,143637,2,0,L|168:102,1,85,2|8,0:0|0:0,0:0:0:0:
120,172,144355,6,0,P|84:184|20:176,2,85,2|8|2,0:0|0:0|0:0,0:0:0:0:
168,103,145433,2,0,L|208:27,2,85,8|2|8,0:0|0:0|0:0,0:0:0:0:
120,172,146511,2,0,P|112:216|120:272,1,85,2|8,0:0|0:0,0:0:0:0:
144,336,147229,1,2,0:0:0:0:
240,204,150104,6,0,P|304:224|367:193,2,127.5,2|2|8,0:0|0:0|0:3,0:0:0:0:
32,56,152259,2,0,L|55:224,1,170,2|4,0:0|0:0,0:0:0:0:
276,168,164475,6,0,P|192:136|96:152,1,170,8|8,0:0|0:0,0:0:0:0:
204,288,165912,2,0,L|384:312,1,170,8|8,0:0|0:0,0:0:0:0:
444,264,166990,1,8,0:0:0:0:
380,208,167349,6,0,L|408:124,1,85,8|8,0:0|0:0,0:0:0:0:
328,96,168068,2,0,P|300:136|252:156,1,85,8|8,0:0|0:0,0:0:0:0:
196,108,168786,2,0,L|92:92,1,85,8|8,0:0|0:0,0:0:0:0:
76,172,169505,1,8,0:0:0:0:
92,256,169864,1,8,0:0:0:0:
168,296,170223,6,0,P|208:288|256:248,2,85,8|8|8,0:0|0:0|0:0,0:0:0:0:
92,256,171301,1,8,0:0:0:0:
76,172,171660,2,0,P|116:172|164:208,1,85,8|8,0:0|0:0,0:0:0:0:
232,224,172379,2,0,L|324:212,1,85,8|8,0:0|0:0,0:0:0:0:
388,168,173098,6,0,P|416:232|396:308,1,127.5,8|8,0:0|0:3,0:0:0:0:
332,324,173996,2,0,L|228:336,1,85,8|4,0:0|0:0,0:0:0:0:
172,296,174714,2,0,L|100:336,1,42.5,0|8,0:0|0:0,0:0:0:0:
64,268,175253,2,0,P|44:224|48:160,1,85,2|2,0:0|0:0,0:0:0:0:
112,140,175972,1,4,0:1:0:0:
264,200,187469,6,0,P|312:200|347:183,1,85,4|2,0:0|0:0,0:0:0:0:
292,120,188187,2,0,L|172:88,1,85,8|2,0:0|0:0,0:0:0:0:
132,136,188906,2,0,B|104:256|104:256|128:316,1,170,8|8,0:0|0:0,0:0:0:0:
292,308,190343,6,0,P|376:328|428:268,1,170,8|8,0:0|0:0,0:0:0:0:
324,140,191780,2,0,L|212:168,1,85,0|2,0:0|0:0,0:0:0:0:
176,216,192499,2,0,B|212:244|212:244|280:244,1,85,8|2,0:0|0:0,0:0:0:0:
336,228,193217,6,0,P|376:216|416:164,2,85,8|0|8,0:0|0:0|0:0,0:0:0:0:
184,300,194654,2,0,B|120:304|56:324|56:324|8:288,1,170,2|2,0:0|0:0,0:0:0:0:
112,156,196092,6,0,L|237:136,1,127.5,4|8,0:0|0:0,0:0:0:0:
312,176,196990,2,0,B|352:168|352:168|420:172,1,85,8|8,0:0|0:0,0:0:0:0:
420,252,197708,6,0,L|432:312,1,42.5,0|4,0:0|0:0,0:0:0:0:
344,312,198247,1,0,0:0:0:0:
220,340,198786,6,0,P|168:340|112:276,1,127.5,4|8,0:0|0:0,0:0:0:0:
36,255,199684,2,0,P|60:222|98:204,1,85,2|8,0:0|0:0,0:0:0:0:
184,212,200403,2,0,L|296:220,2,85,2|8|2,0:0|0:0|0:0,0:0:0:0:
99,204,201481,1,8,0:0:0:0:
120,120,201840,6,0,P|204:104|288:140,1,170,2|2,0:0|0:0,0:0:0:0:
344,188,202918,1,8,0:0:0:0:
420,152,203277,2,0,P|432:108|416:56,1,85,2|8,0:0|0:0,0:0:0:0:
344,48,203996,2,0,L|232:80,1,85,2|8,0:0|0:0,0:0:0:0:
184,104,204714,6,0,L|192:192,1,85,2|8,0:0|0:0,0:0:0:0:
172,272,205433,2,0,P|208:296|264:308,1,85,0|8,0:0|0:0,0:0:0:0:
332,308,206151,1,0,0:0:0:0:
400,252,206511,2,0,P|408:216|408:160,1,85,8|2,0:0|0:0,0:0:0:0:
344,116,207229,1,8,0:0:0:0:
268,156,207589,6,0,P|192:140|112:164,1,127.5,2|0,0:0|0:0,0:0:0:0:
84,208,208487,2,4,B|96:248|96:248|128:288,1,85,2|4,0:0|0:0,0:0:0:0:
208,284,209205,2,0,P|248:288|336:252,1,127.5,2|2,0:0|0:0,0:0:0:0:
380,188,210104,1,8,0:0:0:0:
348,108,210463,6,0,L|292:44,1,85,4|8,0:0|0:0,0:0:0:0:
216,80,211181,2,0,L|218:164,1,85,2|8,0:0|0:0,0:0:0:0:
176,236,211900,2,0,P|128:240|68:228,2,85,2|8|2,0:0|0:0|0:0,0:0:0:0:
219,165,212978,1,8,0:0:0:0:
300,196,213337,6,0,P|324:232|320:288,1,85,2|8,0:0|0:0,0:0:0:0:
260,328,214056,2,0,L|176:344,1,85,2|8,0:0|0:0,0:0:0:0:
96,320,214774,2,0,P|72:280|64:208,2,85,2|8|2,0:0|0:0|0:0,0:0:0:0:
176,344,215852,1,8,0:0:0:0:
180,260,216211,6,0,P|168:216|176:168,1,85,2|8,0:0|0:0,0:0:0:0:
252,208,216930,2,0,L|344:176,1,85,2|8,0:0|0:0,0:0:0:0:
412,156,217648,1,2,0:0:0:0:
448,232,218008,2,0,P|456:280|448:336,2,85,8|2|8,0:0|0:0|0:0,0:0:0:0:
412,156,219086,6,0,P|392:112|340:64,1,85,2|8,0:0|0:0,0:0:0:0:
292,120,219804,2,0,L|207:112,1,85,2|8,0:0|0:0,0:0:0:0:
140,164,220523,2,0,B|124:212|124:212|133:248,1,85,2|8,0:0|0:0,0:0:0:0:
192,308,221241,2,0,P|240:304|276:311,1,85,2|8,0:0|0:0,0:0:0:0:
356,344,221960,6,0,L|384:216,1,127.5,4|2,0:0|0:0,0:0:0:0:
436,152,222858,2,0,L|488:144,1,42.5,0|8,0:0|0:0,0:0:0:0:
448,64,223397,2,0,B|404:56|404:56|328:60,1,85,2|2,0:0|0:0,0:0:0:0:
304,120,224116,2,0,B|263:122|263:122|219:114,1,85,2|2,0:0|0:0,0:0:0:0:
136,112,224834,6,0,P|120:168|136:256,1,127.5,4|2,0:0|0:0,0:0:0:0:
184,300,225732,2,0,L|219:276,1,42.5,0|8,0:0|0:0,0:0:0:0:
304,288,226271,2,0,P|344:304|416:284,1,85,2|2,0:0|0:0,0:0:0:0:
356,220,226990,2,0,L|375:137,1,85,8|2,0:0|0:0,0:0:0:0:
292,112,227708,6,0,L|184:80,2,85,4|8|8,0:0|0:0|0:0,0:0:0:0:
376,136,228786,1,8,0:0:0:0:
440,192,229145,2,0,P|444:240|416:288,1,85,8|8,0:0|0:0,0:0:0:0:
352,308,229864,1,8,0:0:0:0:
268,288,230223,1,8,0:0:0:0:
220,216,230583,6,0,P|148:180|52:208,1,170,4|2,0:0|0:0,0:0:0:0:
144,348,232020,2,0,P|188:364|248:360,2,85,2|2|2,0:0|0:0|0:0,0:0:0:0:
92,280,233098,1,2,0:0:0:0:
256,192,233457,12,0,235163,0:0:0:0:
