osu file format v12

[General]
AudioFilename: Harmonia.mp3
AudioLeadIn: 0
PreviewTime: 67319
Countdown: 0
SampleSet: Soft
StackLeniency: 0.5
Mode: 0
LetterboxInBreaks: 0
WidescreenStoryboard: 0

[Editor]
DistanceSpacing: 0.5
BeatDivisor: 4
GridSize: 4

[Metadata]
Title:Harmonia
TitleUnicode:ハルモニア
Artist:ChouCho
ArtistUnicode:ちょうちょ
Creator:jonathanlfj
Version:Insane
Source:Eiyuu Densetsu: Sora no Kiseki The Animation
Tags:英雄伝説 空の軌跡 Legend of Heroes VI Trails in Sky ova ending rpg video game xchippy sjoy
BeatmapID:273908
BeatmapSetID:104082

[Difficulty]
HPDrainRate:6
CircleSize:4
OverallDifficulty:7
ApproachRate:9
SliderMultiplier:2
SliderTickRate:2

[Events]
//Background and Video events
Video,-40,"video.avi"
0,0,"BG.jpg",0,0
//Break Periods
//Storyboard Layer 0 (Background)
//Storyboard Layer 1 (Fail)
//Storyboard Layer 2 (Pass)
//Storyboard Layer 3 (Foreground)
//Storyboard Sound Samples
//Background Colour Transformations
3,100,0,0,0

[TimingPoints]
7320,588.235294117647,3,2,1,45,1,0
8790,-125,3,2,1,10,0,0
9084,-125,3,2,1,15,0,0
9378,-125,3,2,1,20,0,0
9672,-125,3,2,1,25,0,0
9967,-125,3,2,1,30,0,0
10261,-125,3,2,1,35,0,0
10359,-125,3,2,1,15,0,0
10849,-125,3,2,1,45,0,0
17172,-125,3,2,2,45,0,0
17908,-100,3,2,2,60,0,0
23496,-100,3,2,2,40,0,0
23790,-100,3,2,2,45,0,0
24084,-100,3,2,2,50,0,0
24378,-100,3,2,2,55,0,0
24672,-100,3,2,2,60,0,0
25555,588.235294117647,3,2,1,45,1,0
25555,-125,3,2,1,45,0,0
37907,-125,3,2,2,45,0,0
39672,-100,3,2,1,60,0,0
52025,-100,3,2,2,60,0,0
53790,-125,3,2,1,45,0,0
56731,-125,3,2,2,45,0,0
57025,-125,3,2,1,45,0,0
60260,-125,3,2,2,45,0,0
60554,-125,3,2,1,45,0,0
63790,-125,3,2,2,45,0,0
64378,-100,3,2,2,50,0,0
65260,-100,3,2,2,55,0,0
66143,-100,3,2,2,60,0,0
66731,-125,3,2,2,65,0,0
67907,-90.9090909090909,3,2,2,70,0,1
68055,-90.9090909090909,3,2,2,70,0,0
82025,-90.9090909090909,3,2,2,70,0,1
82172,-90.9090909090909,3,2,2,70,0,0
94378,-125,3,2,2,70,0,0
95260,-100,3,2,2,70,0,0
96143,-83.3333333333333,3,2,2,75,0,1
110260,-83.3333333333333,3,2,2,75,0,0
110849,-83.3333333333333,3,2,2,75,0,1
122613,-125,3,2,2,75,0,0
124378,-100,3,2,2,60,0,0
152760,-100,3,2,2,25,0,0
153202,-100,3,2,2,23,0,0
153790,-100,3,2,2,21,0,0
154378,-100,3,2,2,19,0,0
154966,-100,3,2,2,17,0,0
155554,-100,3,2,2,15,0,0
156143,-100,3,2,2,13,0,0
156731,-100,3,2,2,11,0,0
157319,-100,3,2,2,9,0,0
157907,-100,3,2,2,7,0,0
158496,-100,3,2,1,5,0,0

[Colours]
Combo1 : 41,100,254
Combo2 : 109,207,254
Combo3 : 182,147,253

[HitObjects]
256,192,8790,12,0,10359,0:0:0:0:
14,257,10849,6,0,P|58:257|93:283,1,80,2|0,0:0|0:0,0:0:0:0:
88,276,11290,2,0,L|162:233,1,80,2|0,0:0|0:0,0:0:0:0:
218,197,11731,1,0,0:0:0:0:
358,285,12025,1,2,0:0:0:0:
254,133,12320,1,0,0:0:0:0:
266,313,12614,6,0,L|294:253,1,40,2|0,0:0|0:0,0:0:0:0:
314,213,12908,1,0,0:0:0:0:
314,213,13055,2,0,P|354:201|398:209,1,80,2|0,0:0|0:0,0:0:0:0:
440,256,13496,2,0,L|468:292,2,40
320,48,14084,1,2,0:0:0:0:
320,48,14231,1,0,0:0:0:0:
320,48,14378,6,0,L|284:32,1,40,2|0,0:0|0:0,0:0:0:0:
156,40,14672,2,0,L|192:56,1,40,0|2,0:0|0:0,0:0:0:0:
256,180,15114,1,0,0:0:0:0:
256,180,15261,2,0,L|248:264,1,80,2|2,0:0|0:0,0:0:0:0:
200,348,15849,1,0,0:0:0:0:
348,236,16143,6,0,L|355:156,1,80,2|0,0:0|0:0,0:0:0:0:
355,156,16584,1,2,0:0:0:0:
448,308,16878,1,0,0:0:0:0:
272,340,17172,1,0,0:0:0:0:
272,340,17246,1,0,0:0:0:0:
272,340,17320,1,8,0:0:0:0:
224,256,17467,1,8,0:3:0:0:
140,304,17614,1,8,0:3:0:0:
140,304,17908,6,0,P|140:232|64:196,1,150,4|2,0:0|0:0,0:0:0:0:
8,208,18496,1,0,0:0:0:0:
12,360,18790,1,2,0:0:0:0:
76,268,19084,2,0,L|224:188,1,150,8|0,0:0|0:0,0:0:0:0:
280,200,19672,6,0,P|288:228|284:256,2,50,2|0|0,0:0|0:0|0:0,0:0:0:0:
240,112,20114,2,0,P|192:108|140:136,1,100,2|0,0:0|0:0,0:0:0:0:
128,200,20555,2,0,P|88:176|76:104,1,100,0|8,0:0|0:0,0:0:0:0:
192,40,21143,1,2,0:0:0:0:
224,36,21290,1,0,0:0:0:0:
260,32,21437,6,0,P|312:72|320:112,1,100,2|0,0:0|0:0,0:0:0:0:
308,172,21878,2,0,L|412:200,1,100
416,268,22320,2,0,L|428:320,2,50,2|0|8,0:0|0:0|0:0,0:0:0:0:
380,108,22908,1,0,0:0:0:0:
280,256,23202,1,0,0:0:0:0:
124,168,23496,5,8,0:0:0:0:
284,296,23790,1,8,0:0:0:0:
172,104,24084,1,8,0:0:0:0:
264,332,24378,1,8,0:0:0:0:
248,80,24672,1,8,0:0:0:0:
248,80,25555,6,0,P|291:92|317:127,1,80,4|0,0:0|0:0,0:0:0:0:
252,149,25996,2,0,P|208:189|148:193,1,120,2|0,0:0|0:0,0:0:0:0:
100,144,26584,2,0,L|112:96,1,40,0|2,0:0|0:0,0:0:0:0:
268,260,27025,1,0,0:0:0:0:
40,272,27319,6,0,P|44:312|68:344,1,80,2|0,0:0|0:0,0:0:0:0:
140,352,27760,2,0,P|176:320|176:248,1,120,2|0,0:0|0:0,0:0:0:0:
100,144,28496,1,2,0:0:0:0:
112,284,28790,1,0,0:0:0:0:
268,260,29084,6,0,P|296:284|308:328,1,80,2|0,0:0|0:0,0:0:0:0:
308,324,29525,2,0,L|420:264,1,120,2|0,0:0|0:0,0:0:0:0:
413,267,30113,1,0,0:0:0:0:
413,267,30260,1,2,0:0:0:0:
236,324,30555,1,0,0:0:0:0:
480,304,30849,6,0,L|488:256,1,40,2|0,0:0|0:0,0:0:0:0:
444,204,31143,1,0,0:0:0:0:
444,204,31290,2,0,P|412:176|400:136,1,80,2|0,0:0|0:0,0:0:0:0:
428,76,31731,2,0,P|460:104|472:144,1,80,0|2,0:0|0:0,0:0:0:0:
412,268,32319,1,0,0:0:0:0:
232,156,32613,6,0,B|188:152|156:176|156:176|124:148,2,120,2|2|0,0:0|0:0|0:0,0:0:0:0:
288,204,33643,1,0,0:0:0:0:
288,204,33790,2,0,L|248:280,1,80,2|0,0:0|0:0,0:0:0:0:
64,320,34378,6,0,L|104:244,1,80,2|0,0:0|0:0,0:0:0:0:
101,249,34819,1,2,0:0:0:0:
404,96,35260,1,0,0:0:0:0:
420,124,35407,1,0,0:0:0:0:
420,156,35555,2,0,P|400:192|360:212,1,80,2|0,0:0|0:0,0:0:0:0:
140,108,36143,5,2,0:0:0:0:
324,76,36437,1,0,0:0:0:0:
324,76,36584,2,0,L|344:24,2,40,2|0|0,0:0|0:0|0:0,0:0:0:0:
260,108,37025,2,0,P|248:152|260:188,1,80,0|2,0:0|0:0,0:0:0:0:
388,304,37613,1,0,0:0:0:0:
156,312,37907,6,0,P|124:280|112:244,1,80,2|8,0:0|0:0,0:0:0:0:
40,144,38349,2,0,P|60:100|92:80,1,80,8|8,0:0|0:3,0:0:0:0:
200,48,38790,2,0,L|244:72,1,40,8|0,0:3|0:0,0:0:0:0:
244,72,39010,1,0,0:0:0:0:
252,76,39084,2,0,L|280:124,1,40,2|0,0:0|0:0,0:0:0:0:
228,192,39378,2,0,L|207:157,1,40,8|2,0:3|0:0,0:0:0:0:
352,80,39672,6,0,P|356:132|328:176,1,100,4|0,0:0|0:0,0:0:0:0:
228,192,40113,2,0,B|304:196|304:196|368:236,1,150,2|0,0:0|0:0,0:0:0:0:
272,112,40849,1,2,0:0:0:0:
456,200,41143,1,0,0:0:0:0:
328,360,41437,5,2,0:0:0:0:
160,244,41731,1,0,0:0:0:0:
160,244,41878,2,0,L|124:148,1,100,2|0,0:0|0:0,0:0:0:0:
96,280,42319,2,0,P|132:312|188:312,2,100,0|2|0,0:0|0:0|0:0,0:0:0:0:
176,56,43202,6,0,L|211:149,1,100,2|0,0:0|0:0,0:0:0:0:
211,149,43643,2,0,P|284:128|348:164,1,150,2|0,0:0|0:0,0:0:0:0:
184,216,44378,1,2,0:0:0:0:
256,360,44672,1,0,0:0:0:0:
312,104,44966,6,0,L|300:160,1,50,2|0,0:0|0:0,0:0:0:0:
376,140,45260,1,0,0:0:0:0:
376,140,45407,2,0,P|424:168|440:216,1,100,2|0,0:0|0:0,0:0:0:0:
420,276,45849,2,0,L|404:328,2,50,0|0|2,0:0|0:0|0:0,0:0:0:0:
484,60,46437,1,0,0:0:0:0:
240,104,46731,6,0,P|188:104|148:68,1,100,2|0,0:0|0:0,0:0:0:0:
248,32,47172,2,0,P|304:72|296:148,1,150,2|0,0:0|0:0,0:0:0:0:
148,224,47907,1,2,0:0:0:0:
324,216,48202,1,0,0:0:0:0:
120,156,48496,5,2,0:0:0:0:
160,360,48790,1,0,0:0:0:0:
160,360,48937,2,0,P|192:324|200:268,1,100,2|0,0:0|0:0,0:0:0:0:
148,224,49378,2,0,P|96:224|56:192,1,100,0|2,0:0|0:0,0:0:0:0:
36,28,49966,1,0,0:0:0:0:
268,40,50260,6,0,L|248:148,1,100,2|0,0:0|0:0,0:0:0:0:
249,138,50702,1,2,0:0:0:0:
424,336,51143,1,0,0:0:0:0:
456,324,51290,1,0,0:0:0:0:
480,296,51437,2,0,L|500:188,1,100,2|0,0:0|0:0,0:0:0:0:
316,352,52025,5,2,0:0:0:0:
136,224,52319,1,8,0:0:0:0:
136,224,52466,1,8,0:0:0:0:
384,212,52760,1,8,0:0:0:0:
384,212,52907,1,8,0:0:0:0:
256,84,53202,2,0,L|296:124,1,50,8|8,0:3|0:3,0:0:0:0:
244,196,53496,2,0,L|304:212,1,50,8|0,0:3|0:0,0:0:0:0:
356,288,53790,6,0,P|300:280|248:316,2,120,4|0|0,0:0|0:0|0:0,0:0:0:0:
208,248,54966,1,2,0:0:0:0:
316,352,55260,1,0,0:0:0:0:
160,368,55555,6,0,P|144:308|160:272,1,80,2|0,0:0|0:0,0:0:0:0:
148,292,55996,2,0,L|68:260,1,80,2|0,0:0|0:0,0:0:0:0:
74,262,56437,1,0,0:0:0:0:
208,248,56731,1,8,0:0:0:0:
28,320,57025,1,0,0:0:0:0:
28,148,57319,6,0,L|116:144,1,80,2|0,0:0|0:0,0:0:0:0:
180,136,57760,2,0,P|200:80|176:28,1,120,2|0,0:0|0:0,0:0:0:0:
24,76,58496,1,2,0:0:0:0:
152,204,58790,1,0,0:0:0:0:
24,76,59084,5,2,0:0:0:0:
128,84,59378,1,0,0:0:0:0:
128,84,59525,2,0,P|168:84|208:64,1,80,2|0,0:0|0:0,0:0:0:0:
264,16,59966,1,0,0:0:0:0:
284,40,60113,1,0,0:0:0:0:
304,64,60260,2,0,L|312:148,1,80,8|0,0:0|0:0,0:0:0:0:
192,256,60849,5,4,0:0:0:0:
396,300,61143,1,0,0:0:0:0:
416,276,61290,1,0,0:0:0:0:
436,252,61437,2,0,L|444:168,2,80,0|0|2,0:0|0:0|0:0,0:0:0:0:
240,108,62319,1,0,0:0:0:0:
464,48,62613,6,0,P|436:80|400:92,1,80,4|0,0:0|0:0,0:0:0:0:
172,80,63202,2,0,P|200:48|236:36,1,80,0|0,0:0|0:0,0:0:0:0:
336,196,63790,1,8,0:0:0:0:
336,196,63937,1,8,0:0:0:0:
336,196,64084,2,0,L|328:248,1,40,8|0,0:3|0:0,0:0:0:0:
316,344,64378,5,4,0:0:0:0:
144,180,64672,1,8,0:0:0:0:
144,180,64966,1,8,0:0:0:0:
372,124,65260,6,0,L|412:164,1,50,4|0,0:0|0:0,0:0:0:0:
408,168,65481,1,0,0:0:0:0:
408,176,65555,1,8,0:0:0:0:
256,296,65849,1,8,0:0:0:0:
256,40,66143,1,4,0:0:0:0:
256,40,66731,6,0,B|276:80|256:116|256:116|236:152|256:196,1,160,4|2,0:0|0:0,0:0:0:0:
264,200,67907,6,0,P|312:228|368:212,1,110.000003356934,4|0,0:0|0:0,0:0:0:0:
400,144,68349,2,0,P|444:224|396:288,1,165.000005035401
324,152,69084,1,8,0:0:0:0:
448,344,69378,1,0,0:0:0:0:
260,276,69672,6,0,P|204:296|176:340,1,110.000003356934,2|0,0:0|0:0,0:0:0:0:
92,300,70113,2,0,P|102:241|78:195,1,110.000003356934,0|0,0:0|0:0,0:0:0:0:
156,144,70555,2,0,P|201:182|253:184,1,110.000003356934,0|8,0:0|0:0,0:0:0:0:
456,76,71143,1,0,0:0:0:0:
456,76,71290,1,0,0:0:0:0:
456,76,71437,6,0,L|500:28,2,55.0000016784668,2|0|0,0:0|0:0|0:0,0:0:0:0:
396,128,71878,2,0,P|436:164|436:224,1,110.000003356934
438,217,72319,1,0,0:0:0:0:
272,328,72613,1,8,0:0:0:0:
368,196,72907,1,0,0:0:0:0:
340,352,73202,6,0,P|336:292|288:256,1,110.000003356934,2|0,0:0|0:0,0:0:0:0:
228,268,73643,2,0,P|179:296|124:288,1,110.000003356934
68,216,74084,2,0,L|36:164,1,55.0000016784668,2|0,0:0|0:0,0:0:0:0:
152,148,74378,2,0,L|160:84,1,55.0000016784668,8|0,0:0|0:0,0:0:0:0:
256,128,74672,2,0,L|304:92,1,55.0000016784668,2|0,0:0|0:0,0:0:0:0:
424,60,74966,6,0,B|444:116|412:164|412:164|452:208,1,165.000005035401,4|0,0:0|0:0,0:0:0:0:
500,256,75555,1,0,0:0:0:0:
500,256,75849,1,0,0:0:0:0:
432,276,75996,1,0,0:0:0:0:
396,336,76143,2,0,P|348:352|288:336,1,110.000003356934,8|0,0:0|0:0,0:0:0:0:
148,240,76731,6,0,P|196:224|256:240,1,110.000003356934,2|0,0:0|0:0,0:0:0:0:
128,312,77172,2,0,P|84:276|76:220,1,110.000003356934
112,164,77613,1,0,0:0:0:0:
200,304,77907,1,8,0:0:0:0:
40,164,78202,1,0,0:0:0:0:
196,28,78496,6,0,P|236:64|244:124,1,110.000003356934,4|0,0:0|0:0,0:0:0:0:
216,184,78937,2,0,L|328:216,1,110.000003356934
384,176,79378,2,0,P|404:152|412:120,2,55.0000016784668,0|0|8,0:0|0:0|0:0,0:0:0:0:
200,304,79966,1,0,0:0:0:0:
40,164,80260,6,0,L|20:220,1,55.0000016784668,4|0,0:0|0:0,0:0:0:0:
132,184,80555,2,0,B|152:132|152:132|200:96,1,110.000003356934,8|4,0:0|0:0,0:0:0:0:
308,140,80996,2,0,P|336:188|324:244,1,110.000003356934,0|8,0:0|0:0,0:0:0:0:
264,272,81437,5,10,0:0:0:0:
380,288,81584,1,0,0:0:0:0:
264,200,81731,1,8,0:3:0:0:
392,136,81878,1,2,0:0:0:0:
244,100,82025,6,0,P|196:124|168:172,1,110.000003356934,4|0,0:0|0:0,0:0:0:0:
176,244,82466,2,0,P|124:276|76:276,1,110.000003356934
24,224,82907,2,0,L|12:160,2,55.0000016784668,0|0|8,0:0|0:0|0:0,0:0:0:0:
220,304,83496,1,0,0:0:0:0:
400,152,83790,6,0,L|472:244,1,110.000003356934,2|0,0:0|0:0,0:0:0:0:
440,348,84231,2,0,L|368:256,1,110.000003356934,0|0,0:0|0:0,0:0:0:0:
316,188,84672,2,0,P|288:176|256:176,2,55.0000016784668,0|0|8,0:0|0:0|0:0,0:0:0:0:
144,352,85260,1,0,0:0:0:0:
84,312,85407,1,0,0:0:0:0:
56,244,85555,6,0,P|56:180|84:140,1,110.000003356934,2|0,0:0|0:0,0:0:0:0:
160,108,85996,2,0,L|212:136,1,55.0000016784668
280,312,86437,1,0,0:0:0:0:
280,312,86584,1,0,0:0:0:0:
280,312,86731,2,0,P|224:292|200:244,1,110.000003356934,8|0,0:0|0:0,0:0:0:0:
276,236,87172,1,0,0:0:0:0:
276,236,87319,6,0,P|328:228|364:180,1,110.000003356934,2|0,0:0|0:0,0:0:0:0:
360,108,87760,1,0,0:0:0:0:
104,160,88055,1,0,0:0:0:0:
104,160,88202,2,0,L|224:160,2,110.000003356934,0|8|0,0:0|0:0|0:0,0:0:0:0:
172,304,89084,5,4,0:0:0:0:
394,208,89378,1,0,0:0:0:0:
201,63,89672,1,0,0:0:0:0:
174,322,89966,5,0,0:0:0:0:
183,56,90260,1,8,0:0:0:0:
409,197,90554,2,0,L|432:256,1,55.0000016784668
404,316,90849,6,0,P|348:296|296:316,1,110.000003356934,4|0,0:0|0:0,0:0:0:0:
302,311,91290,1,0,0:0:0:0:
128,176,91584,1,0,0:0:0:0:
128,176,91731,2,0,P|184:196|236:176,1,110.000003356934,0|8,0:0|0:0,0:0:0:0:
80,80,92319,1,0,0:0:0:0:
72,268,92613,6,0,L|112:308,1,55.0000016784668,4|0,0:0|0:0,0:0:0:0:
116,312,92834,1,0,0:0:0:0:
120,316,92907,2,0,L|180:308,1,55.0000016784668,8|8,0:0|0:0,0:0:0:0:
300,332,93202,2,0,L|245:339,1,55.0000016784668,0|8,0:0|0:3,0:0:0:0:
276,196,93496,6,0,P|296:216|308:248,1,55.0000016784668,8|0,0:3|0:0,0:0:0:0:
308,248,93716,1,0,0:0:0:0:
308,256,93790,1,8,0:3:0:0:
232,260,93937,1,8,0:3:0:0:
228,136,94084,1,0,0:0:0:0:
160,236,94231,1,8,0:3:0:0:
156,160,94378,6,0,B|140:104|186:50|245:63|245:63|269:24|316:24,1,240,4|2,0:0|0:0,0:0:0:0:
460,232,95554,1,8,0:0:0:0:
396,308,95702,1,8,0:0:0:0:
460,232,95849,2,0,L|460:172,1,50,8|0,0:3|0:0,0:0:0:0:
388,176,96143,6,0,P|344:208|280:200,1,119.999996337891,4|0,0:0|0:0,0:0:0:0:
228,136,96584,2,0,P|280:200|256:292,1,179.999994506836
258,288,97172,2,0,L|200:308,1,59.9999981689454,0|8,0:0|0:0,0:0:0:0:
16,292,97613,1,0,0:0:0:0:
184,228,97907,5,2,0:0:0:0:
344,344,98202,1,0,0:0:0:0:
344,344,98349,2,0,P|384:304|388:232,1,119.999996337891
332,168,98790,2,0,L|456:168,2,119.999996337891,0|8|0,0:0|0:0|0:0,0:0:0:0:
256,116,99525,1,0,0:0:0:0:
188,56,99672,6,0,P|166:122|184:172,1,119.999996337891,2|0,0:0|0:0,0:0:0:0:
256,212,100113,2,0,P|280:280|260:328,1,119.999996337891,0|0,0:0|0:0,0:0:0:0:
184,356,100554,2,0,L|120:368,2,59.9999981689454,0|0|8,0:0|0:0|0:0,0:0:0:0:
404,280,101143,1,0,0:0:0:0:
196,272,101437,6,0,B|140:252|140:252|108:192,1,119.999996337891,2|0,0:0|0:0,0:0:0:0:
111,198,101878,1,0,0:0:0:0:
348,48,102172,1,0,0:0:0:0:
348,48,102319,2,0,L|328:108,1,59.9999981689454,2|0,0:0|0:0,0:0:0:0:
444,152,102613,2,0,L|464:216,1,59.9999981689454,8|0,0:0|0:0,0:0:0:0:
316,264,102907,2,0,L|296:328,1,59.9999981689454,2|0,0:0|0:0,0:0:0:0:
396,248,103202,6,0,P|352:192|248:216,1,179.999994506836,4|0,0:0|0:0,0:0:0:0:
196,272,103790,1,0,0:0:0:0:
196,272,104084,1,0,0:0:0:0:
132,216,104231,1,0,0:0:0:0:
124,132,104378,2,0,P|152:76|208:56,1,119.999996337891,8|0,0:0|0:0,0:0:0:0:
468,48,104966,6,0,P|440:104|384:124,1,119.999996337891,2|0,0:0|0:0,0:0:0:0:
389,123,105407,2,0,L|472:228,1,119.999996337891
448,312,105849,1,0,0:0:0:0:
268,148,106143,1,8,0:0:0:0:
220,364,106437,1,0,0:0:0:0:
340,192,106731,6,0,B|324:228|276:244|236:228|236:228|200:276,2,179.999994506836,4|0|0,0:0|0:0|0:0,0:0:0:0:
180,160,107907,1,8,0:0:0:0:
324,80,108202,1,0,0:0:0:0:
120,88,108496,6,0,L|84:148,1,59.9999981689454,4|0,0:0|0:0,0:0:0:0:
48,248,108790,1,8,0:0:0:0:
48,248,109084,2,0,B|68:304|68:304|128:332,1,119.999996337891,4|0,0:0|0:0,0:0:0:0:
284,256,109525,1,8,0:0:0:0:
196,348,109672,2,0,L|204:288,1,59.9999981689454,10|0,0:0|0:0,0:0:0:0:
200,284,109893,1,0,0:0:0:0:
196,280,109966,2,0,L|204:220,1,59.9999981689454,8|2,0:3|0:0,0:0:0:0:
260,156,110260,5,4,0:0:0:0:
384,140,110407,1,0,0:3:0:0:
260,156,110554,2,0,P|256:124|264:96,1,59.9999981689454
408,68,110849,6,0,P|456:116|448:180,1,119.999996337891,6|0,0:0|0:0,0:0:0:0:
400,216,111290,2,0,L|444:264,1,59.9999981689454
196,348,111731,1,0,0:0:0:0:
136,304,111878,1,8,0:0:0:0:
64,312,112025,6,0,L|20:192,1,119.999996337891,4|0,0:0|0:0,0:0:0:0:
68,116,112466,1,0,0:0:0:0:
68,116,112613,2,0,P|104:112|136:120,2,59.9999981689454,8|0|0,0:0|0:0|0:0,0:0:0:0:
212,256,113202,1,2,0:0:0:0:
288,88,113496,2,0,L|316:28,1,59.9999981689454,0|8,0:0|0:0,0:0:0:0:
313,33,113790,6,0,P|363:67|379:123,1,119.999996337891,4|0,0:0|0:0,0:0:0:0:
336,192,114231,1,0,0:0:0:0:
292,260,114378,2,0,L|376:352,1,119.999996337891
372,348,114819,1,0,0:0:0:0:
372,348,114966,1,8,0:0:0:0:
336,192,115260,1,0,0:0:0:0:
256,188,115407,1,0,0:0:0:0:
212,256,115554,6,0,P|156:284|100:272,1,119.999996337891,2|0,0:0|0:0,0:0:0:0:
56,208,115996,2,0,P|92:140|84:100,1,119.999996337891
32,40,116437,1,0,0:0:0:0:
148,204,116731,1,8,0:0:0:0:
288,40,117025,2,0,L|328:84,1,59.9999981689454
364,180,117319,5,4,0:0:0:0:
148,204,117613,1,0,0:0:0:0:
148,204,117907,1,0,0:0:0:0:
385,278,118202,1,0,0:0:0:0:
126,105,118496,1,8,0:0:0:0:
385,278,118790,2,0,L|436:312,1,59.9999981689454
316,328,119084,6,0,B|284:264|328:216|328:216|320:184|288:172,1,179.999994506836,4|0,0:0|0:0,0:0:0:0:
76,248,119819,1,0,0:0:0:0:
76,248,119966,2,0,P|68:308|112:368,2,119.999996337891,0|8|0,0:0|0:0|0:0,0:0:0:0:
240,116,120849,5,4,0:0:0:0:
368,60,120996,1,0,0:0:0:0:
272,24,121143,1,8,0:0:0:0:
332,152,121290,2,0,P|344:208|316:264,1,119.999996337891,8|8,0:0|0:3,0:0:0:0:
192,316,121731,6,0,P|180:280|180:244,1,59.9999981689454,8|0,0:3|0:0,0:0:0:0:
184,252,121952,1,0,0:0:0:0:
188,244,122025,2,0,P|200:208|200:172,1,59.9999981689454,0|8,0:0|0:3,0:0:0:0:
120,196,122319,1,0,0:0:0:0:
240,116,122466,1,8,0:3:0:0:
260,272,122613,6,0,B|276:340|344:344|344:344|420:288|496:336,1,280,4|2,0:0|0:0,0:0:0:0:
444,240,123790,2,0,L|432:196,1,40,8|8,0:0|0:0,0:0:0:0:
464,88,124084,2,0,L|474:126,1,40,8|2,0:3|0:0,0:0:0:0:
352,176,124378,6,0,P|284:144|272:68,1,150,4|0,0:0|0:0,0:0:0:0:
316,20,124966,2,0,L|376:12,2,50
164,156,125554,1,8,0:0:0:0:
348,96,125849,1,0,0:0:0:0:
272,296,126143,6,0,P|248:252|256:204,1,100,2|0,0:0|0:0,0:0:0:0:
255,204,126584,2,0,L|352:176,1,100
351,176,127025,1,0,0:0:0:0:
328,352,127319,1,8,0:0:0:0:
144,312,127613,1,0,0:0:0:0:
328,352,127907,5,2,0:0:0:0:
180,212,128202,1,0,0:0:0:0:
180,212,128349,1,0,0:0:0:0:
180,212,128496,2,0,L|132:172,1,50
192,112,128790,2,0,L|164:64,1,50
72,68,129084,1,8,0:0:0:0:
272,168,129378,1,0,0:0:0:0:
64,252,129672,6,0,L|80:352,1,100,2|0,0:0|0:0,0:0:0:0:
152,364,130113,2,0,P|188:336|244:340,1,100
280,272,130554,2,0,L|304:224,2,50,0|0|8,0:0|0:0|0:0,0:0:0:0:
424,348,131143,1,0,0:0:0:0:
452,324,131290,1,0,0:0:0:0:
472,288,131437,6,0,P|488:232|476:188,1,100,4|0,0:0|0:0,0:0:0:0:
416,148,131878,2,0,L|364:132,1,50
208,152,132319,1,0,0:0:0:0:
412,44,132613,1,8,0:0:0:0:
388,236,132907,1,0,0:0:0:0:
228,80,133202,6,0,P|176:84|140:120,1,100,2|0,0:0|0:0,0:0:0:0:
144,188,133643,2,0,L|68:120,1,100
16,72,134084,1,0,0:0:0:0:
208,152,134378,1,8,0:0:0:0:
20,240,134672,1,0,0:0:0:0:
260,292,134966,6,0,P|188:255|125:287,2,150,4|0|0,0:0|0:0|0:0,0:0:0:0:
303,353,135996,2,0,P|276:365|248:366,1,50,0|8,0:0|0:0,0:0:0:0:
190,336,136290,1,0,0:0:0:0:
190,336,136437,2,0,L|196:268,1,50
260,200,136731,5,4,0:0:0:0:
260,200,136878,2,0,P|312:188|360:204,1,100
476,360,137466,1,0,0:0:0:0:
404,340,137613,2,0,L|372:296,1,50,8|8,0:0|0:0,0:0:0:0:
432,192,137907,2,0,P|428:224|416:248,1,50,8|8,0:3|0:3,0:0:0:0:
308,264,138202,1,8,0:0:0:0:
180,192,138349,1,8,0:0:0:0:
260,68,138496,6,0,B|308:96|316:148|316:148|368:148,1,150,4|0,0:0|0:0,0:0:0:0:
432,112,139084,2,0,P|452:60|440:16,1,100
216,8,139672,1,8,0:0:0:0:
376,60,139966,1,0,0:0:0:0:
236,148,140260,6,0,P|196:120|144:128,1,100,2|0,0:0|0:0,0:0:0:0:
100,184,140702,2,0,L|80:288,1,100,2|0,0:0|0:0,0:0:0:0:
152,344,141143,2,0,L|170:245,2,100,2|8|0,0:0|0:0|0:0,0:0:0:0:
264,216,142025,5,2,0:0:0:0:
100,184,142319,1,0,0:0:0:0:
100,184,142466,1,0,0:0:0:0:
100,184,142613,2,0,L|40:168,1,50
80,96,142907,2,0,L|40:44,1,50
132,24,143202,2,0,P|164:64|164:120,1,100,8|0,0:0|0:0,0:0:0:0:
220,284,143790,6,0,P|188:244|188:188,1,100,2|0,0:0|0:0,0:0:0:0:
236,140,144231,2,0,L|336:116,1,100
333,116,144672,1,0,0:0:0:0:
476,240,144966,1,8,0:0:0:0:
452,40,145260,2,0,L|440:96,1,50
424,160,145555,6,0,P|372:212|296:212,1,150,4|0,0:0|0:0,0:0:0:0:
144,116,146290,1,0,0:0:0:0:
144,116,146437,2,0,L|136:176,1,50
72,88,146731,2,0,P|104:48|156:40,1,100,8|0,0:0|0:0,0:0:0:0:
220,120,147319,6,0,L|204:228,1,100,4|0,0:0|0:0,0:0:0:0:
205,218,147760,2,0,P|244:244|300:232,1,100,0|0,0:3|0:0,0:0:0:0:
344,180,148202,2,0,L|376:136,2,50,0|0|8,0:0|0:0|0:0,0:0:0:0:
240,356,148790,1,0,0:0:0:0:
208,348,148937,1,0,0:0:0:0:
176,340,149084,6,0,L|104:272,1,100,4|0,0:0|0:0,0:0:0:0:
104,272,149525,1,0,0:0:0:0:
60,196,149672,2,0,P|55:168|60:140,1,50
144,168,149966,2,0,P|148:144|160:120,1,50
232,172,150260,1,8,0:0:0:0:
340,340,150555,1,0,0:0:0:0:
448,172,150849,6,0,L|460:124,1,50,2|0,0:0|0:0,0:0:0:0:
456,116,151069,1,0,0:0:0:0:
452,108,151143,2,0,L|464:60,1,50,8|8,0:0|0:0,0:0:0:0:
384,36,151437,2,0,P|356:36|332:44,1,50,0|8,0:0|0:3,0:0:0:0:
232,172,151731,5,8,0:3:0:0:
352,176,151878,1,0,0:0:0:0:
352,176,151952,1,0,0:0:0:0:
352,176,152025,2,0,P|368:152|372:128,1,50,0|8,0:0|0:3,0:0:0:0:
232,100,152319,1,0,0:0:0:0:
292,216,152466,1,8,0:3:0:0:
256,32,152613,5,4,0:0:0:0:
256,192,152760,12,0,159966,0:0:0:0:
