osu file format v12

[General]
AudioFilename: Harmonia.mp3
AudioLeadIn: 0
PreviewTime: 67319
Countdown: 0
SampleSet: Soft
StackLeniency: 0.5
Mode: 0
LetterboxInBreaks: 0
WidescreenStoryboard: 0

[Editor]
DistanceSpacing: 1
BeatDivisor: 4
GridSize: 4

[Metadata]
Title:Harmonia
TitleUnicode:ハルモニア
Artist:ChouCho
ArtistUnicode:ちょうちょ
Creator:jonathanlfj
Version:Easy
Source:Eiyuu Densetsu: Sora no Kiseki The Animation
Tags:英雄伝説 空の軌跡 Legend of Heroes VI Trails in Sky ova ending rpg video game xchippy sjoy
BeatmapID:304221
BeatmapSetID:104082

[Difficulty]
HPDrainRate:2
CircleSize:3
OverallDifficulty:2
ApproachRate:3
SliderMultiplier:1.2
SliderTickRate:2

[Events]
//Background and Video events
Video,-40,"video.avi"
0,0,"BG.jpg",0,0
//Break Periods
//Storyboard Layer 0 (Background)
//Storyboard Layer 1 (Fail)
//Storyboard Layer 2 (Pass)
//Storyboard Layer 3 (Foreground)
//Storyboard Sound Samples
//Background Colour Transformations
3,100,0,0,0

[TimingPoints]
7320,588.235294117647,3,2,1,45,1,0
8790,-100,3,2,1,10,0,0
9084,-100,3,2,1,15,0,0
9378,-100,3,2,1,20,0,0
9672,-100,3,2,1,25,0,0
9967,-100,3,2,1,30,0,0
10261,-100,3,2,1,35,0,0
10555,-100,3,2,1,40,0,0
10849,-100,3,2,1,45,0,0
17172,-100,3,2,2,45,0,0
17908,-100,3,2,2,60,0,0
23496,-100,3,2,2,40,0,0
23790,-100,3,2,2,45,0,0
24084,-100,3,2,2,50,0,0
24378,-100,3,2,2,55,0,0
24672,-100,3,2,2,60,0,0
25555,588.235294117647,3,2,1,45,1,0
25555,-100,3,2,1,45,0,0
37907,-100,3,2,2,45,0,0
39672,-100,3,2,1,60,0,0
52025,-100,3,2,2,60,0,0
53790,-100,3,2,1,45,0,0
56731,-100,3,2,2,45,0,0
57025,-100,3,2,1,45,0,0
60260,-100,3,2,2,45,0,0
60554,-100,3,2,1,45,0,0
63790,-100,3,2,2,45,0,0
64378,-100,3,2,2,50,0,0
65260,-100,3,2,2,55,0,0
66143,-100,3,2,2,60,0,0
66731,-100,3,2,2,65,0,0
67907,-100,3,2,2,70,0,1
68055,-100,3,2,2,70,0,0
82025,-100,3,2,2,70,0,1
82172,-100,3,2,2,70,0,0
96143,-100,3,2,2,75,0,1
110260,-100,3,2,2,75,0,0
110849,-100,3,2,2,75,0,1
122613,-100,3,2,2,75,0,0
124378,-100,3,2,2,60,0,0
152760,-100,3,2,2,25,0,0
153202,-100,3,2,2,23,0,0
153790,-100,3,2,2,21,0,0
154378,-100,3,2,2,19,0,0
154966,-100,3,2,2,17,0,0
155554,-100,3,2,2,15,0,0
156143,-100,3,2,2,13,0,0
156731,-100,3,2,2,11,0,0
157319,-100,3,2,2,9,0,0
157907,-100,3,2,2,7,0,0
158496,-100,3,2,1,5,0,0

[Colours]
Combo1 : 41,100,254
Combo2 : 109,207,254
Combo3 : 182,147,253

[HitObjects]
256,192,8790,12,2,10849,0:0:0:0:
400,120,12025,5,2,0:0:0:0:
388,240,12614,2,0,P|300:312|184:276,1,240,2|0,0:0|0:0,0:0:0:0:
276,200,14378,6,0,P|272:128|196:60,1,180,2|2,0:0|0:0,0:0:0:0:
136,64,15555,2,0,L|28:128,1,120,2|2,0:0|0:0,0:0:0:0:
200,296,17320,2,0,L|258:284,1,60,8|8,0:0|0:3,0:0:0:0:
316,272,17908,6,0,P|364:208|352:104,1,180,4|2,0:0|0:0,0:0:0:0:
304,84,19084,2,0,P|244:88|176:64,1,120,8|2,0:0|0:0,0:0:0:0:
76,280,20849,2,0,P|104:272|136:272,1,60,8|2,0:0|0:0,0:0:0:0:
188,296,21437,6,0,P|244:296|312:252,1,120,2|0,0:0|0:0,0:0:0:0:
420,280,22614,2,0,P|444:240|448:164,1,120,8|0,0:0|0:0,0:0:0:0:
424,112,23496,2,0,L|464:56,2,60,8|8|8,0:0|0:0|0:0,0:0:0:0:
364,116,24378,2,0,L|329:164,1,60,8|8,0:0|0:0,0:0:0:0:
188,276,25555,6,0,P|148:208|168:100,1,180,4|0,0:0|0:0,0:0:0:0:
212,76,26731,1,2,0:0:0:0:
280,176,27319,2,0,L|388:156,2,90,2|2|0,0:0|0:0|0:0,0:0:0:0:
248,228,28496,1,2,0:0:0:0:
320,324,29084,6,0,P|383:322|460:232,1,180,2|0,0:0|0:0,0:0:0:0:
428,188,30260,2,0,B|420:128|420:128|440:72,1,120,2|2,0:0|0:0,0:0:0:0:
200,60,32025,2,0,L|176:128,1,60,2|0,0:0|0:0,0:0:0:0:
128,148,32613,6,0,P|124:248|184:320,1,180,2|0,0:0|0:0,0:0:0:0:
228,324,33790,1,2,0:0:0:0:
332,268,34378,2,0,L|432:288,2,90,2|2|0,0:0|0:0|0:0,0:0:0:0:
276,244,35555,2,0,B|256:188|256:188|256:124,1,120,2|2,0:0|0:0,0:0:0:0:
316,24,36731,5,0,0:0:0:0:
196,24,37319,1,2,0:0:0:0:
136,128,37907,2,0,P|88:140|40:136,2,90,2|8|8,0:0|0:0|0:3,0:0:0:0:
192,148,39084,2,0,L|216:224,1,60,2|8,0:0|0:3,0:0:0:0:
208,264,39672,5,4,0:0:0:0:
384,300,40555,2,0,L|412:360,2,60,0|2|0,0:0|0:0|0:0,0:0:0:0:
360,244,41437,2,0,P|372:156|448:104,1,180,2|0,0:0|0:0,0:0:0:0:
500,112,42613,1,2,0:0:0:0:
492,232,43202,6,0,P|480:320|404:372,1,180,2|0,0:0|0:0,0:0:0:0:
352,348,44378,2,0,B|296:324|296:324|232:336,1,120,2|2,0:0|0:0,0:0:0:0:
44,196,46143,2,0,L|124:216,1,60,2|0,0:0|0:0,0:0:0:0:
160,224,46731,6,0,P|232:192|264:80,1,180,2|0,0:0|0:0,0:0:0:0:
240,48,47907,1,2,0:0:0:0:
360,48,48496,2,0,P|408:44|448:16,2,90,2|2|0,0:0|0:0|0:0,0:0:0:0:
320,92,49672,2,0,P|308:152|328:212,1,120,2|2,0:0|0:0,0:0:0:0:
160,276,51143,6,0,L|152:348,2,60,0|2|0,0:0|0:0|0:0,0:0:0:0:
196,228,52025,2,0,P|196:184|180:136,2,90,2|8|8,0:0|0:0|0:0,0:0:0:0:
244,264,53202,2,0,L|268:328,1,60,8|8,0:3|0:3,0:0:0:0:
320,340,53790,6,0,P|380:344|464:260,1,180,4|0,0:0|0:0,0:0:0:0:
460,208,54966,1,2,0:0:0:0:
356,148,55555,2,0,B|268:168|268:168|184:132,1,180,2|0,0:0|0:0,0:0:0:0:
132,108,56731,1,8,0:0:0:0:
68,212,57319,6,0,P|96:300|176:348,1,180,2|0,0:0|0:0,0:0:0:0:
228,336,58496,2,0,L|356:308,1,120,2|2,0:0|0:0,0:0:0:0:
448,92,60260,2,0,L|380:72,1,60,8|0,0:0|0:0,0:0:0:0:
332,60,60849,6,0,P|268:56|208:92,2,120,4|0|2,0:0|0:0|0:0,0:0:0:0:
296,176,62613,2,0,P|240:216|216:272,1,120,4|0,0:0|0:0,0:0:0:0:
336,292,63790,2,0,P|368:276|388:256,1,60,8|8,0:0|0:3,0:0:0:0:
408,204,64378,5,4,0:0:0:0:
256,108,65260,1,4,0:0:0:0:
104,204,66143,2,0,P|140:252|204:276,1,120,4|4,0:0|0:0,0:0:0:0:
384,128,67907,6,0,L|480:112,2,90,4|0|0,0:0|0:0|0:0,0:0:0:0:
324,124,69084,2,0,P|256:88|236:36,1,120,8|2,0:0|0:0,0:0:0:0:
124,88,70260,2,0,P|126:164|91:208,1,120,0|8,0:0|0:0,0:0:0:0:
196,276,71437,6,0,P|228:244|276:228,2,90,2|0|0,0:0|0:0|0:0,0:0:0:0:
180,336,72613,1,8,0:0:0:0:
300,356,73202,2,0,P|364:352|420:320,1,120,2|0,0:0|0:0,0:0:0:0:
456,216,74378,2,0,L|388:208,1,60,8|2,0:0|0:0,0:0:0:0:
368,156,74966,6,0,L|244:144,2,120,4|0|8,0:0|0:0|0:0,0:0:0:0:
296,252,76731,1,2,0:0:0:0:
116,264,77613,2,0,L|108:328,2,60,0|8|0,0:0|0:0|0:0,0:0:0:0:
124,204,78496,6,0,P|112:116|228:36,1,240,4|8,0:0|0:0,0:0:0:0:
276,68,79966,2,0,L|348:68,1,60,0|4,0:0|0:0,0:0:0:0:
408,164,80849,1,4,0:0:0:0:
336,260,81437,2,0,L|276:260,1,60,10|8,0:0|0:3,0:0:0:0:
220,236,82025,6,0,P|176:272|132:280,2,90,4|0|0,0:0|0:0|0:0,0:0:0:0:
220,176,83202,2,0,P|240:128|300:92,1,120,8|2,0:0|0:0,0:0:0:0:
412,120,84378,2,0,P|443:161|444:231,1,120,0|8,0:0|0:0,0:0:0:0:
360,308,85555,6,0,L|236:332,2,120,2|0|8,0:0|0:0|0:0,0:0:0:0:
276,220,87319,2,0,L|184:200,2,90,2|0|0,0:0|0:0|0:0,0:0:0:0:
324,184,88496,1,8,0:0:0:0:
256,88,89084,6,0,B|200:72|200:72|156:16,2,120,4|0|8,0:0|0:0|0:0,0:0:0:0:
312,68,90554,1,0,0:0:0:0:
372,76,90849,2,0,P|428:124|392:280,1,240,4|8,0:0|0:0,0:0:0:0:
256,192,92613,12,4,94378,0:0:0:0:
72,136,95554,6,0,L|88:208,1,60,8|8,0:0|0:3,0:0:0:0:
124,240,96143,6,0,P|220:264|288:220,1,180,4|0,0:0|0:0,0:0:0:0:
308,168,97319,2,0,L|444:192,1,120,8|2,0:0|0:0,0:0:0:0:
428,308,98496,2,0,L|309:328,1,120,0|8,0:0|0:0,0:0:0:0:
192,348,99672,6,0,P|136:336|108:308,2,90,2|0|0,0:0|0:0|0:0,0:0:0:0:
252,336,100849,1,8,0:0:0:0:
336,252,101437,2,0,L|352:120,1,120,2|0,0:0|0:0,0:0:0:0:
244,80,102613,2,0,L|232:160,1,60,8|2,0:0|0:0,0:0:0:0:
192,180,103202,6,0,P|124:188|68:160,2,120,4|0|8,0:0|0:0|0:0,0:0:0:0:
304,136,104966,2,0,P|372:156|420:256,1,180,2|0,0:0|0:0,0:0:0:0:
392,300,106143,1,8,0:0:0:0:
272,288,106731,6,0,L|172:320,2,90,4|0|0,0:0|0:0|0:0,0:0:0:0:
308,240,107907,1,8,0:0:0:0:
340,188,108202,2,0,L|340:108,1,60,0|4,0:0|0:0,0:0:0:0:
256,44,109084,1,4,0:0:0:0:
172,128,109672,2,0,L|172:188,1,60,10|8,0:0|0:3,0:0:0:0:
128,228,110260,6,0,P|127:289|164:344,1,120,4|4,0:0|0:0,0:0:0:0:
244,256,111437,2,0,L|324:244,1,60,0|0,0:0|0:0,0:0:0:0:
356,276,112025,2,0,P|408:308|472:304,2,120,4|8|2,0:0|0:0|0:0,0:0:0:0:
352,156,113790,6,0,P|408:132|440:72,2,120,4|0|8,0:0|0:0|0:0,0:0:0:0:
236,124,115554,2,0,P|132:136|76:200,1,180,2|0,0:0|0:0,0:0:0:0:
68,244,116731,1,8,0:0:0:0:
156,328,117319,6,0,P|224:332|280:304,1,120,4|0,0:0|0:0,0:0:0:0:
316,200,118496,1,8,0:0:0:0:
224,124,119084,2,0,P|200:168|200:224,2,90,4|0|0,0:0|0:0|0:0,0:0:0:0:
272,92,120260,1,8,0:0:0:0:
256,192,120849,12,4,122613,0:0:0:0:
440,80,123790,6,0,L|428:156,1,60,8|8,0:0|0:3,0:0:0:0:
392,184,124378,6,0,P|336:208|268:200,2,120,4|0|8,0:0|0:0|0:0,0:0:0:0:
316,92,126143,2,0,P|220:96|168:164,1,180,2|0,0:0|0:0,0:0:0:0:
164,216,127319,1,8,0:0:0:0:
252,300,127907,6,0,L|356:280,2,90,2|0|0,0:0|0:0|0:0,0:0:0:0:
200,332,129084,2,0,P|140:336|80:304,1,120,8|2,0:0|0:0,0:0:0:0:
72,72,130849,2,0,L|148:80,1,60,8|0,0:0|0:0,0:0:0:0:
180,116,131437,5,4,0:0:0:0:
236,220,132025,2,0,P|292:244|360:240,1,120,0|8,0:0|0:0,0:0:0:0:
432,152,133202,2,0,P|432:108|456:60,2,90,2|0|0,0:0|0:0|0:0,0:0:0:0:
460,204,134378,2,0,L|464:276,1,60,8|0,0:0|0:0,0:0:0:0:
436,316,134966,6,0,P|356:336|248:296,1,180,4|0,0:0|0:0,0:0:0:0:
224,264,136143,2,0,L|208:136,1,120,8|4,0:0|0:0,0:0:0:0:
376,76,137613,2,0,L|384:8,2,60,12|8|8,0:0|0:3|0:0,0:0:0:0:
336,124,138496,6,0,P|280:136|220:120,1,120,4|0,0:0|0:0,0:0:0:0:
116,64,139672,2,0,L|128:196,1,120,8|2,0:0|0:0,0:0:0:0:
284,364,141437,1,8,0:0:0:0:
240,252,142025,6,0,B|228:164|228:164|264:68,1,180,2|0,0:0|0:0,0:0:0:0:
284,24,143202,1,8,0:0:0:0:
400,48,143790,2,0,P|440:96|448:140,2,90,2|0|0,0:0|0:0|0:0,0:0:0:0:
344,32,144966,1,8,0:0:0:0:
224,24,145555,6,0,P|168:108|80:136,1,180,4|0,0:0|0:0,0:0:0:0:
36,140,146731,1,8,0:0:0:0:
76,252,147319,2,0,L|44:336,2,90,4|0|0,0:0|0:3|0:0,0:0:0:0:
132,228,148496,1,8,0:0:0:0:
232,296,149084,6,0,P|320:276|348:132,1,240,4|8,0:0|0:0,0:0:0:0:
256,72,150849,2,0,L|256:8,2,60,2|8|0,0:0|0:0|0:0,0:0:0:0:
152,132,152025,1,0,0:0:0:0:
256,192,152613,5,4,0:0:0:0:
256,192,152760,12,0,159966,0:0:0:0:
