osu file format v10

[General]
AudioFilename: Happy Fate (Short Ver.).mp3
AudioLeadIn: 2000
PreviewTime: 59583
Countdown: 0
SampleSet: Soft
StackLeniency: 0.7
Mode: 0
LetterboxInBreaks: 1

[Editor]
DistanceSpacing: 1
BeatDivisor: 4
GridSize: 4

[Metadata]
Title:Happy Fate (Short Ver.)
TitleUnicode:Happy Fate (Short Ver.)
Artist:ChouCho
ArtistUnicode:ChouCho
Creator:Sekai-nyan
Version:Normal Fate
Source:Mirai Nikki
Tags:yuno gasai character song kosiga Saten Saten-san
BeatmapID:178628
BeatmapSetID:58745

[Difficulty]
HPDrainRate:3
CircleSize:4
OverallDifficulty:3
ApproachRate:4
SliderMultiplier:1.2
SliderTickRate:1

[Events]
//Background and Video events
0,0,"917292-1024x768-Gasai-Yuno.jpg"
//Break Periods
2,87510,91824
//Storyboard Layer 0 (Background)
//Storyboard Layer 1 (Fail)
//Storyboard Layer 2 (Pass)
//Storyboard Layer 3 (Foreground)
//Storyboard Sound Samples
//Background Colour Transformations
3,100,163,162,255

[TimingPoints]
644,416.666666666667,4,2,1,70,1,0
60644,-100,4,2,2,70,0,1
85956,-100,4,2,2,40,0,1
86269,-100,4,2,2,70,0,1
87310,-100,4,2,1,70,0,0
101060,-100,4,2,1,60,0,0
101477,-100,4,2,1,50,0,0
101894,-100,4,2,1,40,0,0
102310,-100,4,2,1,30,0,0
102727,-100,4,2,1,20,0,0
103144,-100,4,2,1,10,0,0
103560,-100,4,2,1,5,0,0

[Colours]
Combo1 : 132,135,142
Combo2 : 254,222,233
Combo3 : 206,81,89

[HitObjects]
132,56,644,2,0,B|80:100|76:172,1,120,2|0,0:0|0:0,0:0:0
124,272,1477,1,0,0:0:0
240,308,1894,1,2,0:0:0
240,308,2102,1,0,0:0:0
360,164,2727,1,2,0:0:0
456,240,3144,2,0,B|488:208|492:164,2,60,0|0|2,0:0|0:0|0:0,0:0:0
360,164,3977,6,0,B|380:104|364:40,1,120,0|2,0:0|0:0,0:0:0
276,128,4810,1,0,0:0:0
176,72,5227,1,0,0:0:0
176,72,5435,2,0,B|128:72|108:120|84:176|16:176,1,180,6|2,0:0|0:0,0:0:0
56,296,6477,1,0,0:0:0
112,320,6685,1,0,0:0:0
168,300,6894,1,2,0:0:0
288,308,7310,6,0,B|352:328|412:296,1,120,0|8,0:0|0:0,0:0:0
460,192,8144,2,0,B|396:172|336:204,1,120,0|8,0:0|0:0,0:0:0
224,220,8977,1,0,0:0:0
124,284,9394,1,8,0:0:0
8,260,9810,2,0,B|32:204|32:204|108:192,1,120,0|8,0:0|0:0,0:0:0
152,92,10644,5,0,0:0:0
260,152,11060,2,0,B|328:196|376:156|428:112|504:160,1,240,8|8,0:0|0:0,0:0:0
480,272,12310,1,0,0:0:0
372,320,12727,2,0,B|316:344|316:344|252:324,1,120,8|0,0:0|0:0,0:0:0
188,228,13560,2,0,B|140:184,2,60,8|0|4,0:0|0:0|0:0,0:0:0
264,136,14394,6,0,B|284:104|368:52|460:108|475:153,1,240,8|8,0:0|0:0,0:0:0
372,212,15644,1,0,0:0:0
472,280,16060,2,0,B|460:317|368:373|284:321|264:289,1,240,8|8,0:0|0:0,0:0:0
144,296,17310,5,4,0:0:0
144,296,17519,1,0,0:0:0
76,196,17935,1,0,0:0:0
148,100,18352,1,0,0:0:0
268,108,18769,2,0,B|336:96|400:156,1,120,4|0,0:0|0:0,0:0:0
412,188,19394,2,0,B|448:244,2,60,8|0|10,0:0|0:0|0:0,0:0:0
332,280,20227,1,8,0:0:0
224,332,20644,6,0,B|152:340|96:284,1,120,0|2,0:0|0:0,0:0:0
88,180,21477,1,0,0:0:0
68,60,21894,1,2,0:0:0
180,108,22310,1,0,0:0:0
180,108,22727,2,0,B|232:136|296:100|296:100|392:140|432:108,1,240,2|2,0:0|0:0,0:0:0
468,224,23977,6,0,B|492:296|464:352,1,120,0|2,0:0|0:0,0:0:0
360,288,24810,2,0,B|296:272|224:308,1,120,0|2,0:0|0:0,0:0:0
128,340,25644,1,0,0:0:0
52,248,26060,2,0,B|-9:244|-45:164|-16:85|69:71,1,240,2|2,0:0|0:0,0:0:0
140,160,27310,1,0,0:0:0
224,72,27727,6,8,B|293:82|321:161|286:241|224:245,1,240,2|2,0:0|0:0,0:0:0
316,328,28977,1,0,0:0:0
436,328,29394,1,2,0:0:0
468,212,29810,2,0,B|460:140,1,60
440,96,30227,2,0,B|408:40|324:32,1,120,2|0,0:0|0:0,0:0:0
256,120,31060,5,2,0:0:0
184,216,31477,2,0,B|160:244|168:292,2,60,0|0|2,0:0|0:0|0:0,0:0:0
256,312,32310,1,0,0:0:0
328,216,32727,2,0,B|352:244|344:292,2,60,2|0|0,0:0|0:0|0:0,0:0:0
400,120,33560,2,0,B|444:160|448:232,1,120,8|4,0:0|0:0,0:0:0
328,216,34394,6,0,B|224:224|184:304|84:284,1,240,8|8,0:0|0:0,0:0:0
68,172,35644,1,0,0:0:0
168,108,36060,2,0,B|228:124|292:96,1,120,8|0,0:0|0:0,0:0:0
400,56,36894,1,8,0:0:0
488,136,37310,1,0,0:0:0
440,248,37727,6,0,B|408:316|340:324,1,120,8|0,0:0|0:0,0:0:0
340,204,38560,1,8,0:0:0
228,244,38977,2,0,B|100:244,1,120,0|8,0:0|0:0,0:0:0
52,136,39810,1,0,0:0:0
136,48,40227,1,8,0:0:0
252,80,40644,6,0,B|320:96|388:76,1,120,0|8,0:0|0:0,0:0:0
444,176,41477,2,0,B|428:226|444:294,1,120,0|8,0:0|0:0,0:0:0
328,328,42310,2,0,B|256:344,1,60
208,348,42727,2,0,B|140:376|64:356|36:284|52:216,1,240,8|8,0:0|0:0,0:0:0
56,116,43977,6,0,B|116:128|116:128|180:88,1,120,0|8,0:0|0:0,0:0:0
172,216,44810,2,0,B|220:188|220:188|292:196,1,120,0|8,0:0|0:0,0:0:0
396,240,45644,1,0,0:0:0
396,240,45852,1,8,0:0:0
396,240,46060,1,8,0:0:0
320,332,46477,2,0,B|272:360|272:360|200:352,1,120,0|2,0:0|0:0,0:0:0
108,284,47310,5,4,0:0:0
120,164,47727,2,0,B|216:176|240:136|268:88|376:124,1,240,2|2,0:0|0:0,0:0:0
444,192,48977,1,0,0:0:0
404,304,49394,6,0,B|307:304|307:304|240:344|167:312,1,240,2|2,0:0|0:0,0:0:0
228,208,50644,1,0,0:0:0
164,108,51060,2,0,B|236:72|301:117|301:117|398:117,1,240,2|2,0:0|0:0,0:0:0
448,224,52310,5,0,0:0:0
364,312,52727,1,2,0:0:0
272,236,53144,1,0,0:0:0
160,280,53560,6,0,B|104:320|28:296,1,120,2|4,0:0|0:0,0:0:0
60,180,54394,1,2,0:0:0
140,92,54810,2,0,B|204:116|268:84,1,120,0|2,0:0|0:0,0:0:0
372,56,55644,6,0,B|432:40,2,60,0|0|2,0:0|0:0|0:0,0:0:0
404,172,56477,1,0,0:0:0
432,228,56685,1,0,0:0:0
404,280,56894,1,0,0:0:0
288,308,57310,5,4,0:0:0
168,292,57727,2,0,B|100:192|100:192|120:72,1,240,2|2,0:0|0:0,0:0:0
240,68,58977,1,0,0:0:0
292,40,59185,1,0,0:0:0
344,68,59394,1,0,0:0:0
392,104,59602,2,0,B|452:144|452:216,1,120
448,264,60227,1,0,0:0:0
376,360,60644,5,4,0:0:0
296,272,61060,2,0,B|224:252|176:280,1,120,8|0,0:0|0:0,0:0:0
60,280,61894,1,8,0:0:0
76,160,62310,2,0,B|120:112|208:116,1,120,0|8,0:0|0:0,0:0:0
288,180,63144,1,0,0:0:0
340,288,63560,2,0,B|212:288,1,120,8|0,0:0|0:0,0:0:0
100,280,64394,5,8,0:0:0
80,164,64810,1,0,0:0:0
144,64,65227,1,8,0:0:0
260,92,65644,2,0,B|316:128|384:112,1,120,0|8,0:0|0:0,0:0:0
468,188,66477,2,0,B|448:260,1,60
416,296,66894,2,0,B|372:348|284:328,1,120,8|0,0:0|0:0,0:0:0
188,336,67727,5,8,0:0:0
68,344,68144,1,0,0:0:0
68,344,68560,2,0,B|24:268|40:204,1,120,8|0,0:0|0:0,0:0:0
44,112,69394,2,0,B|108:108|108:108|168:136,1,120,8|0,0:0|0:0,0:0:0
256,64,70227,1,8,0:0:0
364,120,70644,6,0,B|364:244,1,120,0|8,0:0|0:0,0:0:0
268,312,71477,2,0,B|220:352|136:328,1,120,0|8,0:0|0:0,0:0:0
72,244,72310,1,2,0:0:0
32,132,72727,1,8,0:0:0
120,52,73144,1,2,0:0:0
152,168,73560,2,0,B|224:192|288:148,1,120,8|4,0:0|0:0,0:0:0
388,176,74394,5,8,0:0:0
388,176,74602,1,0,0:0:0
388,176,74810,2,0,B|424:248|388:312,1,120,0|8,0:0|0:0,0:0:0
284,332,75644,2,0,B|244:348|208:332,2,60,0|0|8,0:0|0:0|0:0,0:0:0
284,212,76477,2,0,B|244:196|208:212,2,60,0|0|8,0:0|0:0|0:0,0:0:0
316,96,77310,5,0,0:0:0
212,36,77727,1,8,0:0:0
92,56,78144,1,0,0:0:0
40,164,78560,2,0,B|12:228|28:304,1,120,8|0,0:0|0:0,0:0:0
132,332,79394,6,0,B|260:372|368:316,1,240,8|8,0:0|0:0,0:0:0
400,196,80644,1,0,0:0:0
360,84,81060,2,0,B|254:29|126:69,1,240,8|8,0:0|0:0,0:0:0
64,172,82310,1,0,0:0:0
64,292,82727,1,8,0:0:0
180,328,83144,2,0,B|320:328,1,120,0|8,0:0|0:0,0:0:0
380,240,83977,6,0,B|252:240,1,120,4|8,0:0|0:0,0:0:0
200,240,84602,1,2,0:0:0
120,152,85019,1,2,0:0:0
212,76,85435,1,2,0:0:0
276,176,85852,1,10,0:0:0
276,176,86060,2,0,B|348:192|392:160|392:160|440:188|508:180,1,240,2|8,0:0|0:0,0:0:0
492,300,87310,1,2,0:0:0
84,220,93144,5,0,0:0:0
116,104,93560,1,0,0:0:0
224,48,93977,1,0,0:0:0
340,72,94394,6,0,B|392:88|436:140|428:216|392:280,1,240,2|2,0:0|0:0,0:0:0
304,348,95644,1,0,0:0:0
184,356,96060,1,2,0:0:0
92,276,96477,2,0,B|60:216|80:132,1,120,0|2,0:0|0:0,0:0:0
132,52,97310,5,4,0:0:0
132,52,97519,1,0,0:0:0
204,148,97935,1,0,0:0:0
272,48,98352,1,0,0:0:0
372,112,98769,2,0,B|436:160,1,60
436,268,99394,5,8,0:0:0
344,344,99810,1,0,0:0:0
256,264,100227,1,8,0:0:0
256,192,100644,12,0,103977,0:0:0
