osu file format v12

[General]
AudioFilename: Happy Fate.mp3
AudioLeadIn: 1500
PreviewTime: 59826
Countdown: 0
SampleSet: Soft
StackLeniency: 0.7
Mode: 0
LetterboxInBreaks: 1
WidescreenStoryboard: 0

[Editor]
Bookmarks: 51591
DistanceSpacing: 1
BeatDivisor: 4
GridSize: 4

[Metadata]
Title:Happy Fate
TitleUnicode:Happy Fate
Artist:ChouCho
ArtistUnicode:ちょうちょ
Creator:Ra-s
Version:Normal
Source:Mirai Nikki
Tags:Ingaritsu Noise KiAi K_i_A_i
BeatmapID:136870
BeatmapSetID:43408

[Difficulty]
HPDrainRate:4
CircleSize:3
OverallDifficulty:4
ApproachRate:5
SliderMultiplier:1
SliderTickRate:1

[Events]
//Background and Video events
0,0,"BG.png",0,0
//Break Periods
2,87520,92787
//Storyboard Layer 0 (Background)
//Storyboard Layer 1 (Fail)
//Storyboard Layer 2 (Pass)
//Storyboard Layer 3 (Foreground)
//Storyboard Sound Samples
//Background Colour Transformations
3,100,163,162,255

[TimingPoints]
654,416.666666666667,4,2,0,75,1,0
5237,-100,4,1,0,30,0,0
5653,-100,4,1,0,35,0,0
6070,-100,4,1,0,40,0,0
6487,-100,4,1,0,45,0,0
6903,-100,4,1,0,50,0,0
7112,-100,4,2,1,50,0,1
7320,-100,4,2,1,75,0,0
10237,-100,4,1,2,75,0,0
10654,-100,4,2,1,75,0,0
12737,-100,4,1,2,75,0,0
13987,-100,4,2,1,75,0,0
16487,-100,4,1,0,30,0,0
16695,-100,4,1,0,35,0,0
16903,-100,4,1,0,40,0,0
17112,-100,4,1,0,45,0,0
17320,-100,4,2,2,75,0,0
19404,-100,4,2,1,75,0,0
20237,-100,4,2,1,40,0,0
20862,-100,4,2,1,75,0,0
22737,-100,4,2,2,75,0,0
23154,-100,4,2,1,75,0,0
26070,-100,4,2,2,75,0,0
26487,-100,4,2,1,75,0,0
36070,-100,4,1,2,75,0,0
36487,-100,4,2,1,75,0,0
39404,-100,4,1,2,75,0,0
39820,-100,4,2,1,75,0,0
44404,-100,4,1,2,75,0,0
45654,-100,4,2,1,75,0,0
46695,-100,4,1,0,35,0,0
46903,-100,4,1,0,25,0,0
47320,-133.333333333333,4,2,1,75,0,0
47736,-133.333333333333,4,2,2,75,0,0
48153,-133.333333333333,4,2,1,75,0,0
49403,-133.333333333333,4,2,2,75,0,0
49820,-133.333333333333,4,2,1,75,0,0
51070,-133.333333333333,4,2,2,75,0,0
51487,-133.333333333333,4,2,1,75,0,0
51904,-133.333333333333,4,2,1,40,0,0
53986,-100,4,2,1,75,0,0
58362,-100,4,2,1,40,0,0
58570,-100,4,2,1,75,0,0
59195,-100,4,2,1,40,0,0
59404,-100,4,2,1,75,0,0
60654,-100,4,2,1,75,0,1
72112,-100,4,2,1,75,0,0
73987,-100,4,2,1,75,0,1
84404,-100,4,1,2,75,0,1
84820,-100,4,2,1,75,0,1
87320,-100,4,2,1,75,0,0
93779,-100,4,2,0,75,0,0
94195,-100,4,2,1,75,0,0
96070,-100,4,2,2,75,0,0
96487,-100,4,2,1,75,0,0
99404,-100,4,2,2,75,0,0
99820,-100,4,2,1,75,0,0
109404,-100,4,1,2,75,0,0
109820,-100,4,2,1,75,0,0
112737,-100,4,1,2,75,0,0
113154,-100,4,2,1,75,0,0
117737,-100,4,1,2,75,0,0
118987,-100,4,2,1,75,0,0
120654,-133.333333333333,4,2,1,75,0,0
121070,-133.333333333333,4,2,2,75,0,0
121487,-133.333333333333,4,2,1,75,0,0
122737,-133.333333333333,4,2,2,75,0,0
123154,-133.333333333333,4,2,1,75,0,0
124404,-133.333333333333,4,2,2,75,0,0
124820,-133.333333333333,4,2,1,75,0,0
125237,-133.333333333333,4,2,1,40,0,0
127320,-100,4,2,1,75,0,0
131695,-100,4,2,1,40,0,0
131904,-100,4,2,1,75,0,0
132529,-100,4,2,1,40,0,0
132737,-100,4,2,1,75,0,0
134404,-100,4,2,1,75,0,1
145445,-100,4,2,1,75,0,0
147320,-100,4,2,1,75,0,1
157737,-100,4,1,2,75,0,1
158154,-100,4,2,1,75,0,1
160654,-100,4,2,1,75,0,0
161070,-100,4,2,1,75,0,1
161487,-100,4,2,1,75,0,0

[Colours]
Combo1 : 255,102,102
Combo2 : 128,255,0
Combo3 : 255,128,192
Combo4 : 0,158,234

[HitObjects]
256,144,654,1,0,0:0:0:0:
256,240,1070,2,0,B|232:272|280:304|256:336,2,100,2|0|2,0:0|0:0|0:0,0:0:0:0:
256,192,2112,2,0,B|208:120|104:136|64:200|72:264,1,250
172,252,3570,2,0,B|172:316|124:348,1,100,2|0,0:0|0:0,0:0:0:0:
32,332,4404,2,0,B|32:268|80:236,1,100,2|0,0:0|0:0,0:0:0:0:
80,136,5237,5,0,0:0:0:0:
116,40,5654,1,0,0:0:0:0:
204,80,6070,1,0,0:0:0:0:
256,80,6279,1,0,0:0:0:0:
308,80,6487,1,0,0:0:0:0:
396,40,6904,5,0,0:0:0:0:
416,88,7112,2,0,B|392:168|440:240,1,150,4|8,0:0|0:0,0:0:0:0:
336,236,8154,2,0,B|339:289|384:319,2,100,0|8|0,0:0|0:0|0:0,0:0:0:0:
256,183,9404,1,8,0:0:0:0:
268,84,9820,2,0,B|192:60|132:124|154:196,1,200
192,284,11070,5,8,0:0:0:0:
240,356,11487,2,0,B|192:388|144:356,1,100,0|8,0:0|0:0,0:0:0:0:
192,284,12320,2,0,B|292:249|285:330|386:295,2,200
88,284,14403,5,8,0:0:0:0:
8,240,14820,2,0,B|-20:288|8:336,1,100,0|8,0:0|0:0,0:0:0:0:
88,284,15653,1,0,0:0:0:0:
172,328,16070,2,0,B|200:280|172:232,1,100,8|0,0:0|0:0,0:0:0:0:
172,180,16695,6,0,B|172:132,3,50,0|0|0|6,0:0|0:0|0:0|0:0,0:0:0:0:
172,72,17528,2,0,B|212:68|212:68|236:76|236:76|272:72,2,100,2|2|2,0:0|0:0|0:0,0:0:0:0:
116,72,18570,2,0,B|60:80,1,50
44,228,19404,5,12,0:0:0:0:
128,172,19820,1,0,0:0:0:0:
40,124,20237,1,8,0:0:0:0:
168,264,21070,6,0,B|216:304|200:368,1,100,2|0,0:0|0:0,0:0:0:0:
100,344,21904,1,2,0:0:0:0:
72,248,22320,2,0,B|40:200|72:152|72:152|100:108|68:60,1,200
168,32,23570,2,0,B|222:18|259:56,1,100,2|0,0:0|0:0,0:0:0:0:
256,160,24404,6,0,B|240:200|280:216|256:256,1,100,2|0,0:0|0:0,0:0:0:0:
256,308,25029,2,0,B|264:364|320:376,1,100
356,340,25654,2,0,B|406:356|463:334|486:277|469:226,1,200
368,240,26904,1,2,0:0:0:0:
368,240,27320,1,0,0:0:0:0:
280,184,27737,5,2,0:0:0:0:
256,88,28154,2,0,B|192:88,1,50
160,88,28570,2,0,B|128:136|160:184,1,100,2|0,0:0|0:0,0:0:0:0:
160,280,29404,2,0,B|112:280,2,50,2|0|0,0:0|0:0|0:0,0:0:0:0:
208,280,30029,2,0,B|264:280,1,50,0|2,0:0|0:0,0:0:0:0:
308,280,30445,2,0,B|364:216|308:144,2,150,0|2|0,0:0|0:0|0:0,0:0:0:0:
280,324,31904,5,2,0:0:0:0:
204,372,32320,1,0,0:0:0:0:
128,324,32737,1,2,0:0:0:0:
48,372,33154,2,0,B|16:328|48:276,1,100,0|8,0:0|0:0,0:0:0:0:
128,232,33987,1,4,0:0:0:0:
24,164,34404,6,0,P|20:112|48:60,1,100,8|0,0:0|0:0,0:0:0:0:
128,28,35237,2,0,B|128:76,1,50,8|0,0:0|0:0,0:0:0:0:
132,120,35654,2,0,B|208:164|248:76|324:120,1,200
376,208,36904,2,0,B|432:192|424:128,1,100,8|0,0:0|0:0,0:0:0:0:
424,32,37737,5,8,0:0:0:0:
324,32,38154,2,0,B|268:32,2,50,0|0|8,0:0|0:0|0:0,0:0:0:0:
320,132,38987,2,0,B|304:188|248:204|192:192|172:132,1,200
220,44,40237,2,0,B|172:12|124:44,1,100,8|0,0:0|0:0,0:0:0:0:
80,132,41070,5,8,0:0:0:0:
80,232,41487,2,0,B|80:280,2,50,0|0|8,0:0|0:0|0:0,0:0:0:0:
172,188,42320,5,0,0:0:0:0:
172,88,42737,1,8,0:0:0:0:
264,56,43153,2,0,B|264:104,1,50
264,156,43570,2,0,B|264:220,1,50,8|0,0:0|0:0,0:0:0:0:
264,256,43987,6,0,B|272:320|328:344|384:320|392:256,2,200,0|0|4,0:0|0:0|0:0,0:0:0:0:
264,204,45862,2,0,B|264:148,1,50,0|8,0:0|0:0,0:0:0:0:
264,52,46487,2,0,B|312:52,2,50,0|0|0,0:0|0:0|0:0,0:0:0:0:
168,52,47320,6,0,B|128:46|88:63|71:102|77:142,1,149.999995529652
157,131,48570,1,0,0:0:0:0:
132,208,48987,2,0,B|128:264|188:304|236:284,1,150.000005722046
212,208,50237,1,0,0:0:0:0:
292,208,50653,2,0,B|296:152|236:112|188:132,1,150.000005722046
256,32,52112,1,4,0:0:0:0:
176,176,53570,5,8,0:0:0:0:
176,176,53987,2,0,B|200:224|256:248|312:224|336:176,1,200,4|0,0:0|0:0,0:0:0:0:
336,72,55237,1,0,0:0:0:0:
336,72,55445,2,0,B|312:24|256:0|200:24|176:72,1,200,4|0,0:0|0:0,0:0:0:0:
175,72,56487,1,8,0:0:0:0:
256,128,56903,2,0,B|256:240,1,100,0|4,0:0|0:0,0:0:0:0:
256,328,57737,5,0,0:0:0:0:
256,328,57945,2,0,B|256:392,2,50,0|8|0,0:0|0:0|0:0,0:0:0:0:
256,228,58778,2,0,B|256:172,3,50,4|0|8|8,0:0|0:0|0:0|0:0,0:0:0:0:
216,88,59820,2,0,B|236:56|280:56|300:88,2,100,0|8|4,0:0|0:0|0:0,0:0:0:0:
256,176,61070,5,8,0:0:0:0:
256,224,61278,2,0,B|256:288,3,50,0|0|0|8,0:0|0:0|0:0|0:0,0:0:0:0:
256,376,62320,2,0,B|136:376,1,100,0|8,0:0|0:0,0:0:0:0:
128,280,63153,2,0,B|64:288|56:360,1,100,0|8,0:0|0:0,0:0:0:0:
156,377,63987,6,0,B|220:369|228:297,1,100,0|8,0:0|0:0,0:0:0:0:
228,265,64612,2,0,B|228:201,3,50,0|0|0|8,0:0|0:0|0:0|0:0,0:0:0:0:
224,112,65653,2,0,B|288:104|312:176,1,100,0|8,0:0|0:0,0:0:0:0:
400,192,66487,5,0,0:0:0:0:
344,272,66903,1,8,0:0:0:0:
272,344,67320,2,0,B|208:344,1,50,0|0,0:0|0:0,0:0:0:0:
168,344,67737,2,0,B|112:344,1,50,8|0,0:0|0:0,0:0:0:0:
72,344,68153,2,0,B|48:296|72:248,2,100,0|8|0,0:0|0:0|0:0,0:0:0:0:
160,296,69403,5,8,0:0:0:0:
160,296,69820,2,0,B|184:248|160:200,1,100,0|8,0:0|0:0,0:0:0:0:
264,200,70653,2,0,B|260:146|215:116,1,100,0|8,0:0|0:0,0:0:0:0:
296,64,71487,2,0,B|266:19|212:16,1,100,0|8,0:0|0:0,0:0:0:0:
256,192,72320,12,4,73987,0:0:0:0:
256,304,74403,5,8,0:0:0:0:
336,240,74820,2,0,B|368:192|336:144,1,100,0|8,0:0|0:0,0:0:0:0:
256,88,75653,2,0,B|256:32,2,50,0|0|8,0:0|0:0|0:0,0:0:0:0:
174,147,76487,2,0,B|144:192|176:240,1,100,0|8,0:0|0:0,0:0:0:0:
256,192,77320,6,0,B|256:304,1,100,0|8,0:0|0:0,0:0:0:0:
256,344,77945,2,0,B|280:368|320:368|352:344,2,100
208,344,78987,2,0,B|104:344,1,100,0|8,0:0|0:0,0:0:0:0:
56,264,79820,5,0,0:0:0:0:
128,196,80237,1,8,0:0:0:0:
52,132,80654,2,0,B|52:72|108:60,1,100,4|8,0:0|0:0,0:0:0:0:
156,60,81279,2,0,B|220:60,1,50
308,64,81904,1,8,0:0:0:0:
308,64,82320,2,0,B|420:64,1,100,0|8,0:0|0:0,0:0:0:0:
412,164,83154,2,0,B|300:164,1,100,0|8,0:0|0:0,0:0:0:0:
216,120,83987,6,0,B|187:91|131:103|119:159|148:187,2,150,4|0|8,0:0|0:0|0:0,0:0:0:0:
256,216,85654,1,0,0:0:0:0:
256,264,85862,2,0,B|256:320,1,50,8|12,0:0|0:0,0:0:0:0:
360,312,86487,2,0,B|408:320|464:312,2,100,0|8|2,0:0|0:0|0:0,0:0:0:0:
344,120,93987,5,2,0:0:0:0:
344,120,94404,2,0,B|296:80|312:16,1,100,2|0,0:0|0:0,0:0:0:0:
408,40,95237,1,2,0:0:0:0:
440,136,95654,2,0,B|472:184|440:232|440:232|412:276|444:324,1,200
356,380,96904,2,0,B|302:394|265:356,1,100,2|0,0:0|0:0,0:0:0:0:
256,256,97737,6,0,B|272:216|232:200|256:160,1,100,2|0,0:0|0:0,0:0:0:0:
256,108,98362,2,0,B|248:52|192:40,1,100
144,36,98987,2,0,B|94:20|37:42|14:99|31:150,1,200
144,144,100237,1,2,0:0:0:0:
144,144,100654,1,0,0:0:0:0:
232,200,101070,5,2,0:0:0:0:
256,296,101487,2,0,B|320:296,1,50
352,296,101904,2,0,B|384:248|352:200,1,100,2|0,0:0|0:0,0:0:0:0:
352,104,102737,2,0,B|400:104,2,50,2|0|0,0:0|0:0|0:0,0:0:0:0:
304,104,103362,2,0,B|248:104,1,50,0|2,0:0|0:0,0:0:0:0:
208,104,103779,2,0,B|152:168|208:240,2,150,0|2|0,0:0|0:0|0:0,0:0:0:0:
243,68,105237,5,2,0:0:0:0:
332,112,105654,1,0,0:0:0:0:
264,176,106070,1,2,0:0:0:0:
296,272,106487,2,0,B|349:263|361:206,1,100
424,128,107320,1,4,0:0:0:0:
488,204,107737,6,0,P|492:256|464:308,1,100,8|0,0:0|0:0,0:0:0:0:
384,340,108570,2,0,B|384:292,1,50,8|0,0:0|0:0,0:0:0:0:
380,248,108987,2,0,B|304:204|264:292|188:248,1,200
136,160,110237,2,0,B|80:176|84:236,1,100,8|0,0:0|0:0,0:0:0:0:
88,336,111070,5,8,0:0:0:0:
192,336,111487,2,0,B|248:336,2,50,0|0|8,0:0|0:0|0:0,0:0:0:0:
192,232,112320,2,0,B|208:176|264:160|320:172|340:232,1,200
292,320,113570,2,0,B|340:352|388:320,1,100,8|0,0:0|0:0,0:0:0:0:
432,232,114404,5,8,0:0:0:0:
432,128,114820,2,0,B|432:80,2,50,0|0|8,0:0|0:0|0:0,0:0:0:0:
344,176,115654,5,0,0:0:0:0:
344,280,116070,1,8,0:0:0:0:
248,320,116487,2,0,B|248:272,1,50
248,224,116904,2,0,B|248:160,1,50,8|0,0:0|0:0,0:0:0:0:
248,120,117320,6,0,B|240:56|184:32|128:56|120:120,2,200
248,168,119195,2,0,B|248:224,1,50,0|12,0:0|0:0,0:0:0:0:
248,320,119820,2,0,B|248:368,2,50,0|0|8,0:0|0:0|0:0,0:0:0:0:
344,332,120654,6,0,B|383:337|423:320|440:281|434:241,1,149.999995529652
355,253,121904,1,0,0:0:0:0:
380,176,122320,2,0,B|384:120|324:80|276:100,1,150.000005722046
300,176,123570,1,0,0:0:0:0:
220,176,123987,2,0,B|216:232|276:272|324:252,1,150.000005722046
408,192,125445,1,4,0:0:0:0:
176,224,126904,5,8,0:0:0:0:
176,224,127320,2,0,B|200:176|256:152|312:176|336:224,1,200,4|0,0:0|0:0,0:0:0:0:
336,328,128570,1,0,0:0:0:0:
336,328,128779,2,0,B|312:376|256:400|200:376|176:328,1,200,4|0,0:0|0:0,0:0:0:0:
175,328,129820,1,8,0:0:0:0:
256,272,130237,2,0,B|256:160,1,100,0|4,0:0|0:0,0:0:0:0:
256,72,131070,5,0,0:0:0:0:
256,72,131279,2,0,B|256:8,2,50,0|8|4,0:0|0:0|0:0,0:0:0:0:
256,176,132112,2,0,B|256:224,3,50,4|0|8|8,0:0|0:0|0:0|0:0,0:0:0:0:
216,312,133154,2,0,B|236:344|280:344|300:312,2,100,0|8|2,0:0|0:0|0:0,0:0:0:0:
256,224,134404,5,12,0:0:0:0:
256,176,134612,2,0,B|256:112,3,50,0|0|0|8,0:0|0:0|0:0|0:0,0:0:0:0:
256,24,135654,2,0,B|136:24,1,100,0|8,0:0|0:0,0:0:0:0:
128,120,136487,2,0,B|64:112|56:40,1,100,0|8,0:0|0:0,0:0:0:0:
156,23,137320,6,0,B|220:31|228:103,1,100,0|8,0:0|0:0,0:0:0:0:
228,135,137945,2,0,B|228:199,3,50,0|0|0|8,0:0|0:0|0:0|0:0,0:0:0:0:
224,288,138987,2,0,B|288:296|312:224,1,100,0|8,0:0|0:0,0:0:0:0:
400,208,139820,5,0,0:0:0:0:
344,128,140237,1,8,0:0:0:0:
272,56,140654,2,0,B|208:56,1,50,0|0,0:0|0:0,0:0:0:0:
168,56,141070,2,0,B|112:56,1,50,8|0,0:0|0:0,0:0:0:0:
72,56,141487,2,0,B|48:104|72:152,2,100,0|8|0,0:0|0:0|0:0,0:0:0:0:
160,104,142737,5,8,0:0:0:0:
160,104,143154,2,0,B|184:152|160:200,1,100,0|8,0:0|0:0,0:0:0:0:
260,200,143987,2,0,B|256:254|211:284,1,100,0|8,0:0|0:0,0:0:0:0:
300,332,144820,2,0,B|270:377|216:380,1,100,0|8,0:0|0:0,0:0:0:0:
256,192,145654,12,4,147320,0:0:0:0:
256,80,147737,5,8,0:0:0:0:
176,144,148154,2,0,B|144:192|176:240,1,100,0|8,0:0|0:0,0:0:0:0:
256,296,148987,2,0,B|256:352,2,50,0|0|8,0:0|0:0|0:0,0:0:0:0:
338,237,149820,2,0,B|368:192|336:144,1,100,0|8,0:0|0:0,0:0:0:0:
256,192,150654,6,0,B|256:80,1,100,0|8,0:0|0:0,0:0:0:0:
256,40,151279,2,0,B|232:16|192:16|160:40,2,100
304,40,152320,2,0,B|408:40,1,100,0|8,0:0|0:0,0:0:0:0:
456,120,153154,5,0,0:0:0:0:
400,208,153570,1,8,0:0:0:0:
456,296,153987,2,0,B|456:356|400:368,1,100,4|8,0:0|0:0,0:0:0:0:
352,368,154612,2,0,B|288:368,3,50,0|0|0|8,0:0|0:0|0:0|0:0,0:0:0:0:
200,368,155654,2,0,B|88:368,1,100,0|8,0:0|0:0,0:0:0:0:
100,268,156487,2,0,B|212:268,1,100,0|8,0:0|0:0,0:0:0:0:
228,364,157320,6,0,B|257:393|313:381|325:325|296:297,2,150,4|0|8,0:0|0:0|0:0,0:0:0:0:
136,328,158987,1,0,0:0:0:0:
104,288,159195,2,0,P|84:272|60:264,1,50,8|12,0:0|0:0,0:0:0:0:
16,176,159820,2,0,B|8:128|16:72,2,100,0|8|0,0:0|0:0|0:0,0:0:0:0:
100,228,161070,1,4,0:0:0:0:
