osu file format v12

[General]
AudioFilename: Happy Fate.mp3
AudioLeadIn: 1500
PreviewTime: 59826
Countdown: 0
SampleSet: Soft
StackLeniency: 0.7
Mode: 0
LetterboxInBreaks: 1
WidescreenStoryboard: 0

[Editor]
DistanceSpacing: 1
BeatDivisor: 12
GridSize: 4

[Metadata]
Title:Happy Fate
TitleUnicode:Happy Fate
Artist:ChouCho
ArtistUnicode:ちょうちょ
Creator:Ra-s
Version:Insane
Source:Mirai Nikki
Tags:Ingaritsu Noise KiAi K_i_A_i
BeatmapID:144480
BeatmapSetID:43408

[Difficulty]
HPDrainRate:7
CircleSize:4
OverallDifficulty:7
ApproachRate:8
SliderMultiplier:1.9
SliderTickRate:2

[Events]
//Background and Video events
0,0,"BG.png",0,0
//Break Periods
2,87520,93237
//Storyboard Layer 0 (Background)
//Storyboard Layer 1 (Fail)
//Storyboard Layer 2 (Pass)
//Storyboard Layer 3 (Foreground)
//Storyboard Sound Samples
//Background Colour Transformations
3,100,163,162,255

[TimingPoints]
654,416.666666666667,4,2,0,75,1,0
5237,-100,4,1,0,30,0,0
5654,-100,4,1,0,35,0,0
6070,-100,4,1,0,40,0,0
6487,-100,4,1,0,45,0,0
6904,-100,4,1,0,50,0,0
7112,-100,4,1,0,50,0,1
7320,-100,4,2,1,75,0,0
16487,-100,4,1,0,30,0,0
16695,-100,4,1,0,35,0,0
16904,-100,4,1,0,40,0,0
17112,-100,4,1,0,45,0,0
17320,-100,4,2,2,75,0,0
18154,-100,4,2,1,75,0,0
18362,-100,4,2,2,75,0,0
18570,-100,4,1,2,75,0,0
18779,-100,4,2,2,75,0,0
19404,-100,4,2,1,75,0,0
19612,-100,4,2,2,75,0,0
20029,-100,4,2,1,75,0,0
20237,-100,4,2,2,75,0,0
20445,-100,4,2,1,75,0,0
40237,-100,4,1,2,75,0,0
40654,-100,4,2,1,75,0,0
46695,-100,4,1,0,35,0,0
46904,-100,4,1,0,25,0,0
47320,-133.333333333333,4,2,1,75,0,0
47737,-133.333333333333,4,2,2,75,0,0
48154,-133.333333333333,4,2,1,75,0,0
49404,-133.333333333333,4,2,2,75,0,0
49820,-133.333333333333,4,2,1,75,0,0
51904,-133.333333333333,4,2,1,40,0,0
52529,-133.333333333333,4,2,1,75,0,0
53362,-100,4,2,1,40,0,0
53987,-100,4,2,1,75,0,0
54404,-100,4,2,1,40,0,0
55133,-100,4,2,1,75,0,0
55862,-100,4,2,1,40,0,0
56487,-100,4,2,1,75,0,0
56695,-100,4,2,1,40,0,0
56904,-100,4,2,0,40,0,0
57112,-100,4,2,1,40,0,0
57320,-100,4,2,1,75,0,0
57737,-100,4,2,1,40,0,0
58154,-100,4,2,1,75,0,0
58362,-100,4,2,1,40,0,0
58570,-100,4,2,1,75,0,0
59681,-100,4,2,1,40,0,0
59751,-100,4,2,1,30,0,0
59820,-100,4,2,1,20,0,0
60029,-100,4,2,1,40,0,0
60237,-100,4,2,1,75,0,0
60445,-100,4,2,1,40,0,0
60654,-100,4,2,1,75,0,1
72112,-100,4,2,1,75,0,0
73987,-100,4,2,1,75,0,1
78570,-100,4,1,2,75,0,1
78987,-100,4,2,1,75,0,1
87320,-100,4,2,1,75,0,0
96904,-100,4,2,2,75,0,0
97320,-100,4,2,1,75,0,0
120029,-100,4,1,0,35,0,0
120237,-100,4,1,0,25,0,0
120654,-133.333333333333,4,2,0,50,0,0
123987,-133.333333333333,4,2,1,50,0,0
124195,-133.333333333333,4,2,0,50,0,0
125445,-133.333333333333,4,2,1,50,0,0
125654,-133.333333333333,4,2,0,50,0,0
126695,-100,4,2,1,40,0,0
127320,-100,4,2,1,75,0,0
127737,-100,4,2,1,40,0,0
128779,-100,4,2,1,75,0,0
129195,-100,4,2,1,40,0,0
129820,-100,4,2,1,75,0,0
130029,-100,4,2,1,40,0,0
130237,-100,4,2,0,40,0,0
130445,-100,4,2,1,40,0,0
130654,-100,4,2,1,75,0,0
131070,-100,4,2,1,40,0,0
131487,-100,4,2,1,75,0,0
131695,-100,4,2,1,40,0,0
131904,-100,4,2,1,75,0,0
133015,-100,4,2,1,40,0,0
133084,-100,4,2,1,30,0,0
133154,-100,4,2,1,20,0,0
133362,-100,4,2,1,40,0,0
133570,-100,4,2,1,75,0,0
133779,-100,4,2,1,40,0,0
133987,-100,4,2,1,75,0,0
134404,-100,4,2,1,75,0,1
145445,-100,4,2,1,75,0,0
147320,-100,4,2,1,75,0,1
160654,-100,4,2,1,75,0,0
161070,-100,4,2,1,75,0,1
161487,-100,4,2,1,75,0,0

[Colours]
Combo1 : 255,102,102
Combo2 : 128,255,0
Combo3 : 255,128,192
Combo4 : 0,158,234

[HitObjects]
112,116,654,2,0,B|48:148|48:236|112:268,1,190,0|2,0:0|0:0,0:0:0:0:
160,344,1279,1,0,0:0:0:0:
160,344,1487,2,0,B|208:324|204:268,1,95
204,116,1904,2,0,B|208:60|160:40,1,95,2|0,0:0|0:0,0:0:0:0:
112,116,2320,6,0,B|80:192|168:252|232:200,1,190,0|2,0:0|0:0,0:0:0:0:
204,116,2945,1,0,0:0:0:0:
296,148,3154,2,0,B|336:188|316:236,1,95
412,224,3570,2,0,B|426:278|385:310,1,95,2|0,0:0|0:0,0:0:0:0:
184,360,4195,5,0,0:0:0:0:
256,296,4404,1,2,0:0:0:0:
328,360,4612,1,0,0:0:0:0:
256,184,5029,6,0,B|256:220,3,31.6666666666667
304,104,5445,2,0,B|256:80|208:104,1,95
208,280,5862,2,0,B|256:304|304:280,1,95
344,264,6174,1,0,0:0:0:0:
392,248,6279,2,0,B|440:224|488:248,1,95
440,328,6695,5,0,0:0:0:0:
256,384,6904,1,0,0:0:0:0:
72,328,7112,1,4,0:0:0:0:
164,52,7737,6,0,B|212:72|256:52|256:52|300:32|348:52,1,190,8|0,0:0|0:0,0:0:0:0:
304,132,8362,1,0,0:0:0:0:
392,128,8570,2,0,B|443:102|423:24,2,95,8|0|0,0:0|0:0|0:0,0:0:0:0:
304,132,9195,1,0,0:0:0:0:
208,100,9404,2,0,B|175:148|232:206,1,95,8|0,0:0|0:0,0:0:0:0:
124,208,9820,2,0,B|120:265|198:287,1,95
104,348,10237,2,0,B|129:399|207:380,1,95,8|0,0:0|0:0,0:0:0:0:
256,320,10654,6,0,B|296:256|376:260|412:320,1,190,0|8,0:0|0:0,0:0:0:0:
332,376,11279,1,0,0:0:0:0:
456,248,11487,2,0,B|428:204|372:200,1,95
288,200,11903,2,0,B|237:203|209:247,1,95,8|0,0:0|0:0,0:0:0:0:
160,320,12320,5,0,0:0:0:0:
64,256,12528,1,0,0:0:0:0:
64,144,12737,1,8,0:0:0:0:
160,64,12945,1,0,0:0:0:0:
36,24,13153,5,0,0:0:0:0:
116,152,13362,1,0,0:0:0:0:
256,204,13570,1,8,0:0:0:0:
396,160,13778,1,0,0:0:0:0:
476,24,13987,6,0,B|424:24|382:57|372:120|396:160,1,190,0|8,0:0|0:0,0:0:0:0:
480,116,14612,1,0,0:0:0:0:
392,256,14820,2,0,B|448:264|469:214,1,95
320,288,15237,2,0,B|341:340|401:333,2,95,8|0|0,0:0|0:0|0:0,0:0:0:0:
256,216,15862,1,0,0:0:0:0:
192,288,16070,2,0,B|171:340|111:333,1,95,8|0,0:0|0:0,0:0:0:0:
256,216,16487,5,0,0:0:0:0:
128,256,16695,1,0,0:0:0:0:
256,128,16903,1,0,0:0:0:0:
128,168,17112,1,0,0:0:0:0:
8,120,17320,6,0,B|-24:80|8:32,1,95,6|2,0:0|0:0,0:0:0:0:
88,80,17737,1,8,0:0:0:0:
168,32,17945,2,0,B|188:96|168:144|120:176|72:168,2,190,2|2|2,0:0|0:0|0:0,0:0:0:0:
256,36,18987,2,0,B|272:84|252:128,1,95,0|10,0:0|0:0,0:0:0:0:
196,208,19404,2,0,B|168:252|112:252,1,95,12|2,0:0|0:0,0:0:0:0:
104,348,19820,2,0,P|24:304|32:212,2,190,2|2|4,0:0|0:0|0:0,0:0:0:0:
256,216,21070,6,0,B|212:248|168:216,1,95,2|0,0:0|0:0,0:0:0:0:
208,128,21487,2,0,B|252:96|296:128,1,95
336,216,21904,1,2,0:0:0:0:
392,144,22112,2,0,B|464:168|464:264|392:288,1,190
328,352,22737,1,2,0:0:0:0:
408,376,22945,2,0,B|441:308|374:240|306:274,1,190
256,192,23570,1,2,0:0:0:0:
208,272,23779,2,0,B|113:288|16:272,1,190
68,192,24404,6,0,B|116:200|164:192,1,95,2|0,0:0|0:0,0:0:0:0:
208,104,24820,2,0,B|256:96|304:104,2,95,0|0|2,0:0|0:0|0:0,0:0:0:0:
256,192,25445,2,0,B|255:298|347:346,1,190
416,280,26070,1,2,0:0:0:0:
480,208,26279,2,0,B|548:232|552:328|472:352,1,190
416,280,26904,2,0,B|364:296|324:264,1,95,2|0,0:0|0:0,0:0:0:0:
384,192,27320,1,0,0:0:0:0:
192,24,27737,6,0,B|240:40|248:96,1,95,2|0,0:0|0:0,0:0:0:0:
120,192,28154,2,0,B|72:176|64:120,1,95,0|0,0:0|0:0,0:0:0:0:
224,192,28570,2,0,B|200:304|80:288,1,190,2|0,0:0|0:0,0:0:0:0:
24,192,29195,5,0,0:0:0:0:
78,107,29404,2,0,B|104:84|136:84|164:108,1,95,2|0,0:0|0:0,0:0:0:0:
164,276,29820,2,0,B|138:299|106:299|78:275,1,95,2|0,0:0|0:0,0:0:0:0:
208,192,30237,1,2,0:0:0:0:
263,111,30445,6,0,B|304:144|328:192|304:240|264:272,1,190
120,192,31070,1,2,0:0:0:0:
208,192,31279,2,0,B|408:192,1,190
343,112,31904,6,0,B|248:112,1,95,2|0,0:0|0:0,0:0:0:0:
341,272,32320,2,0,B|436:272,1,95
472,40,32737,2,0,B|377:40,1,95,2|0,0:0|0:0,0:0:0:0:
200,344,33154,2,0,B|284:344|284:344|304:352|304:352|392:352,2,190,0|8|4,0:0|0:0|0:0,0:0:0:0:
328,184,34404,6,0,B|352:136|328:92,1,95,8|0,0:0|0:0,0:0:0:0:
184,96,34820,2,0,B|160:144|184:188,1,95,0|0,0:0|0:0,0:0:0:0:
256,144,35237,1,8,0:0:0:0:
256,232,35445,2,0,B|240:288|184:300|130:287|114:231,1,190
256,144,36070,1,8,0:0:0:0:
40,184,36279,2,0,B|56:128|112:116|166:129|182:185,1,190
256,232,36904,2,0,B|240:288|184:288,1,95,8|0,0:0|0:0,0:0:0:0:
112,224,37320,1,0,0:0:0:0:
256,352,37737,6,0,B|304:368|352:352,1,95,8|0,0:0|0:0,0:0:0:0:
424,192,38154,2,0,B|376:176|328:192,1,95
376,272,38570,1,8,0:0:0:0:
280,272,38779,2,0,B|208:224|176:352|96:296,1,190
120,208,39404,1,8,0:0:0:0:
120,208,39612,2,0,B|48:200|0:248|8:320|24:352,2,190
405,103,41070,6,0,B|440:148|408:191,1,95,8|0,0:0|0:0,0:0:0:0:
312,240,41487,2,0,B|280:196|320:144,1,95,0|0,0:0|0:0,0:0:0:0:
384,288,41903,2,0,B|364:336|312:364|256:336|236:288,1,190,8|0,0:0|0:0,0:0:0:0:
176,192,42528,5,0,0:0:0:0:
64,216,42737,1,8,0:0:0:0:
88,328,42945,1,0,0:0:0:0:
200,304,43153,1,0,0:0:0:0:
176,144,43362,1,0,0:0:0:0:
16,168,43570,1,8,0:0:0:0:
40,336,43778,6,0,B|112:312|136:264|208:244,1,190
256,312,44403,1,8,0:0:0:0:
232,128,44612,2,0,B|312:108|317:60|397:36,1,190
493,226,45237,1,8,0:0:0:0:
493,226,45445,2,0,B|520:200|528:144|464:88|408:128,1,190,0|8,0:0|0:0,0:0:0:0:
264,292,46070,2,0,B|324:336|396:296|399:222,1,190,4|0,0:0|0:0,0:0:0:0:
304,200,46695,5,0,0:0:0:0:
200,104,46903,1,0,0:0:0:0:
216,248,47112,1,0,0:0:0:0:
288,112,47320,2,0,B|296:40|248:0|180:0|144:32,1,213.749993629754
208,184,48362,5,0,0:0:0:0:
312,280,48570,1,2,0:0:0:0:
296,136,48778,1,0,0:0:0:0:
224,272,48987,2,0,B|216:344|264:384|332:384|368:352,1,213.749993629754
372,136,50028,6,0,B|359:103|323:85,1,71.2499978765846,0|2,0:0|0:0,0:0:0:0:
188,85,50445,2,0,B|152:103|140:136,1,71.2499978765846,0|0,0:0|0:0,0:0:0:0:
172,276,51070,1,0,0:0:0:0:
220,328,51278,2,0,B|264:344|316:328|340:276,1,142.499995753169
332,108,52112,2,0,B|308:24|200:24|176:108,1,213.749993629754,4|2,0:0|0:0,0:0:0:0:
256,376,53153,5,2,0:0:0:0:
256,376,53362,1,8,0:0:0:0:
184,312,53570,1,8,0:0:0:0:
168,264,53674,1,8,0:0:0:0:
136,232,53778,1,8,0:0:0:0:
88,216,53883,1,0,0:0:0:0:
40,232,53987,6,0,P|32:280|16:328,1,95,4|8,0:0|0:0,0:0:0:0:
104,360,54403,1,8,0:0:0:0:
184,312,54612,1,8,0:0:0:0:
280,304,54820,1,8,0:0:0:0:
376,320,55028,1,8,0:0:0:0:
376,320,55133,1,8,0:0:0:0:
376,320,55237,6,0,P|400:280|408:232,1,95,0|4,0:0|0:0,0:0:0:0:
424,136,55653,1,0,0:0:0:0:
344,80,55862,1,8,0:0:0:0:
272,136,56070,1,0,0:0:0:0:
304,224,56279,2,0,P|260:236|216:208,1,95,8|8,0:0|0:0,0:0:0:0:
168,136,56695,5,0,0:0:0:0:
88,192,56904,2,0,P|80:240|56:280,1,95,4|0,0:0|0:0,0:0:0:0:
112,360,57320,6,0,B|155:386|210:396|252:347|264:300,1,190,12|4,0:0|0:0,0:0:0:0:
280,208,57945,1,0,0:0:0:0:
288,160,58049,1,0,0:0:0:0:
320,124,58154,2,0,L|368:128,1,47.5,8|8,0:0|0:0,0:0:0:0:
448,200,58362,2,0,L|400:196,1,47.5
312,256,58570,2,0,B|352:260,1,23.75,8|8,0:0|0:0,0:0:0:0:
440,312,58778,5,4,0:0:0:0:
48,24,59195,1,0,0:0:0:0:
48,24,59403,2,0,B|96:16|128:64,1,95,8|8,0:0|0:0,0:0:0:0:
136,112,59716,6,0,B|128:144,2,31.6666666666667,8|8|8,0:0|0:0|0:0,0:0:0:0:
180,48,60028,1,0,0:0:0:0:
256,24,60237,1,8,0:0:0:0:
332,48,60445,1,0,0:0:0:0:
376,112,60653,6,0,B|376:208|376:208|456:288,1,190,4|8,0:0|0:0,0:0:0:0:
392,332,61278,2,0,B|320:260,1,95
264,220,61695,2,0,B|232:264|264:308,2,95,0|8|0,0:0|0:0|0:0,0:0:0:0:
256,144,62320,5,0,0:0:0:0:
152,240,62528,1,0,0:0:0:0:
168,96,62737,1,8,0:0:0:0:
64,192,62945,1,0,0:0:0:0:
80,48,63153,2,0,B|132:8|200:8|256:48,1,190,0|8,0:0|0:0,0:0:0:0:
344,96,63778,1,0,0:0:0:0:
256,144,63987,6,0,B|232:200|280:272|256:336,1,190,0|8,0:0|0:0,0:0:0:0:
168,288,64612,1,0,0:0:0:0:
344,184,64820,1,0,0:0:0:0:
168,184,65028,1,0,0:0:0:0:
344,288,65237,1,8,0:0:0:0:
256,232,65445,6,0,B|256:328,1,95
344,288,65862,2,0,B|352:384,1,95,0|8,0:0|0:0,0:0:0:0:
168,288,66278,2,0,B|160:384,1,95
256,352,66695,1,0,0:0:0:0:
208,228,66903,1,8,0:0:0:0:
308,140,67112,1,0,0:0:0:0:
212,48,67320,6,0,B|167:26|107:46|87:104|116:152,1,190,0|8,0:0|0:0,0:0:0:0:
204,124,67945,2,0,B|224:176|180:212,1,95
28,176,68362,2,0,B|4:128|48:92,1,95,0|8,0:0|0:0,0:0:0:0:
115,150,68778,1,0,0:0:0:0:
133,249,68987,5,0,0:0:0:0:
59,302,69195,1,0,0:0:0:0:
51,206,69403,1,8,0:0:0:0:
147,342,69612,5,0,0:0:0:0:
115,150,69820,1,0,0:0:0:0:
291,230,70028,1,0,0:0:0:0:
244,312,70237,2,0,B|324:368|356:248|452:336,1,190,8|0,0:0|0:0,0:0:0:0:
408,72,70862,5,0,0:0:0:0:
432,156,71070,2,0,B|376:180|336:156|288:103|340:32,1,190,8|0,0:0|0:0,0:0:0:0:
120,124,71695,1,0,0:0:0:0:
196,96,71903,2,0,B|220:152|196:192|144:240|68:184,1,190,8|0,0:0|0:0,0:0:0:0:
56,72,72528,5,8,0:0:0:0:
120,124,72737,1,12,0:0:0:0:
132,48,72945,1,0,0:0:0:0:
196,96,73153,1,0,0:0:0:0:
48,148,73362,5,0,0:0:0:0:
192,176,73570,1,8,0:0:0:0:
92,288,73778,1,0,0:0:0:0:
92,288,73987,6,0,B|124:356|208:356|240:288,1,190,4|8,0:0|0:0,0:0:0:0:
312,228,74612,2,0,B|280:160|196:160|164:228,1,190,0|0,0:0|0:0,0:0:0:0:
240,288,75237,1,8,0:0:0:0:
320,336,75445,5,0,0:0:0:0:
404,292,75653,1,0,0:0:0:0:
324,240,75862,1,0,0:0:0:0:
396,384,76070,5,8,0:0:0:0:
408,192,76278,1,0,0:0:0:0:
240,288,76487,2,0,B|186:270|166:214|190:162|238:146,1,190,0|8,0:0|0:0,0:0:0:0:
292,216,77112,5,0,0:0:0:0:
320,124,77320,2,0,B|312:68|256:64,1,95
238,145,77737,1,8,0:0:0:0:
292,216,77945,2,0,B|308:328|432:332,2,190
368,208,78987,2,0,B|376:256|352:312|276:320|236:280,1,190,0|8,0:0|0:0,0:0:0:0:
292,220,79612,1,0,0:0:0:0:
208,80,79820,6,0,B|224:128|208:176,1,95
126,136,80237,1,8,0:0:0:0:
136,232,80445,1,0,0:0:0:0:
48,256,80654,2,0,B|40:336|120:376|176:320,1,190,4|8,0:0|0:0,0:0:0:0:
256,280,81279,2,0,B|224:188|256:92,1,190
168,48,81904,1,8,0:0:0:0:
336,32,82112,2,0,B|412:8|472:96|424:168,1,190
424,240,82737,2,0,B|414:305|344:328,1,95,8|0,0:0|0:0,0:0:0:0:
184,376,83362,5,0,0:0:0:0:
256,312,83570,1,8,0:0:0:0:
328,376,83779,1,0,0:0:0:0:
178,272,83987,6,0,B|218:208|298:212|334:272,1,190,4|8,0:0|0:0,0:0:0:0:
130,198,84612,2,0,B|157:155|208:152,1,95,0|0,0:0|0:0,0:0:0:0:
383,199,85029,2,0,B|356:156|305:153,1,95,0|8,0:0|0:0,0:0:0:0:
256,72,85445,5,0,0:0:0:0:
208,152,85654,1,0,0:0:0:0:
256,232,85862,1,8,0:0:0:0:
304,152,86070,1,12,0:0:0:0:
344,72,86279,5,0,0:0:0:0:
168,72,86487,1,0,0:0:0:0:
256,232,86695,1,0,0:0:0:0:
432,296,86904,5,8,0:0:0:0:
256,376,87112,1,0,0:0:0:0:
80,296,87320,1,2,0:0:0:0:
256,304,93987,5,2,0:0:0:0:
180,132,94404,2,0,B|212:68|300:68|332:132,1,190,2|0,0:0|0:0,0:0:0:0:
424,144,95029,2,0,B|424:208|360:224,1,95,0|2,0:0|0:0,0:0:0:0:
345,308,95445,2,0,B|261:260|245:364|165:324,1,190
144,232,96070,1,2,0:0:0:0:
144,232,96279,2,0,B|88:240|80:304,1,95
124,152,96695,2,0,B|192:128|256:196|220:272,1,190
276,344,97320,2,0,B|236:384|180:352,1,95
168,200,97737,6,0,B|208:160|264:192,1,95,2|0,0:0|0:0,0:0:0:0:
296,104,98154,2,0,B|350:118|350:183,1,95,0|0,0:0|0:0,0:0:0:0:
448,176,98570,1,2,0:0:0:0:
448,176,98779,2,0,B|456:232|416:258|416:258|376:288|384:344,1,190
288,360,99404,1,2,0:0:0:0:
192,344,99612,2,0,B|120:344|120:344|80:320|80:320|0:320,1,190
160,264,100237,2,0,B|256:264,1,95,2|0,0:0|0:0,0:0:0:0:
304,184,100654,2,0,B|320:120|256:96|192:120|208:184,1,190,0|2,0:0|0:0,0:0:0:0:
256,264,101279,5,0,0:0:0:0:
212,56,101487,2,0,B|256:32|304:56,1,95
376,120,101904,2,0,B|376:200|376:200|392:224|392:224|392:312,1,190,2|0,0:0|0:0,0:0:0:0:
304,352,102529,5,0,0:0:0:0:
304,352,102737,2,0,B|304:256,1,95,2|0,0:0|0:0,0:0:0:0:
464,73,103154,2,0,B|464:168,2,95,0|0|2,0:0|0:0|0:0,0:0:0:0:
344,16,103779,2,0,B|292:8|260:44|260:44|220:76|168:60,1,190
48,272,104404,2,0,B|48:177,2,95,2|0|0,0:0|0:0|0:0,0:0:0:0:
228,375,105029,5,0,0:0:0:0:
219,278,105237,1,2,0:0:0:0:
136,230,105445,1,0,0:0:0:0:
48,272,105654,2,0,B|16:184,1,95
72,56,106070,2,0,B|104:144,1,95,2|0,0:0|0:0,0:0:0:0:
184,88,106487,2,0,B|232:72|255:30|255:30|280:72|332:88,1,190,0|8,0:0|0:0,0:0:0:0:
440,56,107112,1,0,0:0:0:0:
416,152,107320,2,0,B|392:248,1,95,4|0,0:0|0:0,0:0:0:0:
296,248,107737,6,0,B|272:280|240:280|216:248,1,95,8|0,0:0|0:0,0:0:0:0:
312,160,108154,2,0,B|376:168|384:240,1,95
256,96,108570,1,8,0:0:0:0:
200,160,108779,2,0,B|144:168|132:216|132:216|92:180|44:208,1,190
84,284,109404,1,8,0:0:0:0:
208,240,109612,2,0,B|272:232|312:144|240:88,1,190
224,12,110237,2,0,B|168:20|160:84,1,95,8|0,0:0|0:0,0:0:0:0:
72,56,110654,2,0,B|50:108|102:147,1,95
287,253,111070,5,8,0:0:0:0:
196,284,111279,1,0,0:0:0:0:
113,236,111487,2,0,B|92:136,1,95
304,76,111904,1,8,0:0:0:0:
304,76,112112,2,0,B|320:148|320:148|356:180|356:180|372:256,1,190
368,12,112737,2,0,B|390:103,1,95,8|0,0:0|0:0,0:0:0:0:
504,340,113154,2,0,B|488:268|488:268|452:236|452:236|436:160,1,190,0|8,0:0|0:0,0:0:0:0:
357,183,113779,2,0,B|380:276,1,95
280,128,114195,1,0,0:0:0:0:
28,110,114404,6,0,B|104:104|104:104|128:80|128:80|208:76,1,190,8|0,0:0|0:0,0:0:0:0:
262,156,115029,2,0,B|168:160,1,95,0|8,0:0|0:0,0:0:0:0:
256,324,115445,2,0,B|350:313,1,95
168,352,115862,5,0,0:0:0:0:
168,352,116070,2,0,B|112:336|120:272,1,95,8|0,0:0|0:0,0:0:0:0:
392,280,116487,2,0,B|396:336|344:352,1,95,0|0,0:0|0:0,0:0:0:0:
256,192,116904,1,8,0:0:0:0:
186,128,117112,6,0,B|202:80|254:48|312:80|328:128,1,190
300,276,117737,2,0,B|260:308|212:276,1,95,8|0,0:0|0:0,0:0:0:0:
256,192,118154,1,0,0:0:0:0:
344,352,118362,1,0,0:0:0:0:
256,384,118570,1,8,0:0:0:0:
168,352,118779,6,0,B|104:320|104:232|168:200,1,190
344,200,119404,2,0,B|408:232|408:320|344:352,1,190,12|0,0:0|0:0,0:0:0:0:
256,312,120029,1,0,0:0:0:0:
256,312,120237,1,0,0:0:0:0:
256,312,120445,1,0,0:0:0:0:
302,231,120654,6,0,B|288:168|222:167|208:232,1,142.499995753169,2|2,0:0|0:0,0:0:0:0:
199,322,121279,2,0,B|227:370|287:368|319:320,1,142.499995753169,0|2,0:0|0:0,0:0:0:0:
400,324,121904,2,0,B|400:284|368:260,1,71.2499978765846,2|0,0:0|0:0,0:0:0:0:
140,260,122320,6,0,B|110:282|112:320|112:320|112:360|80:384,1,142.499995753169,2|2,0:0|0:0,0:0:0:0:
173,351,122945,2,0,B|151:321|113:323|113:323|73:323|49:291,1,142.499995753169,2|2,0:0|0:0,0:0:0:0:
48,220,123570,2,0,B|48:144,1,71.2499978765846,2|2,0:0|0:0,0:0:0:0:
256,80,123987,6,0,B|256:152|256:152|312:200,1,142.499995753169,6|2,0:0|0:0,0:0:0:0:
256,328,124612,2,0,B|256:256|256:256|200:208,1,142.499995753169,2|0,0:0|0:0,0:0:0:0:
164,144,125237,1,2,0:0:0:0:
128,208,125445,2,0,B|72:208|72:208|48:192|48:192|-8:192,1,142.499995753169,6|2,0:0|0:0,0:0:0:0:
108,132,126070,2,0,B|164:132|164:132|188:116|188:116|244:116,1,142.499995753169,2|0,0:0|0:0,0:0:0:0:
256,376,126695,5,8,0:0:0:0:
336,304,126904,2,0,B|365:262,1,47.5,8|8,0:0|0:0,0:0:0:0:
256,280,127112,2,0,B|254:229,1,47.5,8|0,0:0|0:0,0:0:0:0:
176,304,127320,2,0,B|142:193,1,95,4|8,0:0|0:0,0:0:0:0:
212,128,127737,2,0,B|252:96|300:128,1,95,8|8,0:0|0:0,0:0:0:0:
256,32,128154,1,8,0:0:0:0:
256,200,128362,1,8,0:0:0:0:
256,200,128466,1,8,0:0:0:0:
256,200,128570,2,0,B|256:304,1,95,0|12,0:0|0:0,0:0:0:0:
400,136,128987,5,0,0:0:0:0:
256,80,129195,1,8,0:0:0:0:
112,136,129404,1,0,0:0:0:0:
220,264,129612,2,0,B|236:296|276:296|296:264,1,95,8|8,0:0|0:0,0:0:0:0:
328,108,130029,5,0,0:0:0:0:
256,8,130237,1,4,0:0:0:0:
184,108,130445,1,0,0:0:0:0:
176,328,130654,6,0,B|208:368|256:396|312:364|340:324,1,190,12|4,0:0|0:0,0:0:0:0:
256,96,131279,1,0,0:0:0:0:
252,120,131383,1,0,0:0:0:0:
256,144,131487,1,8,0:0:0:0:
260,168,131591,1,8,0:0:0:0:
256,192,131695,1,0,0:0:0:0:
252,216,131799,1,0,0:0:0:0:
256,240,131904,1,0,0:0:0:0:
256,336,132112,5,4,0:0:0:0:
256,336,132529,1,0,0:0:0:0:
304,256,132737,2,0,B|256:232|208:256,1,95,8|8,0:0|0:0,0:0:0:0:
140,280,133049,6,0,B|117:302,2,31.6666666666667,8|8|8,0:0|0:0|0:0,0:0:0:0:
256,336,133362,1,0,0:0:0:0:
368,280,133570,1,8,0:0:0:0:
328,136,133779,1,0,0:0:0:0:
184,136,133987,1,2,0:0:0:0:
256,336,134404,6,0,B|240:288|257:242|257:242|272:192|256:148,1,190,4|0,0:0|0:0,0:0:0:0:
176,200,135029,1,0,0:0:0:0:
176,104,135237,2,0,P|128:112|96:144,1,95,8|0,0:0|0:0,0:0:0:0:
113,272,135654,1,0,0:0:0:0:
253,334,135862,1,0,0:0:0:0:
176,200,136070,1,8,0:0:0:0:
160,354,136279,1,0,0:0:0:0:
263,239,136487,2,0,P|348:268|352:360,1,190,0|8,0:0|0:0,0:0:0:0:
448,357,137112,1,0,0:0:0:0:
472,120,137320,6,0,B|424:104|386:144|386:144|347:184|298:168,1,190,0|8,0:0|0:0,0:0:0:0:
232,104,137945,2,0,P|184:104|144:128,1,95
80,200,138362,1,0,0:0:0:0:
80,200,138570,2,0,P|92:290|176:320,1,190,8|0,0:0|0:0,0:0:0:0:
264,280,139195,5,0,0:0:0:0:
320,360,139404,2,0,B|368:368|416:360,1,95,8|0,0:0|0:0,0:0:0:0:
432,192,139820,1,0,0:0:0:0:
339,167,140029,1,0,0:0:0:0:
364,75,140237,1,8,0:0:0:0:
456,99,140445,1,0,0:0:0:0:
312,256,140654,6,0,B|240:264|200:164|260:120,1,190,0|8,0:0|0:0,0:0:0:0:
168,80,141279,1,0,0:0:0:0:
80,32,141487,2,0,P|64:80|80:120,1,95
160,248,141904,2,0,P|176:208|160:160,1,95,8|0,0:0|0:0,0:0:0:0:
72,216,142320,2,0,P|66:306|148:344,1,190,0|8,0:0|0:0,0:0:0:0:
232,312,142945,5,0,0:0:0:0:
328,312,143154,1,0,0:0:0:0:
416,344,143362,1,0,0:0:0:0:
480,272,143570,1,8,0:0:0:0:
424,192,143779,1,0,0:0:0:0:
328,208,143987,6,0,P|236:208|176:136,1,190,0|8,0:0|0:0,0:0:0:0:
136,48,144612,1,0,0:0:0:0:
64,112,144820,2,0,P|56:160|64:208,1,95
40,296,145237,1,8,0:0:0:0:
128,272,145445,6,0,P|220:272|288:336,1,190
376,376,146070,2,0,B|472:384,1,95,12|0,0:0|0:0,0:0:0:0:
488,224,146487,2,0,B|392:216,1,95,0|0,0:0|0:0,0:0:0:0:
328,288,146904,2,0,P|288:208|344:136,1,190,8|4,0:0|0:0,0:0:0:0:
384,48,147529,6,0,P|424:68|432:120,1,95,0|8,0:0|0:0,0:0:0:0:
424,208,147945,2,0,P|368:280|272:272,1,190
208,212,148570,2,0,P|160:236|136:268,1,95,8|0,0:0|0:0,0:0:0:0:
300,356,148987,1,0,0:0:0:0:
312,252,149195,1,0,0:0:0:0:
224,304,149404,5,8,0:0:0:0:
320,148,149612,1,0,0:0:0:0:
383,333,149820,2,0,P|468:304|500:216,1,190,0|8,0:0|0:0,0:0:0:0:
448,136,150445,1,0,0:0:0:0:
472,40,150654,6,0,P|384:64|344:152,1,190,0|8,0:0|0:0,0:0:0:0:
288,296,151279,2,0,P|208:344|112:352,1,190
24,312,151904,1,8,0:0:0:0:
200,272,152112,2,0,B|248:256|287:295|287:295|324:336|372:320,1,190
464,304,152737,1,8,0:0:0:0:
464,304,152945,1,0,0:0:0:0:
480,208,153154,2,0,P|432:208|396:236,1,95
304,216,153570,2,0,P|304:263|332:300,1,95,8|0,0:0|0:0,0:0:0:0:
168,216,153987,6,0,B|92:200|92:104|168:80,1,190,4|8,0:0|0:0,0:0:0:0:
344,80,154612,2,0,B|419:103|419:199|343:215,1,190,0|0,0:0|0:0,0:0:0:0:
256,148,155237,1,8,0:0:0:0:
252,328,155445,2,0,B|228:284|256:237|256:237|284:196|256:148,1,190
324,284,156070,2,0,B|348:328|324:376,1,95,8|0,0:0|0:0,0:0:0:0:
180,192,156487,2,0,B|156:144|180:100,1,95,0|0,0:0|0:0,0:0:0:0:
256,40,156904,1,8,0:0:0:0:
336,88,157112,1,0,0:0:0:0:
328,224,157320,6,0,B|312:276|256:296|204:276|184:224,1,190,4|8,0:0|0:0,0:0:0:0:
184,64,157945,2,0,B|232:72|256:120|256:120|280:72|328:56,1,190
344,148,158570,1,8,0:0:0:0:
168,148,158778,2,0,B|136:192|168:236,1,95
344,236,159195,2,0,B|376:192|344:148,1,95,8|12,0:0|0:0,0:0:0:0:
256,188,159612,1,0,0:0:0:0:
256,356,159820,5,0,0:0:0:0:
420,236,160028,1,0,0:0:0:0:
352,52,160237,1,8,0:0:0:0:
160,52,160445,1,0,0:0:0:0:
92,236,160653,2,0,B|140:260|175:213|175:213|212:164|256:187,1,190,0|4,0:0|0:0,0:0:0:0:
