osu file format v14

[General]
AudioFilename: elemental.mp3
AudioLeadIn: 0
PreviewTime: 49513
Countdown: 0
SampleSet: Soft
StackLeniency: 0.5
Mode: 0
LetterboxInBreaks: 0
WidescreenStoryboard: 0

[Editor]
DistanceSpacing: 1.3
BeatDivisor: 4
GridSize: 8
TimelineZoom: 1

[Metadata]
Title:Elemental World (TV Size)
TitleUnicode:Elemental World(TVサイズ)
Artist:ChouCho
ArtistUnicode:ChouCho
Creator:Underforest
Version:Normal
Source:政宗くんのリベンジ
Tags:Masamune-kun no Revenge Ending
BeatmapID:1245318
BeatmapSetID:587869

[Difficulty]
HPDrainRate:4
CircleSize:3.5
OverallDifficulty:4
ApproachRate:5
SliderMultiplier:1.3
SliderTickRate:1

[Events]
//Background and Video events
Video,0,"optc.flv"
0,0,"bg.jpg",0,0
//Break Periods
//Storyboard Layer 0 (Background)
//Storyboard Layer 1 (Fail)
//Storyboard Layer 2 (Pass)
//Storyboard Layer 3 (Foreground)
//Storyboard Sound Samples

[TimingPoints]
763,468.75,4,2,1,70,1,0
15763,-100,4,2,1,50,0,0
30763,-100,4,2,1,60,0,0
49513,-100,4,2,1,70,0,1
64044,-100,4,2,1,70,0,0
64513,-100,4,2,1,70,0,1
85138,-100,4,2,1,50,0,0

[Colours]
Combo1 : 133,250,139
Combo2 : 64,159,255
Combo3 : 250,219,97
Combo4 : 255,89,89

[HitObjects]
43,98,294,5,2,0:0:0:0:
43,98,763,6,0,P|85:113|170:94,1,130,12|10,0:0|0:0,0:0:0:0:
238,51,1466,2,0,P|327:35|371:54,1,130
417,111,2169,2,0,L|422:181,1,65,10|0,0:0|0:0,0:0:0:0:
467,246,2638,6,0,P|427:260|351:222,1,130,8|10,0:0|0:0,0:0:0:0:
289,166,3341,2,0,P|209:154|168:195,1,130
101,224,4044,1,10,0:0:0:0:
241,318,4513,6,0,B|292:306|292:306|371:318,1,130,8|10,0:0|0:0,0:0:0:0:
429,376,5216,2,0,L|428:231,1,130
428,161,5919,1,10,0:0:0:0:
276,85,6388,6,0,L|195:76,2,65,8|0|10,0:0|0:0|0:0,0:0:0:0:
268,169,7091,2,0,L|112:150,1,130,0|2,0:0|0:0,0:0:0:0:
59,181,7794,1,4,0:3:0:0:
165,312,8263,6,0,B|236:330|236:330|305:319,1,130,12|10,0:0|0:0,0:0:0:0:
357,267,8966,2,0,P|422:264|486:267,1,130,0|2,0:0|0:0,0:0:0:0:
486,182,9669,2,0,L|479:98,1,65,10|0,0:0|0:0,0:0:0:0:
439,43,10138,6,0,P|392:66|305:43,1,130,8|10,0:0|0:0,0:0:0:0:
235,70,10841,2,0,P|157:57|112:88,1,130
61,148,11544,1,10,0:0:0:0:
46,316,12013,6,0,P|79:317|166:265,1,130,8|10,0:0|0:0,0:0:0:0:
216,206,12716,1,2,0:0:0:0:
293,238,12950,2,0,B|297:200|297:200|282:152|282:152|300:98,1,130,8|4,0:0|0:3,0:0:0:0:
334,37,13653,1,4,2:0:0:0:
334,37,15763,6,0,P|304:48|248:48,1,65,12|0,0:0|0:0,0:0:0:0:
191,77,16231,2,0,P|164:82|118:81,1,65,10|0,0:0|0:0,0:0:0:0:
62,138,16700,2,0,P|105:215|92:276,1,130,8|10,0:0|0:0,0:0:0:0:
174,296,17403,1,0,0:0:0:0:
255,319,17638,6,0,B|300:336|300:336|399:322,1,130,0|10,0:0|0:0,0:0:0:0:
390,155,18575,2,0,L|459:146,2,65,8|0|10,0:0|0:0|0:0,0:0:0:0:
247,63,19513,6,0,P|197:50|163:57,2,65,12|0|10,0:3|0:0|0:0,0:0:0:0:
258,146,20216,2,0,P|204:157|132:113,1,130
64,85,20919,1,10,0:0:0:0:
42,252,21388,6,0,L|50:339,1,65,8|0,0:0|0:0,0:0:0:0:
114,369,21856,1,10,0:0:0:0:
114,369,22091,2,0,P|178:377|249:326,1,130,0|0,3:0|3:0,0:0:0:0:
269,270,22794,1,10,0:0:0:0:
419,193,23263,6,0,L|507:193,2,65,8|0|10,0:0|0:0|0:0,0:0:0:0:
337,169,23966,2,0,L|197:169,1,130
127,197,24669,2,0,P|118:242|123:282,1,65,10|0,0:0|0:0,0:0:0:0:
60,321,25138,6,0,P|122:347|188:308,1,130,8|10,0:0|0:0,0:0:0:0:
255,292,25841,2,0,P|312:265|369:292,1,130
432,347,26544,1,10,0:0:0:0:
476,183,27013,6,0,P|488:141|480:103,1,65,8|0,0:0|0:0,0:0:0:0:
430,56,27481,2,0,P|378:46|346:55,1,65,10|0,0:0|0:0,0:0:0:0:
198,65,28184,2,0,P|145:69|113:63,1,65,0|10,0:0|0:0,0:0:0:0:
84,136,28653,1,0,0:0:0:0:
54,215,28888,6,0,P|99:220|165:169,2,130,10|10|4,0:3|0:0|0:3,0:0:0:0:
21,380,30294,1,10,0:0:0:0:
189,361,30763,6,0,B|255:338|253:393|339:367,1,130,12|10,0:0|0:0,0:0:0:0:
387,327,31466,2,0,B|408:263|408:263|389:196,1,130,0|0,3:2|0:0,0:0:0:0:
362,122,32169,1,10,0:0:0:0:
219,30,32638,6,0,P|154:24|95:89,1,130,8|10,0:0|0:0,0:0:0:0:
55,130,33341,1,0,0:0:0:0:
39,212,33575,2,0,P|41:272|73:350,1,130,8|10,0:0|0:0,0:0:0:0:
144,305,34278,1,0,0:0:0:0:
214,256,34513,6,0,L|368:244,1,130,8|10,0:0|0:0,0:0:0:0:
352,330,35216,2,0,L|214:341,1,130,0|0,3:2|3:2,0:0:0:0:
144,305,35919,1,10,0:0:0:0:
135,136,36388,6,0,P|127:79|136:47,2,65,10|2|10,0:0|0:0|0:0,0:0:0:0:
214,165,37091,2,0,P|269:167|375:165,1,130,2|0,0:0|0:0,0:0:0:0:
427,153,37794,1,10,0:0:0:0:
413,322,38263,6,0,P|390:351|296:314,1,130,8|10,0:0|0:0,0:0:0:0:
147,282,39200,2,0,P|109:277|79:284,2,65,8|0|10,0:0|0:0|0:0,0:0:0:0:
215,232,39903,6,0,L|207:102,1,130
228,20,40606,1,10,0:0:0:0:
394,52,41075,2,0,L|475:39,2,65,8|0|10,0:0|0:0|0:0,0:0:0:0:
271,168,42013,6,0,P|225:181|138:150,1,130,8|10,0:0|0:0,0:0:0:0:
70,125,42716,2,0,B|44:189|101:197|63:275,1,130,8|8,0:2|3:0,0:0:0:0:
88,335,43419,1,10,3:0:0:0:
255,358,43888,6,0,L|344:350,2,65,8|0|8,0:0|3:2|0:0,0:0:0:0:
165,214,44825,2,0,L|83:208,2,65,10|0|10,0:0|3:2|0:0,0:0:0:0:
256,192,45763,12,4,47638,0:1:0:0:
315,63,49044,5,2,0:0:0:0:
315,63,49513,6,0,P|263:37|184:75,1,130,12|0,0:0|1:2,0:0:0:0:
141,121,50216,2,0,P|123:174|157:239,1,130,2|2,0:0|0:0,0:0:0:0:
208,171,50919,1,0,1:2:0:0:
357,249,51388,6,0,L|435:239,2,65,8|0|0,0:0|0:0|1:2,0:0:0:0:
291,302,52091,2,0,P|224:293|162:328,1,130,2|0,0:0|3:2,0:0:0:0:
95,359,52794,1,2,1:2:0:0:
51,195,53263,6,0,L|71:58,1,130,8|2,0:0|1:2,0:0:0:0:
151,45,53966,2,0,B|197:32|197:32|299:46,1,130,2|2,0:0|3:2,0:0:0:0:
362,55,54669,1,2,1:2:0:0:
428,210,55138,6,0,P|442:241|443:279,1,65,8|0,0:0|0:0,0:0:0:0:
401,344,55606,2,0,P|366:355|262:319,1,130,2|10,1:2|0:0,0:0:0:0:
194,344,56309,2,0,P|155:336|111:352,1,65,0|0,3:2|1:2,0:0:0:0:
182,179,57013,6,0,L|208:39,1,130,12|2,0:0|1:2,0:0:0:0:
288,35,57716,1,0,3:2:0:0:
371,50,57950,2,0,P|423:38|512:89,1,130,10|2,0:0|1:2,0:0:0:0:
466,232,58888,6,0,P|415:243|334:205,1,130,8|2,0:0|1:2,0:0:0:0:
262,236,59591,2,0,L|249:375,2,130,2|0|0,0:0|3:2|3:2,0:0:0:0:
189,191,60763,6,0,B|130:166|127:226|40:186,1,130,10|2,0:0|1:2,0:0:0:0:
93,115,61466,2,0,P|117:72|182:27,1,130,2|2,0:0|0:0,0:0:0:0:
267,23,62169,1,0,1:2:0:0:
435,33,62638,6,0,L|520:22,2,65,10|2|2,0:0|0:0|1:2,0:0:0:0:
350,36,63341,2,0,L|329:185,1,130,0|10,3:2|0:0,0:0:0:0:
267,219,64044,1,10,0:0:0:0:
351,365,64513,6,0,P|403:339|482:377,1,130,12|2,0:0|1:2,0:0:0:0:
496,280,65216,2,0,P|479:228|512:162,1,130,2|2,0:0|0:0,0:0:0:0:
478,84,65919,1,2,1:2:0:0:
314,126,66388,6,0,L|236:116,2,65,8|0|2,0:0|0:0|1:2,0:0:0:0:
356,199,67091,2,0,P|365:266|330:328,1,130,2|0,0:0|3:2,0:0:0:0:
253,318,67794,1,2,1:2:0:0:
88,278,68263,6,0,L|68:141,1,130,8|0,0:0|1:2,0:0:0:0:
129,89,68966,2,0,B|175:76|175:76|277:90,1,130,2|2,3:2|0:0,0:0:0:0:
339,101,69669,1,0,1:2:0:0:
479,195,70138,6,0,P|493:226|494:264,1,65,8|2,0:0|0:0,0:0:0:0:
455,331,70606,1,0,1:2:0:0:
371,347,70841,2,0,P|246:355|181:309,1,195,2|0,0:0|1:2,0:0:0:0:
294,186,72013,6,0,L|268:46,1,130,14|2,0:0|1:2,0:0:0:0:
186,43,72716,2,0,P|128:38|45:82,1,130,0|2,3:2|0:0,0:0:0:0:
25,140,73419,1,0,1:2:0:0:
53,306,73888,6,0,P|104:317|185:279,1,130,8|2,0:0|1:2,0:0:0:0:
226,222,74591,2,0,L|239:361,2,130,2|0|0,0:0|0:0|3:2,0:0:0:0:
306,194,75763,6,0,B|365:169|368:229|455:189,1,130,10|2,0:0|1:2,0:0:0:0:
401,118,76466,2,0,P|374:69|304:36,1,130,2|2,0:0|0:0,0:0:0:0:
225,25,77169,1,2,1:2:0:0:
87,122,77638,6,0,L|10:99,2,65,10|0|2,0:0|0:0|1:2,0:0:0:0:
165,153,78341,2,0,P|183:217|127:271,2,130,0|8|2,3:2|0:3|0:0,0:0:0:0:
242,119,79513,6,0,L|392:113,1,130,14|2,0:0|1:2,0:0:0:0:
437,167,80216,2,0,P|418:226|454:277,1,130,0|0,3:2|0:0,0:0:0:0:
449,363,80919,1,2,1:2:0:0:
286,315,81388,6,0,B|250:317|228:342|228:342|201:323|164:331,1,130,10|2,0:0|1:2,0:0:0:0:
82,333,82091,1,2,0:0:0:0:
57,252,82325,2,0,P|39:178|72:120,1,130,10|2,0:0|1:2,0:0:0:0:
226,99,83263,6,0,L|169:34,2,65,10|0|2,0:0|3:2|1:2,0:0:0:0:
285,158,83966,2,0,L|361:165,1,65,0|0,3:2|0:0,0:0:0:0:
356,248,84434,2,0,P|400:230|428:139,1,130,0|0,3:2|3:2,0:0:0:0:
447,74,85138,5,12,0:0:0:0:
256,192,85255,12,6,87013,0:0:0:0:
