osu file format v14

[General]
AudioFilename: elemental.mp3
AudioLeadIn: 0
PreviewTime: 49513
Countdown: 0
SampleSet: Soft
StackLeniency: 0.5
Mode: 0
LetterboxInBreaks: 0
WidescreenStoryboard: 0

[Editor]
DistanceSpacing: 1
BeatDivisor: 4
GridSize: 8
TimelineZoom: 1

[Metadata]
Title:Elemental World (TV Size)
TitleUnicode:Elemental World(TVサイズ)
Artist:ChouCho
ArtistUnicode:ChouCho
Creator:Underforest
Version:Easy
Source:政宗くんのリベンジ
Tags:Masamune-kun no Revenge Ending
BeatmapID:1245317
BeatmapSetID:587869

[Difficulty]
HPDrainRate:2
CircleSize:3
OverallDifficulty:2
ApproachRate:3
SliderMultiplier:1
SliderTickRate:1

[Events]
//Background and Video events
Video,0,"optc.flv"
0,0,"bg.jpg",0,0
//Break Periods
//Storyboard Layer 0 (Background)
//Storyboard Layer 1 (Fail)
//Storyboard Layer 2 (Pass)
//Storyboard Layer 3 (Foreground)
//Storyboard Sound Samples

[TimingPoints]
763,468.75,4,2,1,70,1,0
15763,-100,4,2,1,50,0,0
30763,-100,4,2,1,60,0,0
49513,-100,4,2,1,70,0,1
64044,-100,4,2,1,70,0,0
64513,-100,4,2,1,70,0,1
85138,-100,4,2,1,50,0,0

[Colours]
Combo1 : 133,250,139
Combo2 : 64,159,255
Combo3 : 250,219,97
Combo4 : 255,89,89

[HitObjects]
61,69,763,6,0,P|107:65|166:80,1,100,12|10,0:0|0:0,0:0:0:0:
250,117,1700,2,0,P|297:123|354:111,1,100,8|10,0:0|0:0,0:0:0:0:
431,168,2638,2,0,L|449:273,1,100,8|10,0:0|0:0,0:0:0:0:
374,334,3575,1,8,0:0:0:0:
287,283,4044,1,10,0:0:0:0:
251,190,4513,6,0,B|192:177|192:177|95:185,2,150,10|2|10,0:0|0:0|0:0,0:0:0:0:
346,219,6388,2,0,P|350:182|317:117,1,100,8|10,0:0|0:0,0:0:0:0:
249,61,7325,1,0,0:0:0:0:
152,86,7794,1,4,0:3:0:0:
54,64,8263,6,0,P|53:111|94:166,1,100,14|10,0:0|0:0,0:0:0:0:
109,250,9200,2,0,P|104:301|73:342,1,100,8|10,0:0|0:0,0:0:0:0:
170,371,10138,2,0,L|287:365,1,100,8|10,0:0|0:0,0:0:0:0:
356,316,11075,2,0,P|353:265|383:210,1,100,8|10,0:0|0:0,0:0:0:0:
441,148,12013,6,0,P|396:170|303:125,1,150,10|2,0:0|0:0,0:0:0:0:
232,70,13184,2,0,L|114:81,1,100,2|4,0:0|0:0,0:0:0:0:
441,148,15763,6,0,L|448:257,1,100,12|10,0:0|0:0,0:0:0:0:
402,337,16700,2,0,P|366:355|306:352,2,100,8|10|0,0:0|0:0|0:0,0:0:0:0:
339,258,18106,1,10,0:0:0:0:
244,225,18575,2,0,L|142:225,1,100,8|10,0:0|0:0,0:0:0:0:
53,181,19513,6,0,P|39:129|53:76,1,100,12|10,0:3|0:0,0:0:0:0:
135,35,20450,2,0,P|183:25|231:39,1,100,8|10,0:0|0:0,0:0:0:0:
314,95,21388,2,0,P|360:121|470:90,2,150,8|0|10,0:0|3:0|0:0,0:0:0:0:
227,145,23263,6,0,P|219:239|219:260,1,100,8|10,0:0|0:0,0:0:0:0:
143,310,24200,2,0,P|88:310|35:315,1,100,8|10,0:0|0:0,0:0:0:0:
25,216,25138,2,0,P|13:139|32:104,1,100,8|10,0:0|0:0,0:0:0:0:
120,114,26075,2,0,P|132:150|116:214,1,100,8|10,0:0|0:0,0:0:0:0:
152,304,27013,6,0,L|264:320,1,100,8|10,0:0|0:0,0:0:0:0:
320,246,27950,1,8,0:0:0:0:
272,157,28419,1,10,0:0:0:0:
176,132,28888,2,0,L|160:32,2,100,10|10|4,0:3|0:0|0:3,0:0:0:0:
80,162,30294,1,10,0:0:0:0:
71,261,30763,6,0,B|182:236|157:298|266:277,1,200,12|8,0:0|0:0,0:0:0:0:
343,340,32169,1,10,0:0:0:0:
441,324,32638,2,0,L|434:215,1,100,8|10,0:0|0:0,0:0:0:0:
401,129,33575,2,0,L|407:29,1,100,8|10,0:0|0:0,0:0:0:0:
306,22,34513,6,0,P|253:20|196:42,1,100,8|10,0:0|0:0,0:0:0:0:
166,124,35450,2,0,P|123:127|63:108,1,100,0|10,3:2|0:0,0:0:0:0:
25,201,36388,2,0,P|18:265|19:373,2,150,10|2|10,0:0|0:0|0:0,0:0:0:0:
124,211,38263,6,0,L|231:219,1,100,8|10,0:0|0:0,0:0:0:0:
300,282,39200,2,0,L|409:291,1,100,8|10,0:0|0:0,0:0:0:0:
449,202,40138,2,0,B|457:151|457:151|444:84,1,100,8|10,0:0|0:0,0:0:0:0:
356,62,41075,2,0,B|348:113|348:113|361:180,1,100,8|10,0:0|0:0,0:0:0:0:
264,199,42013,6,0,P|222:187|127:253,2,150,8|8|10,0:0|0:2|3:0,0:0:0:0:
219,288,43888,2,0,P|194:320|127:340,1,100,8|8,0:0|0:0,0:0:0:0:
39,345,44825,1,10,0:0:0:0:
28,246,45294,1,10,0:0:0:0:
256,192,45763,12,4,47638,0:1:0:0:
59,108,49513,6,0,P|107:87|172:105,1,100,12|0,0:0|1:2,0:0:0:0:
240,141,50450,2,0,P|273:146|348:113,1,100,8|0,0:0|1:2,0:0:0:0:
433,105,51388,2,0,P|409:54|359:27,2,100,8|0|8,0:0|1:2|0:0,0:0:0:0:
410,202,52794,1,2,1:2:0:0:
372,294,53263,6,0,L|263:306,1,100,8|2,0:0|1:2,0:0:0:0:
176,312,54200,2,0,L|76:318,1,100,10|2,0:0|1:2,0:0:0:0:
35,226,55138,2,0,P|26:156|43:116,1,100,8|2,0:0|1:2,0:0:0:0:
113,67,56075,2,0,P|154:54|226:71,1,100,10|0,0:0|1:2,0:0:0:0:
296,113,57013,6,0,L|411:88,2,100,12|2|10,0:0|1:2|0:0,0:0:0:0:
295,213,58419,1,2,1:2:0:0:
253,304,58888,2,0,P|204:295|139:315,1,100,8|2,0:0|1:2,0:0:0:0:
81,239,59825,2,0,P|70:190|79:141,1,100,10|2,0:0|1:2,0:0:0:0:
158,79,60763,6,0,L|315:60,2,150,10|2|0,0:0|0:0|1:2,0:0:0:0:
190,173,62638,2,0,P|267:257|359:237,1,200,10|0,0:0|0:0,0:0:0:0:
432,201,64044,1,10,0:0:0:0:
432,101,64512,6,0,P|384:80|319:98,1,100,12|2,0:0|1:2,0:0:0:0:
237,85,65450,2,0,P|204:90|129:57,1,100,8|2,0:0|1:2,0:0:0:0:
78,146,66387,2,0,P|27:170|0:220,2,100,8|2|10,0:0|1:2|0:0,0:0:0:0:
96,244,67794,1,2,1:2:0:0:
179,298,68263,6,0,L|288:310,1,100,8|2,0:0|1:2,0:0:0:0:
378,309,69200,2,0,L|478:315,1,100,10|2,0:0|1:2,0:0:0:0:
483,215,70137,2,0,P|492:145|475:105,1,100,8|0,0:0|1:2,0:0:0:0:
398,64,71075,2,0,P|357:51|285:68,1,100,8|0,0:0|1:2,0:0:0:0:
214,108,72012,6,0,L|99:83,2,100,14|2|8,0:0|1:2|0:0,0:0:0:0:
216,208,73419,1,0,1:2:0:0:
258,298,73887,2,0,P|307:289|372:309,1,100,8|2,0:0|1:2,0:0:0:0:
430,233,74825,2,0,P|441:184|432:135,1,100,8|2,0:0|1:2,0:0:0:0:
351,76,75762,6,0,L|194:57,2,150,10|0|2,0:0|0:0|1:2,0:0:0:0:
321,171,77637,2,0,L|152:150,2,150,10|0|8,0:0|3:2|1:2,0:0:0:0:
402,232,79513,6,0,P|413:286|398:336,1,100,14|2,0:0|1:2,0:0:0:0:
309,367,80450,2,0,P|268:373|205:344,1,100,0|2,0:0|1:2,0:0:0:0:
135,291,81388,2,0,B|126:225|126:225|145:164|145:164|133:94,1,200,10|10,0:0|0:0,0:0:0:0:
221,49,82794,1,2,1:2:0:0:
320,62,83263,6,0,L|422:46,1,100,10|2,0:0|1:2,0:0:0:0:
456,139,84200,2,0,L|338:157,1,100,8|2,0:0|1:2,0:0:0:0:
261,182,85137,1,4,0:0:0:0:
256,192,85255,12,6,87013,0:0:0:0:
