osu file format v12

[General]
AudioFilename: Girls & Panzer OP-DreamRiser.mp3
AudioLeadIn: 1500
PreviewTime: 56962
Countdown: 0
SampleSet: Soft
StackLeniency: 0.7
Mode: 0
LetterboxInBreaks: 0

[Editor]
Bookmarks: 13799
DistanceSpacing: 1.1
BeatDivisor: 4
GridSize: 4

[Metadata]
Title:DreamRiser
TitleUnicode:DreamRiser
Artist:ChouCho
ArtistUnicode:ちょうちょ
Creator:scanter
Version:Insane
Source:Girls und Panzer
Tags:HabiHolic -iCo- Opening
BeatmapID:199085
BeatmapSetID:68916

[Difficulty]
HPDrainRate:6
CircleSize:4
OverallDifficulty:8
ApproachRate:9
SliderMultiplier:1.8
SliderTickRate:2

[Events]
//Background and Video events
0,0,"bg.jpg",0,0
//Break Periods
2,86248,94175
2,161884,170175
2,182248,186539
//Storyboard Layer 0 (Background)
//Storyboard Layer 1 (Fail)
//Storyboard Layer 2 (Pass)
//Storyboard Layer 3 (Foreground)
//Storyboard Sound Samples
//Background Colour Transformations
3,100,163,162,255

[TimingPoints]
230,363.636363636364,4,2,1,65,1,0
8957,-100,4,1,2,65,0,0
9048,-100,4,2,1,65,0,0
19139,-100,4,2,1,45,0,0
25684,-100,4,1,1,45,0,0
25775,-100,4,2,1,45,0,0
26411,-100,4,1,1,45,0,0
26502,-100,4,2,1,45,0,0
27139,-100,4,1,1,45,0,0
27230,-100,4,2,1,45,0,0
29139,-100,4,2,1,55,0,0
30775,-100,4,2,1,65,0,0
42775,-133.333333333333,4,2,1,55,0,0
42957,-133.333333333333,4,1,1,55,0,0
43048,-133.333333333333,4,2,1,55,0,0
44593,-133.333333333333,4,3,1,55,0,0
44684,-133.333333333333,4,2,1,55,0,0
45866,-133.333333333333,4,1,1,55,0,0
45957,-133.333333333333,4,2,1,55,0,0
47685,-100,4,2,1,65,0,0
56957,-100,4,2,1,85,0,1
60593,-100,4,1,1,85,0,1
60684,-100,4,2,1,85,0,1
63502,-100,4,1,1,85,0,1
63593,-100,4,2,1,85,0,1
64957,-100,4,1,1,85,0,1
65048,-100,4,2,1,85,0,1
68502,-100,4,2,1,85,0,0
68593,-100,4,2,1,85,0,1
72593,-100,4,3,1,85,0,1
72684,-100,4,2,1,85,0,1
82411,-166.666666666667,4,2,1,45,0,1
83139,-100,4,2,1,75,0,0
86048,-100,4,2,1,40,0,0
94775,-100,4,2,1,45,0,0
101320,-100,4,1,1,45,0,0
101411,-100,4,2,1,45,0,0
102048,-100,4,1,1,45,0,0
102139,-100,4,2,1,45,0,0
102775,-100,4,1,1,45,0,0
102866,-100,4,2,1,45,0,0
104048,-100,4,2,1,55,0,0
104139,-100,4,2,1,45,0,0
104957,-100,4,2,1,55,0,0
106411,-100,4,2,1,65,0,0
118411,-133.333333333333,4,2,1,55,0,0
120230,-133.333333333333,4,3,1,55,0,0
120320,-133.333333333333,4,2,1,55,0,0
121502,-133.333333333333,4,1,1,55,0,0
121593,-133.333333333333,4,2,1,55,0,0
123684,-133.333333333333,4,2,1,65,0,0
123775,-100,4,2,1,65,0,0
132593,-100,4,2,1,85,0,1
142048,-100,4,1,1,85,0,1
142139,-100,4,2,1,85,0,1
144139,-100,4,2,1,85,0,0
144230,-100,4,2,1,85,0,1
148230,-100,4,3,1,85,0,1
148320,-100,4,2,1,85,0,1
155320,-100,4,2,1,65,0,1
155866,-100,4,2,1,85,0,1
158048,-166.666666666667,4,2,1,45,0,1
158775,-100,4,2,1,75,0,0
170775,-100,4,2,1,65,0,0
172048,-100,4,1,1,65,0,0
172139,-100,4,2,1,65,0,0
182048,-100,4,2,1,55,0,0
190775,-100,4,2,1,65,0,0
192230,-100,4,2,1,55,0,0
192957,-100,4,2,1,65,0,0
193684,-100,4,2,1,85,0,1
213320,-166.666666666667,4,2,1,45,0,1
214048,-166.666666666667,4,2,1,45,0,0
216593,-166.666666666667,4,2,1,40,0,0
216957,-100,4,2,1,65,0,0
227139,-100,4,2,1,68,0,0
227502,-100,4,2,1,64,0,0
227866,-100,4,2,1,60,0,0
228230,-100,4,2,1,56,0,0
228593,-100,4,2,1,52,0,0
228957,-100,4,2,1,48,0,0
229320,-100,4,2,1,44,0,0
229684,-100,4,2,1,40,0,0
230048,-100,4,2,1,36,0,0
230411,-100,4,2,1,32,0,0
230775,-100,4,2,1,28,0,0
231139,-100,4,2,1,24,0,0
231502,-100,4,2,1,20,0,0
231866,-100,4,2,1,16,0,0
232230,-100,4,2,1,12,0,0
232593,-100,4,2,1,8,0,0
232957,-100,4,2,1,5,0,0

[Colours]
Combo1 : 173,79,71
Combo2 : 39,205,64
Combo3 : 49,49,196
Combo4 : 43,179,202

[HitObjects]
396,72,1139,1,2,0:0:0:0:
396,72,1230,1,2,0:0:0:0:
396,72,1320,1,8,0:0:0:0:
184,120,1684,5,12,0:0:0:0:
184,120,1866,1,8,0:0:0:0:
32,264,2411,1,8,0:0:0:0:
96,336,2593,2,0,P|144:360|192:344,1,90,0|0,0:0|0:0,0:0:0:0:
264,296,2957,6,0,L|448:240,1,180,12|0,0:0|0:0,0:0:0:0:
400,152,3502,1,8,0:0:0:0:
328,80,3684,2,0,P|256:40|168:88,1,180,4|0,0:0|0:0,0:0:0:0:
152,176,4230,2,0,P|104:160|76:120,1,90,8|0,0:0|0:0,0:0:0:0:
52,308,4593,5,12,0:0:0:0:
52,308,4775,1,8,0:0:0:0:
344,356,5320,1,2,0:0:0:0:
432,320,5502,1,0,0:0:0:0:
432,320,5593,1,8,0:0:0:0:
432,320,5684,1,8,0:0:0:0:
468,228,5866,6,0,P|388:136|316:164,1,180,12|2,0:0|0:0,0:0:0:0:
324,240,6411,2,0,P|284:272|224:248,1,90,8|6,0:0|0:0,0:0:0:0:
96,176,6775,5,0,0:0:0:0:
112,80,6957,1,2,0:0:0:0:
200,48,7139,1,8,0:0:0:0:
364,124,7320,5,2,0:0:0:0:
364,124,7411,1,8,0:0:0:0:
364,124,7502,2,0,P|388:214|316:252,2,180,4|8|0,0:0|0:0|0:0,0:0:0:0:
264,116,8411,1,2,0:0:0:0:
164,128,8593,1,8,0:0:0:0:
72,160,8775,2,0,P|32:248|72:328,1,180,0|0,0:0|0:0,0:0:0:0:
160,292,9320,1,8,0:0:0:0:
224,368,9502,2,0,P|320:360|384:288,1,180,4|2,0:0|0:0,0:0:0:0:
440,216,10048,1,8,0:0:0:0:
440,216,10139,1,0,0:0:0:0:
440,216,10230,1,0,0:0:0:0:
344,288,10411,5,12,0:0:0:0:
204,208,10593,1,2,0:0:0:0:
312,128,10775,1,2,0:0:0:0:
296,264,10957,5,12,0:0:0:0:
156,184,11139,1,2,0:0:0:0:
264,104,11320,1,2,0:0:0:0:
248,240,11502,5,12,0:0:0:0:
108,160,11684,1,2,0:0:0:0:
216,80,11866,1,2,0:0:0:0:
204,208,12048,5,12,0:0:0:0:
56,136,12230,1,2,0:0:0:0:
168,56,12411,1,2,0:0:0:0:
56,136,12593,2,0,P|40:216|112:272,1,180,8|12,0:0|0:0,0:0:0:0:
300,320,13320,6,0,L|416:280,1,90,12|2,0:0|0:0,0:0:0:0:
256,192,13684,1,2,0:0:0:0:
385,93,13866,2,0,L|300:64,1,90,8|2,0:0|0:0,0:0:0:0:
256,192,14230,1,2,0:0:0:0:
126,290,14411,2,0,L|216:320,1,90,8|2,0:0|0:0,0:0:0:0:
256,192,14775,1,2,0:0:0:0:
212,64,14957,2,0,L|126:93,1,90,8|2,0:0|0:0,0:0:0:0:
256,192,15320,1,2,0:0:0:0:
156,288,15502,6,0,L|224:224,1,90,8|2,0:0|0:0,0:0:0:0:
356,96,15866,2,0,L|291:158,1,90,8|2,0:0|0:0,0:0:0:0:
312,280,16230,6,0,P|274:245|258:197,1,90,12|2,0:0|0:0,0:0:0:0:
384,152,16593,1,2,0:0:0:0:
200,104,16775,2,0,P|238:139|254:187,1,90,8|2,0:0|0:0,0:0:0:0:
128,232,17139,5,2,0:0:0:0:
176,320,17320,1,8,0:0:0:0:
272,328,17502,2,8,P|312:360|432:344,1,180,6|2,0:0|0:0,0:0:0:0:
384,256,18048,1,8,0:0:0:0:
480,240,18230,2,0,P|504:176|464:56,1,180,6|2,0:0|0:0,0:0:0:0:
296,56,18775,5,8,0:0:0:0:
196,64,18957,1,2,0:0:0:0:
172,92,19048,1,8,0:0:0:0:
160,128,19139,2,0,P|140:176|164:232,1,90,6|0,0:0|0:0,0:0:0:0:
244,184,19502,2,0,P|278:194|309:235,1,90,2|0,0:0|0:0,0:0:0:0:
276,332,19866,2,0,P|372:320|408:244,1,180,2|2,0:0|0:0,0:0:0:0:
476,180,20411,1,0,0:0:0:0:
424,96,20593,2,0,L|320:96,1,90,2|0,0:0|0:0,0:0:0:0:
240,60,20957,2,0,P|144:72|108:152,1,180,2|2,0:0|0:0,0:0:0:0:
168,216,21502,1,0,0:0:0:0:
256,264,21684,1,2,0:0:0:0:
344,216,21866,1,0,0:0:0:0:
368,120,22048,6,0,P|325:99|285:112,1,90,2|0,0:0|0:0,0:0:0:0:
232,192,22411,2,0,P|195:166|184:119,1,90,2|0,0:0|0:0,0:0:0:0:
220,32,22775,2,0,P|145:4|60:49,1,180,2|2,0:0|0:0,0:0:0:0:
84,144,23320,1,0,0:0:0:0:
32,228,23502,2,0,L|132:228,1,90,2|0,0:0|0:0,0:0:0:0:
80,320,23866,2,0,P|164:352|216:268,1,180,2|2,0:0|0:0,0:0:0:0:
316,300,24411,1,0,0:0:0:0:
408,344,24593,1,2,0:0:0:0:
424,248,24775,5,2,0:0:0:0:
424,248,24866,1,2,0:0:0:0:
424,248,24957,2,0,P|480:200|440:104,1,180,2|2,0:0|0:0,0:0:0:0:
368,52,25502,2,0,P|298:27|235:110,1,180,0|0,0:0|0:0,0:0:0:0:
300,172,26048,1,2,0:0:0:0:
296,272,26230,2,0,P|248:300|128:252,1,180,0|0,0:0|0:0,0:0:0:0:
48,308,26775,1,2,0:0:0:0:
16,212,26957,2,0,P|44:124|160:96,1,180,0|0,0:0|0:0,0:0:0:0:
216,72,27502,1,2,0:0:0:0:
312,92,27684,1,0,0:0:0:0:
312,92,27775,1,0,0:0:0:0:
312,92,27866,6,0,P|384:144|364:224,1,180,2|2,0:0|0:0,0:0:0:0:
292,288,28411,1,2,0:0:0:0:
196,304,28593,1,0,0:0:0:0:
196,304,28775,1,0,0:0:0:0:
100,280,28957,1,0,0:0:0:0:
128,104,29139,5,0,0:0:0:0:
128,104,29230,1,8,0:0:0:0:
128,104,29320,1,8,0:0:0:0:
104,8,29502,2,0,P|157:6|194:41,2,90,0|8|0,0:0|0:0|0:0,0:0:0:0:
112,192,30048,5,8,0:0:0:0:
112,192,30230,1,8,0:0:0:0:
384,152,30775,5,4,0:0:0:0:
480,208,30957,1,0,0:0:0:0:
392,248,31139,2,0,L|336:324,1,90,8|0,0:0|0:0,0:0:0:0:
240,332,31502,1,2,0:0:0:0:
144,320,31684,2,0,P|96:315|60:285,1,90,2|8,0:0|0:0,0:0:0:0:
100,196,32048,2,0,P|79:152|88:106,1,90,6|0,0:0|0:0,0:0:0:0:
168,56,32411,1,2,0:0:0:0:
268,44,32593,1,8,0:0:0:0:
364,64,32775,2,0,P|412:69|448:99,1,90,0|2,0:0|0:0,0:0:0:0:
408,188,33139,2,0,P|429:232|420:278,1,90,2|8,0:0|0:0,0:0:0:0:
336,316,33502,1,0,0:0:0:0:
240,344,33684,5,2,0:0:0:0:
140,336,33866,1,0,0:0:0:0:
52,288,34048,2,0,L|40:192,1,90,8|0,0:0|0:0,0:0:0:0:
140,192,34411,1,2,0:0:0:0:
184,104,34593,2,0,P|148:72|80:68,1,90,2|8,0:0|0:0,0:0:0:0:
64,152,34957,2,0,P|104:184|172:188,1,90,6|0,0:0|0:0,0:0:0:0:
228,240,35320,1,2,0:0:0:0:
328,256,35502,1,8,0:0:0:0:
344,356,35684,2,0,P|384:365|428:349,1,90,2|0,0:0|0:0,0:0:0:0:
412,248,36048,2,0,P|370:238|324:260,1,90,2|8,0:0|0:0,0:0:0:0:
272,172,36411,1,0,0:0:0:0:
148,40,36593,5,6,0:0:0:0:
248,28,36775,1,0,0:0:0:0:
328,76,36957,2,0,L|376:172,1,90,8|0,0:0|0:0,0:0:0:0:
412,248,37320,1,2,0:0:0:0:
348,324,37502,2,0,P|314:335|262:323,1,90,2|8,0:0|0:0,0:0:0:0:
168,296,37866,1,2,0:0:0:0:
144,112,38230,5,2,0:0:0:0:
256,40,38411,1,8,0:0:0:0:
368,112,38593,1,0,0:0:0:0:
368,272,38957,5,2,0:0:0:0:
144,272,39139,1,8,0:0:0:0:
256,104,39320,1,0,0:0:0:0:
384,192,39502,5,4,0:0:0:0:
256,320,39866,1,8,0:0:0:0:
128,192,40230,1,2,0:0:0:0:
256,64,40593,1,8,0:0:0:0:
256,192,40957,1,4,0:0:0:0:
256,192,41048,12,4,42411,0:0:0:0:
224,212,42775,6,0,P|152:192|128:128,2,135.000005149842,0|8|0,0:0|0:0|0:0,0:0:0:0:
392,128,43866,1,2,0:0:0:0:
432,292,44229,1,0,0:0:0:0:
360,328,44411,2,0,P|304:372|240:332,1,135.000005149842,2|0,0:0|0:0,0:0:0:0:
40,212,45139,1,0,0:0:0:0:
40,212,45320,1,2,0:0:0:0:
112,296,45684,6,0,P|168:336|224:292,2,135.000005149842,0|8|0,0:0|0:0|0:0,0:0:0:0:
400,344,46775,1,4,0:0:0:0:
336,208,47139,2,0,L|272:160,1,67.5000025749208,8|4,0:0|0:0,0:0:0:0:
440,52,47684,1,0,0:0:0:0:
264,80,47866,6,0,P|224:60|172:64,2,90,8|4|0,0:0|0:0|0:0,0:0:0:0:
388,136,48411,1,2,0:0:0:0:
388,136,48593,2,8,P|377:174|342:208,1,90,8|0,0:0|0:0,0:0:0:0:
238,334,48957,2,0,P|211:305|199:258,1,90,2|2,0:0|0:0,0:0:0:0:
135,113,49320,2,0,P|173:101|221:111,1,90,8|0,0:0|0:0,0:0:0:0:
256,296,49684,5,4,0:0:0:0:
376,196,49866,1,0,0:0:0:0:
256,88,50048,1,8,0:0:0:0:
136,192,50229,1,4,0:0:0:0:
425,283,50593,6,0,P|460:256|476:208,1,90,2|8,0:0|0:0,0:0:0:0:
376,196,50957,1,2,0:0:0:0:
144,312,51139,6,0,P|184:324|232:320,1,90,12|0,0:0|0:0,0:0:0:0:
204,140,51502,1,8,0:0:0:0:
360,68,51684,2,0,P|320:56|272:60,1,90,12|0,0:0|0:0,0:0:0:0:
304,240,52048,1,2,0:0:0:0:
124,104,52229,2,0,P|120:152|132:192,1,90,8|4,0:0|0:0,0:0:0:0:
304,140,52593,1,0,0:0:0:0:
376,304,52775,2,0,P|388:264|384:216,1,90,2|8,0:0|0:0,0:0:0:0:
204,240,53139,1,0,0:0:0:0:
384,216,53320,5,2,0:0:0:0:
468,164,53502,1,2,0:0:0:0:
444,68,53684,2,0,P|404:44|344:40,1,90,8|2,0:0|0:0,0:0:0:0:
184,72,54048,6,0,L|160:160,1,90,12|2,0:0|0:0,0:0:0:0:
256,192,54411,1,2,0:0:0:0:
328,312,54593,2,0,L|352:224,1,90,8|2,0:0|0:0,0:0:0:0:
256,192,54957,1,2,0:0:0:0:
172,244,55139,1,8,0:0:0:0:
172,244,55320,1,8,0:0:0:0:
264,336,56229,5,2,0:0:0:0:
296,348,56320,1,2,0:0:0:0:
332,352,56411,1,8,0:0:0:0:
368,344,56502,1,2,0:0:0:0:
400,328,56593,1,2,0:0:0:0:
428,308,56684,1,2,0:0:0:0:
452,280,56775,1,2,0:0:0:0:
468,248,56866,1,2,0:0:0:0:
472,212,56957,6,0,P|446:126|362:95,1,180,4|8,0:0|0:0,0:0:0:0:
280,140,57502,1,0,0:0:0:0:
228,60,57684,2,0,P|180:72|148:108,1,90,2|2,0:0|0:0,0:0:0:0:
52,88,58048,1,8,0:0:0:0:
36,268,58229,6,0,P|108:308|179:256,1,180,4|2,0:0|0:0,0:0:0:0:
324,249,58775,2,0,P|251:208|179:256,1,180,8|2,0:0|0:0,0:0:0:0:
248,64,59320,5,2,0:0:0:0:
336,112,59502,1,8,0:0:0:0:
248,64,59684,1,0,0:0:0:0:
148,56,59866,2,0,P|100:68|68:104,1,90,4|0,0:0|0:0,0:0:0:0:
152,156,60229,1,8,0:0:0:0:
72,216,60411,2,0,P|152:264|224:216,1,180,0|2,0:0|0:0,0:0:0:0:
328,216,60957,1,8,0:0:0:0:
476,112,61139,6,0,P|404:72|333:124,1,180,4|2,0:0|0:0,0:0:0:0:
188,132,61684,2,0,P|261:173|333:125,1,180,8|2,0:0|0:0,0:0:0:0:
300,300,62229,5,2,0:0:0:0:
452,208,62411,1,8,0:0:0:0:
452,208,62502,1,0,0:0:0:0:
452,208,62593,1,8,0:0:0:0:
452,208,62684,1,8,0:0:0:0:
452,208,62775,1,4,0:0:0:0:
292,128,62957,6,0,P|252:96|188:108,1,90,0|8,0:0|0:0,0:0:0:0:
136,152,63320,2,0,B|104:184|104:184|168:264|96:304,1,180,0|2,0:0|0:0,0:0:0:0:
204,316,63866,1,8,0:0:0:0:
304,328,64048,2,0,P|352:336|386:307,1,90,4|0,0:0|0:0,0:0:0:0:
436,140,64411,5,2,0:0:0:0:
364,72,64593,1,8,0:0:0:0:
268,60,64775,2,0,B|224:48|224:48|187:143|116:101,1,180,0|2,0:0|0:0,0:0:0:0:
116,204,65320,2,0,P|149:266|181:274,1,90,8|0,0:0|0:0,0:0:0:0:
336,212,65684,5,4,0:0:0:0:
420,160,65866,1,0,0:0:0:0:
336,212,66048,2,8,P|318:184|328:130,1,90,8|0,0:0|0:0,0:0:0:0:
168,216,66411,5,2,0:0:0:0:
168,216,66593,1,2,0:0:0:0:
160,72,66775,1,8,0:0:0:0:
36,148,66957,1,4,0:0:0:0:
36,148,67048,1,8,0:0:0:0:
36,148,67139,1,0,0:0:0:0:
244,104,67320,6,0,P|296:108|332:144,1,90,0|8,0:0|0:0,0:0:0:0:
372,220,67684,1,0,0:0:0:0:
412,308,67866,1,8,0:0:0:0:
388,332,67957,1,0,0:0:0:0:
356,348,68048,1,8,0:0:0:0:
324,356,68139,1,0,0:0:0:0:
288,360,68229,1,8,0:0:0:0:
252,356,68320,1,0,0:0:0:0:
216,344,68411,1,8,0:0:0:0:
184,324,68502,1,0,0:0:0:0:
160,296,68593,6,0,P|120:232|168:144,1,180,4|8,0:0|0:0,0:0:0:0:
224,68,69139,2,0,P|280:92|292:115,1,90,0|2,0:0|0:0,0:0:0:0:
340,196,69502,1,2,0:0:0:0:
240,200,69684,1,8,0:0:0:0:
293,115,69866,2,0,P|329:63|433:91,1,180,4|2,0:0|0:0,0:0:0:0:
474,172,70411,2,0,P|438:224|340:196,1,180,8|2,0:0|0:0,0:0:0:0:
188,292,70957,5,2,0:0:0:0:
96,256,71139,1,8,0:0:0:0:
116,236,71229,1,0,0:0:0:0:
128,204,71320,1,2,0:0:0:0:
132,168,71411,1,0,0:0:0:0:
128,132,71502,2,0,P|140:84|180:60,1,90,12|0,0:0|0:0,0:0:0:0:
344,128,71866,5,8,0:0:0:0:
344,128,72048,1,12,0:0:0:0:
440,320,72411,2,0,P|364:352|268:312,1,180,2|4,0:0|0:0,0:0:0:0:
256,124,73139,2,0,P|204:124|164:164,2,90,2|8|4,0:0|0:0|0:0,0:0:0:0:
476,184,73866,1,2,0:0:0:0:
388,36,74048,5,8,0:0:0:0:
356,20,74139,1,0,0:0:0:0:
320,12,74229,1,8,0:0:0:0:
284,16,74320,1,8,0:0:0:0:
248,28,74411,1,4,0:0:0:0:
156,64,74593,2,0,P|112:92|100:148,2,90,0|8|0,0:0|0:0|0:0,0:0:0:0:
80,228,75139,5,2,0:0:0:0:
116,320,75320,1,2,0:0:0:0:
208,356,75502,1,8,0:0:0:0:
244,368,75593,1,0,0:0:0:0:
280,372,75684,1,4,0:0:0:0:
316,360,75775,1,0,0:0:0:0:
344,340,75866,1,0,0:0:0:0:
404,264,76048,2,0,P|428:212|412:172,2,90,2|8|0,0:0|0:0|0:0,0:0:0:0:
384,84,76593,5,2,0:0:0:0:
292,44,76775,1,2,0:0:0:0:
192,52,76957,1,8,0:0:0:0:
156,60,77048,1,0,0:0:0:0:
124,80,77139,1,0,0:0:0:0:
104,108,77229,1,0,0:0:0:0:
92,144,77320,2,0,P|84:196|116:236,1,90,4|0,0:0|0:0,0:0:0:0:
280,272,77684,5,8,0:0:0:0:
364,220,77866,2,0,P|372:172|356:132,2,90,0|2|2,0:0|0:0|0:0,0:0:0:0:
276,64,78411,5,8,0:0:0:0:
448,88,78593,1,4,0:0:0:0:
276,64,78775,2,0,P|232:56|188:72,1,90,0|0,0:0|0:0,0:0:0:0:
264,232,79139,1,8,0:0:0:0:
84,248,79320,1,0,0:0:0:0:
264,232,79502,1,2,0:0:0:0:
300,224,79593,1,0,0:0:0:0:
328,204,79684,1,0,0:0:0:0:
344,172,79775,1,8,0:0:0:0:
356,136,79866,1,8,0:0:0:0:
432,72,80048,5,0,0:0:0:0:
432,72,80139,1,8,0:0:0:0:
432,72,80229,2,0,P|464:104|472:160,1,90,12|0,0:0|0:0,0:0:0:0:
476,240,80593,2,0,P|448:272|400:280,1,90,8|0,0:0|0:0,0:0:0:0:
224,304,80957,1,12,0:0:0:0:
140,356,81139,1,0,0:0:0:0:
136,256,81320,2,0,P|96:224|80:172,1,90,8|0,0:0|0:0,0:0:0:0:
172,32,81684,1,12,0:0:0:0:
216,120,81866,1,0,0:0:0:0:
272,40,82048,2,0,P|316:32|366:53,1,90,8|0,0:0|0:0,0:0:0:0:
332,228,82411,6,0,P|284:252|182:229,1,161.999995056153
182,229,83139,1,4,0:0:0:0:
256,192,83229,12,8,86048,0:0:0:0:
372,308,94775,6,0,P|324:296|301:266,1,90,2|0,0:0|0:0,0:0:0:0:
348,88,95139,2,0,P|396:100|419:130,1,90,2|0,0:0|0:0,0:0:0:0:
240,164,95502,2,0,P|152:180|72:112,1,180,2|2,0:0|0:0,0:0:0:0:
64,228,96048,1,0,0:0:0:0:
128,304,96229,2,0,L|232:296,1,90,2|0,0:0|0:0,0:0:0:0:
308,256,96593,2,0,P|408:224|420:148,1,180,2|2,0:0|0:0,0:0:0:0:
360,84,97139,1,0,0:0:0:0:
268,52,97320,1,2,0:0:0:0:
168,52,97502,1,0,0:0:0:0:
92,116,97684,6,0,P|140:128|163:158,1,90,2|0,0:0|0:0,0:0:0:0:
168,340,98048,2,0,P|120:328|97:298,1,90,2|0,0:0|0:0,0:0:0:0:
260,220,98411,2,0,P|348:204|428:272,1,180,2|2,0:0|0:0,0:0:0:0:
396,352,98957,1,0,0:0:0:0:
296,356,99139,2,0,P|252:352|214:322,1,90,2|0,0:0|0:0,0:0:0:0:
140,264,99502,2,0,P|212:204|180:120,1,180,2|2,0:0|0:0,0:0:0:0:
252,52,100048,1,0,0:0:0:0:
352,56,100229,1,2,0:0:0:0:
436,112,100411,1,0,0:0:0:0:
376,192,100593,6,0,P|260:204|228:276,1,180,2|2,0:0|0:0,0:0:0:0:
280,340,101139,2,0,P|396:328|428:256,1,180,0|0,0:0|0:0,0:0:0:0:
356,116,101684,1,2,0:0:0:0:
264,84,101866,2,0,P|152:48|104:76,1,180,0|0,0:0|0:0,0:0:0:0:
260,172,102411,1,2,0:0:0:0:
352,208,102593,2,0,P|324:296|208:324,1,180
152,304,103139,1,2,0:0:0:0:
172,208,103320,1,0,0:0:0:0:
152,304,103502,6,0,P|76:232|88:160,1,180,2|2,0:0|0:0,0:0:0:0:
140,84,104048,1,8,0:0:0:0:
312,32,104229,5,2,0:0:0:0:
312,32,104320,1,0,0:0:0:0:
312,32,104411,1,0,0:0:0:0:
412,64,104593,1,2,0:0:0:0:
412,64,104684,1,0,0:0:0:0:
412,64,104775,1,0,0:0:0:0:
456,152,104957,1,8,0:0:0:0:
424,248,105139,2,0,P|380:264|320:244,2,90,2|8|2,0:0|0:0|0:0,0:0:0:0:
272,152,105684,5,8,0:0:0:0:
272,152,105866,1,8,0:0:0:0:
160,308,106411,5,4,0:0:0:0:
92,236,106593,1,0,0:0:0:0:
76,140,106775,2,8,P|102:102|148:84,1,90,8|0,0:0|0:0,0:0:0:0:
240,68,107139,1,2,0:0:0:0:
416,96,107320,6,0,P|436:148|424:188,1,90,2|8,0:0|0:0,0:0:0:0:
318,36,107684,2,0,P|268:42|240:68,1,90,4|0,0:0|0:0,0:0:0:0:
324,120,108048,1,2,0:0:0:0:
188,240,108229,5,8,0:0:0:0:
104,292,108411,2,0,P|84:240|96:200,1,90,0|2,0:0|0:0,0:0:0:0:
204,348,108775,2,0,P|254:342|285:314,1,90,2|8,0:0|0:0,0:0:0:0:
380,292,109139,1,0,0:0:0:0:
324,120,109320,5,2,0:0:0:0:
232,84,109502,1,0,0:0:0:0:
140,124,109684,2,0,P|116:164|120:208,1,90,8|0,0:0|0:0,0:0:0:0:
216,184,110048,1,2,0:0:0:0:
364,284,110229,6,0,P|404:320|464:328,1,90,2|8,0:0|0:0,0:0:0:0:
296,218,110593,2,0,P|252:190|216:184,1,90,6|0,0:0|0:0,0:0:0:0:
172,96,110957,1,2,0:0:0:0:
172,276,111139,5,8,0:0:0:0:
96,212,111320,2,0,P|60:172|-4:156,1,90,2|0,0:0|0:0,0:0:0:0:
172,276,111684,2,0,P|208:316|272:332,1,90,2|8,0:0|0:0,0:0:0:0:
340,312,112048,1,2,0:0:0:0:
312,132,112229,5,6,0:0:0:0:
408,156,112411,1,0,0:0:0:0:
480,224,112593,2,0,P|489:258|472:309,1,90,8|0,0:0|0:0,0:0:0:0:
384,260,112957,1,2,0:0:0:0:
284,272,113139,2,0,P|241:298|202:297,1,90,2|8,0:0|0:0,0:0:0:0:
108,260,113502,1,4,0:0:0:0:
368,272,113866,5,2,0:0:0:0:
256,344,114048,1,8,0:0:0:0:
144,272,114229,1,0,0:0:0:0:
144,112,114593,5,2,0:0:0:0:
368,112,114775,1,8,0:0:0:0:
256,280,114957,1,0,0:0:0:0:
56,176,115139,6,0,P|40:224|49:261,1,90,12|0,0:0|0:0,0:0:0:0:
132,320,115502,2,0,P|148:272|138:234,1,90,8|0,0:0|0:0,0:0:0:0:
268,108,115866,1,2,0:0:0:0:
368,112,116048,1,2,0:0:0:0:
268,108,116229,2,0,P|226:70|211:15,1,90,8|2,0:0|0:0,0:0:0:0:
256,192,116593,12,4,118048,0:0:0:0:
288,172,118411,6,0,P|352:192|372:268,2,135.000005149842,0|8|2,0:0|0:0|0:0,0:0:0:0:
152,292,119502,1,0,0:0:0:0:
80,92,119866,1,2,0:0:0:0:
152,80,120048,2,0,B|208:88|248:36|304:40,1,135.000005149842,0|0,0:0|0:0,0:0:0:0:
424,156,120957,5,6,0:0:0:0:
424,156,121139,1,2,0:0:0:0:
400,288,121320,2,0,P|344:328|288:284,2,135.000005149842,0|8|0,0:0|0:0|0:0,0:0:0:0:
112,40,122411,1,4,0:0:0:0:
176,176,122775,2,0,L|240:224,1,67.5000025749208,8|6,0:0|2:0,0:0:0:0:
76,340,123320,1,2,0:0:0:0:
40,248,123502,1,8,0:0:0:0:
60,152,123684,1,6,0:0:0:0:
60,152,123775,1,0,0:0:0:0:
60,152,123866,1,0,0:0:0:0:
144,100,124048,5,0,0:0:0:0:
144,100,124229,2,0,P|164:148|212:164,1,90,8|0,0:0|0:0,0:0:0:0:
232,334,124593,2,0,P|263:293|253:244,1,90,2|2,0:0|0:0,0:0:0:0:
391,141,124957,2,0,P|340:134|302:167,1,90,8|0,0:0|0:0,0:0:0:0:
256,312,125320,5,4,0:0:0:0:
136,192,125502,1,0,0:0:0:0:
256,72,125684,1,8,0:0:0:0:
376,192,125866,1,4,0:0:0:0:
188,124,126229,2,0,P|219:84|266:71,1,90,2|8,0:0|0:0,0:0:0:0:
340,120,126593,1,0,0:0:0:0:
400,292,126775,6,0,P|372:336|320:352,1,90,6|0,0:0|0:0,0:0:0:0:
256,192,127139,1,8,0:0:0:0:
102,265,127320,2,0,P|78:218|90:165,1,90,6|0,0:0|0:0,0:0:0:0:
256,192,127684,1,2,0:0:0:0:
269,22,127866,2,0,P|321:25|361:62,1,90,8|6,0:0|0:0,0:0:0:0:
256,192,128229,1,0,0:0:0:0:
425,205,128411,2,8,P|422:257|385:297,1,90,2|8,0:0|0:0,0:0:0:0:
140,192,128775,5,0,0:0:0:0:
256,96,128957,1,2,0:0:0:0:
372,192,129139,1,2,0:0:0:0:
256,288,129320,2,8,P|204:285|164:248,1,90,8|2,0:0|0:0,0:0:0:0:
128,140,129684,6,0,L|192:68,1,90,12|2,0:0|0:0,0:0:0:0:
380,244,130048,2,0,L|323:314,1,90,2|8,0:0|0:0,0:0:0:0:
272,88,130411,1,2,0:0:0:0:
240,284,130593,1,2,0:0:0:0:
240,88,130775,1,8,0:0:0:0:
272,284,130957,1,8,0:0:0:0:
264,76,131866,5,2,0:0:0:0:
236,56,131957,1,0,0:0:0:0:
200,48,132048,1,2,0:0:0:0:
164,48,132139,1,0,0:0:0:0:
132,60,132229,2,0,P|96:92|84:144,1,90,8|0,0:0|0:0,0:0:0:0:
148,328,132593,6,0,P|100:320|64:284,1,90,4|0,0:0|0:0,0:0:0:0:
248,300,132957,2,0,P|300:312|340:356,1,90,8|0,0:0|0:0,0:0:0:0:
176,236,133320,2,0,L|232:152,1,90,2|2,0:0|0:0,0:0:0:0:
324,72,133684,1,8,0:0:0:0:
284,248,133866,6,0,P|347:188|438:201,1,180,4|2,0:0|0:0,0:0:0:0:
380,276,134411,2,0,L|304:100,1,180,8|2,0:0|0:0,0:0:0:0:
148,192,134957,1,2,0:0:0:0:
176,288,135139,1,8,0:0:0:0:
264,332,135320,1,2,0:0:0:0:
364,328,135502,6,0,P|412:320|448:284,1,90,4|0,0:0|0:0,0:0:0:0:
264,300,135866,2,0,P|212:312|172:356,1,90,8|0,0:0|0:0,0:0:0:0:
336,236,136229,2,0,L|280:152,1,90,2|2,0:0|0:0,0:0:0:0:
188,72,136593,1,8,0:0:0:0:
228,248,136775,6,0,P|165:188|74:201,1,180,4|2,0:0|0:0,0:0:0:0:
132,276,137320,2,0,L|208:100,1,180,8|2,0:0|0:0,0:0:0:0:
116,68,137866,1,2,0:0:0:0:
72,156,138048,1,8,0:0:0:0:
72,156,138139,1,0,0:0:0:0:
72,156,138229,1,2,0:0:0:0:
72,156,138320,1,8,0:0:0:0:
72,156,138411,1,4,0:0:0:0:
220,260,138593,6,0,P|260:292|316:276,1,90,2|8,0:0|0:0,0:0:0:0:
412,220,138957,2,0,P|376:192|326:202,1,90,0|2,0:0|0:0,0:0:0:0:
288,108,139320,1,2,0:0:0:0:
196,72,139502,1,8,0:0:0:0:
100,100,139684,2,0,P|76:156|88:292,1,180,4|2,0:0|0:0,0:0:0:0:
248,336,140230,6,0,P|292:360|352:344,1,90,8|0,0:0|0:0,0:0:0:0:
400,284,140593,1,2,0:0:0:0:
440,192,140775,1,2,0:0:0:0:
444,92,140957,2,0,P|400:68|340:84,1,90,8|0,0:0|0:0,0:0:0:0:
192,136,141320,6,0,P|144:208|48:216,1,180,4|8,0:0|0:0,0:0:0:0:
108,132,141866,2,0,P|156:204|252:212,1,180,0|2,0:0|0:0,0:0:0:0:
392,320,142411,5,8,0:0:0:0:
424,228,142593,2,0,P|440:144|408:48,1,180,4|0,0:0|0:0,0:0:0:0:
240,157,143139,2,0,P|286:157|324:136,1,90,8|0,0:0|0:0,0:0:0:0:
184,48,143502,5,8,0:0:0:0:
216,36,143593,1,0,0:0:0:0:
252,28,143684,1,8,0:0:0:0:
288,32,143775,1,0,0:0:0:0:
324,40,143866,1,8,0:0:0:0:
356,56,143957,1,0,0:0:0:0:
384,76,144048,1,8,0:0:0:0:
408,104,144139,1,0,0:0:0:0:
424,136,144229,6,0,P|443:184|429:232,1,90,4|0,0:0|0:0,0:0:0:0:
340,260,144593,2,0,P|291:285|241:268,1,90,8|0,0:0|0:0,0:0:0:0:
160,292,144957,1,2,0:0:0:0:
68,260,145139,1,2,0:0:0:0:
48,164,145320,1,8,0:0:0:0:
192,161,145502,2,0,P|96:121|48:164,1,180,4|2,0:0|0:0,0:0:0:0:
68,260,146048,2,0,P|176:297|217:225,1,180,8|2,0:0|0:0,0:0:0:0:
304,292,146593,5,8,0:0:0:0:
424,140,146775,1,8,0:0:0:0:
412,176,146866,1,0,0:0:0:0:
404,212,146957,1,2,0:0:0:0:
404,248,147048,1,8,0:0:0:0:
408,284,147139,2,0,P|396:332|356:356,1,90,4|0,0:0|0:0,0:0:0:0:
196,288,147502,5,8,0:0:0:0:
196,288,147684,1,4,0:0:0:0:
220,92,148048,2,0,P|146:47|78:95,1,180,2|4,0:0|0:0,0:0:0:0:
248,200,148775,2,0,P|300:200|340:160,2,90,2|8|4,0:0|0:0|0:0,0:0:0:0:
48,200,149502,1,2,0:0:0:0:
124,348,149684,5,8,0:0:0:0:
156,364,149775,1,0,0:0:0:0:
192,372,149866,1,8,0:0:0:0:
228,368,149957,1,8,0:0:0:0:
264,356,150048,1,4,0:0:0:0:
356,320,150229,2,0,P|400:292|412:236,2,90,0|8|0,0:0|0:0|0:0,0:0:0:0:
324,140,150775,5,2,0:0:0:0:
236,96,150957,1,2,0:0:0:0:
236,96,151048,1,8,0:0:0:0:
236,96,151139,2,0,P|180:80|144:96,1,90,8|4,0:0|0:0,0:0:0:0:
80,276,151684,2,0,P|70:332|96:366,2,90,2|8|0,0:0|0:0|0:0,0:0:0:0:
256,236,152229,5,2,0:0:0:0:
416,156,152411,1,2,0:0:0:0:
320,308,152593,1,8,0:0:0:0:
416,156,152775,1,0,0:0:0:0:
424,56,152957,6,0,P|386:24|330:31,1,90,4|0,0:0|0:0,0:0:0:0:
176,28,153320,1,8,0:0:0:0:
264,76,153502,1,0,0:0:0:0:
264,76,153593,1,8,0:0:0:0:
264,76,153684,2,0,P|236:116|198:126,1,90,2|2,0:0|0:0,0:0:0:0:
198,126,154048,1,8,0:0:0:0:
112,176,154229,1,4,0:0:0:0:
188,336,154411,6,0,P|224:368|276:360,1,90,0|2,0:0|0:0,0:0:0:0:
308,280,154775,2,0,P|348:279|384:311,1,90,8|0,0:0|0:0,0:0:0:0:
444,232,155139,1,8,0:0:0:0:
129,278,155320,5,8,0:0:0:0:
108,248,155411,1,8,0:0:0:0:
96,212,155502,1,2,0:0:0:0:
92,176,155593,1,8,0:0:0:0:
97,140,155684,1,8,0:0:0:0:
110,109,155775,1,8,0:0:0:0:
133,78,155866,6,0,L|220:98,1,90,12|0,0:0|0:0,0:0:0:0:
376,80,156229,2,0,L|288:100,1,90,8|0,0:0|0:0,0:0:0:0:
136,304,156593,2,0,L|223:283,1,90,12|0,0:0|0:0,0:0:0:0:
376,304,156957,2,0,L|288:283,1,90,8|0,0:0|0:0,0:0:0:0:
376,80,157320,2,0,P|332:84|300:120,1,90,12|0,0:0|0:0,0:0:0:0:
136,304,157684,2,0,P|180:300|212:264,1,90,8|0,0:0|0:0,0:0:0:0:
180,156,158048,6,0,P|228:132|329:154,1,161.999995056153
330,155,158776,1,4,0:0:0:0:
256,192,158866,12,0,161684,0:0:0:0:
192,100,170775,6,0,P|120:80|76:160,2,180,4|2|8,0:0|0:0|0:0,0:0:0:0:
112,280,171866,2,0,B|136:320|136:320|200:272|248:344,1,180,0|8,0:0|0:0,0:0:0:0:
344,336,172411,2,0,P|396:268|356:184,1,180,4|2,0:0|0:0,0:0:0:0:
484,276,172957,5,8,0:0:0:0:
432,104,173139,1,0,0:0:0:0:
380,276,173320,1,2,0:0:0:0:
432,104,173502,1,0,0:0:0:0:
348,48,173684,6,0,P|308:20|252:28,1,90,8|0,0:0|0:0,0:0:0:0:
172,20,174048,2,0,P|132:19|92:47,1,90,2|2,0:0|0:0,0:0:0:0:
116,144,174411,1,8,0:0:0:0:
52,220,174593,2,0,P|49:313|114:367,1,180,4|2,0:0|0:0,0:0:0:0:
236,240,175139,5,8,0:0:0:0:
140,272,175320,1,0,0:0:0:0:
236,240,175502,2,0,P|278:256|323:217,1,90,2|2,0:0|0:0,0:0:0:0:
364,148,175866,2,0,P|327:127|283:139,1,90,8|0,0:0|0:0,0:0:0:0:
108,100,176229,6,0,P|136:56|188:40,1,90,8|2,0:0|0:0,0:0:0:0:
252,204,176593,1,2,0:0:0:0:
410,119,176775,2,0,P|434:166|422:219,1,90,8|2,0:0|0:0,0:0:0:0:
252,204,177139,1,2,0:0:0:0:
243,362,177320,2,0,P|191:359|151:322,1,90,8|2,0:0|0:0,0:0:0:0:
252,204,177684,1,2,0:0:0:0:
108,100,177866,2,0,P|136:57|188:41,1,90,8|2,0:0|0:0,0:0:0:0:
252,204,178229,1,2,0:0:0:0:
312,280,178411,6,0,L|404:236,1,90,8|2,0:0|0:0,0:0:0:0:
212,112,178775,2,0,L|120:156,1,90,8|2,0:0|0:0,0:0:0:0:
228,304,179139,5,4,0:0:0:0:
228,304,179320,1,0,0:0:0:0:
132,280,179502,1,8,0:0:0:0:
132,280,179684,1,0,0:0:0:0:
56,216,179866,5,0,0:0:0:0:
44,180,179957,1,0,0:0:0:0:
48,144,180048,1,2,0:0:0:0:
64,112,180139,1,8,0:0:0:0:
88,84,180229,1,8,0:0:0:0:
116,64,180320,1,0,0:0:0:0:
152,56,180411,1,4,0:0:0:0:
188,52,180502,1,0,0:0:0:0:
224,56,180593,2,0,L|264:76,3,45,0|0|8|0,0:0|0:0|0:0|0:0,0:0:0:0:
296,96,180957,2,0,B|312:100|312:100|300:104|300:104|316:108|316:108|304:112|304:112|320:116|320:116|308:120|308:120|324:124|324:124|312:128|312:128|328:132|328:132|316:136|316:136|332:140|332:140|320:144|320:144|336:148|336:148|324:152|324:152|340:156|340:156|328:160|328:160|344:164|344:164|332:168|332:168|348:172|348:172|336:176|336:176|352:180|352:180|340:184|340:184|356:188|356:188|344:192|344:192|360:196|360:196,1,360,8|0,0:0|0:0,0:0:0:0:
456,336,182048,5,4,0:0:0:0:
340,32,187139,5,8,0:0:0:0:
75,199,187502,1,8,0:0:0:0:
352,344,187866,1,8,0:0:0:0:
72,144,188775,5,8,0:0:0:0:
440,240,189139,1,8,0:0:0:0:
128,104,190048,5,8,0:0:0:0:
384,104,190411,1,12,0:0:0:0:
256,284,190775,6,0,P|308:296|348:268,1,90,4|0,0:0|0:0,0:0:0:0:
455,252,191139,2,0,P|456:280|424:332,1,90,8|0,0:0|0:0,0:0:0:0:
376,104,191502,1,2,0:0:0:0:
180,52,191684,5,2,0:0:0:0:
180,52,191775,1,8,0:0:0:0:
180,52,191866,1,8,0:0:0:0:
70,160,192048,2,0,L|84:72,1,90,8|0,0:0|0:0,0:0:0:0:
264,224,192593,5,0,0:0:0:0:
148,268,192957,1,4,0:0:0:0:
164,300,193048,1,0,0:0:0:0:
192,320,193139,1,8,0:0:0:0:
224,332,193229,1,8,0:0:0:0:
260,336,193320,1,2,0:0:0:0:
296,336,193411,1,8,0:0:0:0:
332,328,193502,1,8,0:0:0:0:
364,308,193593,1,8,0:0:0:0:
392,280,193684,6,0,P|432:200|376:120,1,180,4|8,0:0|0:0,0:0:0:0:
328,48,194229,2,0,L|232:72,1,90,0|2,0:0|0:0,0:0:0:0:
144,189,194593,2,0,L|232:168,1,90,2|8,0:0|0:0,0:0:0:0:
120,92,194957,2,0,P|56:124|56:236,1,180,4|2,0:0|0:0,0:0:0:0:
72,320,195502,2,0,P|136:288|136:176,1,180,8|2,0:0|0:0,0:0:0:0:
244,204,196048,1,2,0:0:0:0:
284,296,196229,2,0,P|303:282|365:293,1,90,8|0,0:0|0:0,0:0:0:0:
416,120,196593,6,0,P|412:72|381:46,1,90,12|0,0:0|0:0,0:0:0:0:
284,64,196957,1,8,0:0:0:0:
212,132,197139,2,0,P|172:159|165:197,1,90,6|0,0:0|0:0,0:0:0:0:
49,121,197502,2,8,P|75:92|124:88,1,90,2|8,0:0|0:0,0:0:0:0:
40,220,197866,2,0,P|88:288|179:301,1,180,6|2,0:0|0:0,0:0:0:0:
304,172,198411,5,8,0:0:0:0:
260,260,198593,2,0,P|308:276|348:260,1,90,6|0,0:0|0:0,0:0:0:0:
400,180,198957,1,2,0:0:0:0:
460,352,199139,5,8,0:0:0:0:
460,352,199229,1,0,0:0:0:0:
460,352,199320,1,8,0:0:0:0:
460,352,199411,1,8,0:0:0:0:
460,352,199502,1,4,0:0:0:0:
360,352,199684,2,0,P|284:356|268:336,2,90,0|8|0,0:0|0:0|0:0,0:0:0:0:
204,264,200229,2,0,P|280:260|285:264,1,90,2|8,0:0|0:0,0:0:0:0:
105,264,200593,5,8,0:0:0:0:
105,264,200684,1,0,0:0:0:0:
104,264,200775,2,0,P|54:273|10:254,1,90,4|0,0:0|0:0,0:0:0:0:
138,81,201139,2,0,P|144:76|220:80,2,90,2|8|0,0:0|0:0|0:0,0:0:0:0:
64,172,201684,2,0,P|140:176|145:171,1,90,2|2,0:0|0:0,0:0:0:0:
284,188,202048,5,8,0:0:0:0:
284,188,202139,1,0,0:0:0:0:
284,188,202229,1,0,0:0:0:0:
284,188,202320,1,0,0:0:0:0:
284,188,202411,1,4,0:0:0:0:
427,109,202593,2,0,P|350:104|344:108,2,90,0|8|0,0:0|0:0|0:0,0:0:0:0:
284,188,203139,2,0,P|360:192|364:187,1,90,2|8,0:0|0:0,0:0:0:0:
440,372,203684,1,4,0:0:0:0:
108,296,204048,6,0,P|144:328|192:320,2,90,2|8|2,0:0|0:0|0:0,0:0:0:0:
156,124,204593,2,0,P|200:112|236:136,1,90,0|2,0:0|0:0,0:0:0:0:
416,136,204957,2,0,P|372:148|336:125,1,90,8|8,0:0|0:0,0:0:0:0:
337,125,205230,1,8,0:0:0:0:
337,125,205320,1,4,0:0:0:0:
424,328,205502,2,0,P|448:276|432:236,2,90,0|8|0,0:0|0:0|0:0,0:0:0:0:
288,212,206048,1,2,0:0:0:0:
108,196,206229,1,2,0:0:0:0:
268,112,206411,1,8,0:0:0:0:
108,196,206593,1,6,0:0:0:0:
80,292,206775,6,0,P|108:332|164:340,1,90,0|2,0:0|0:0,0:0:0:0:
204,260,207139,1,8,0:0:0:0:
288,312,207320,1,6,0:0:0:0:
384,332,207502,2,0,P|410:332|450:288,1,90,0|2,0:0|0:0,0:0:0:0:
412,196,207866,2,0,P|385:195|345:239,1,90,8|0,0:0|0:0,0:0:0:0:
460,100,208229,6,0,P|424:68|372:76,1,90,4|0,0:0|0:0,0:0:0:0:
316,144,208593,2,0,P|276:145|240:113,1,90,8|0,0:0|0:0,0:0:0:0:
184,32,208957,1,2,0:0:0:0:
96,80,209139,1,0,0:0:0:0:
56,168,209320,1,8,0:0:0:0:
48,268,209502,2,0,L|216:348,1,180,4|2,0:0|0:0,0:0:0:0:
204,244,210048,2,0,P|244:200|288:208,1,90,8|0,0:0|0:0,0:0:0:0:
424,108,210411,5,8,0:0:0:0:
432,140,210502,1,8,0:0:0:0:
440,172,210593,1,8,0:0:0:0:
440,204,210684,1,8,0:0:0:0:
432,236,210775,1,8,0:0:0:0:
416,268,210866,1,8,0:0:0:0:
400,300,210957,1,8,0:0:0:0:
376,324,211048,1,8,0:0:0:0:
344,332,211139,6,0,L|288:260,1,90,12|0,0:0|0:0,0:0:0:0:
116,280,211502,2,0,L|188:224,1,90,8|0,0:0|0:0,0:0:0:0:
168,52,211866,2,0,L|224:124,1,90,12|0,0:0|0:0,0:0:0:0:
396,104,212229,2,0,L|324:160,1,90,8|0,0:0|0:0,0:0:0:0:
300,288,212593,2,0,P|256:300|208:288,1,90,12|0,0:0|0:0,0:0:0:0:
213,93,212957,2,0,P|256:84|300:96,1,90,8|0,0:0|0:0,0:0:0:0:
407,253,213320,6,0,P|428:192|396:104,1,161.999995056153
396,104,214048,1,0,0:0:0:0:
256,192,214139,12,8,216593,0:0:0:0:
212,64,216957,6,0,L|96:104,1,90,12|2,0:0|0:0,0:0:0:0:
256,192,217320,1,2,0:0:0:0:
127,291,217502,2,0,L|212:320,1,90,8|2,0:0|0:0,0:0:0:0:
256,192,217866,1,2,0:0:0:0:
386,94,218048,2,0,L|302:65,1,90,8|2,0:0|0:0,0:0:0:0:
256,192,218411,1,2,0:0:0:0:
300,320,218593,2,0,L|386:291,1,90,8|2,0:0|0:0,0:0:0:0:
256,192,218957,1,2,0:0:0:0:
189,114,219139,6,0,L|124:176,1,90,8|2,0:0|0:0,0:0:0:0:
322,269,219502,2,0,L|388:208,1,90,8|2,0:0|0:0,0:0:0:0:
328,72,219866,6,0,P|376:104|392:152,1,90,12|2,0:0|0:0,0:0:0:0:
256,192,220229,1,2,0:0:0:0:
136,120,220411,2,0,P|168:72|195:58,1,90,8|2,0:0|0:0,0:0:0:0:
256,192,220775,1,2,0:0:0:0:
184,312,220957,2,0,P|136:280|122:252,1,90,8|2,0:0|0:0,0:0:0:0:
256,192,221320,1,2,0:0:0:0:
376,264,221502,2,0,P|344:312|316:325,1,90,8|2,0:0|0:0,0:0:0:0:
256,192,221866,1,2,0:0:0:0:
328,124,222048,6,0,L|404:48,1,90,8|2,0:0|0:0,0:0:0:0:
392,60,222411,1,8,0:0:0:0:
304,352,222775,6,0,P|278:341|254:287,1,90,12|2,0:0|0:0,0:0:0:0:
256,192,223139,1,2,0:0:0:0:
416,144,223320,2,0,P|405:170|351:194,1,90,8|2,0:0|0:0,0:0:0:0:
256,192,223684,1,2,0:0:0:0:
208,32,223866,2,0,P|233:42|257:96,1,90,8|2,0:0|0:0,0:0:0:0:
256,192,224229,1,2,0:0:0:0:
96,240,224411,2,0,P|107:214|161:190,1,90,8|2,0:0|0:0,0:0:0:0:
256,192,224775,1,2,0:0:0:0:
184,124,224957,6,0,L|112:60,1,90,8|2,0:0|0:0,0:0:0:0:
116,64,225320,1,8,0:0:0:0:
312,312,225684,5,12,0:0:0:0:
376,240,225866,1,2,0:0:0:0:
376,240,225957,1,8,0:0:0:0:
376,240,226048,1,8,0:0:0:0:
200,72,226229,1,6,0:0:0:0:
136,144,226411,1,0,0:0:0:0:
136,144,226502,1,0,0:0:0:0:
136,144,226593,1,8,0:0:0:0:
256,192,226775,5,4,0:0:0:0:
256,192,226866,12,0,232957,0:0:0:0:
