osu file format v12

[General]
AudioFilename: Girls & Panzer OP-DreamRiser.mp3
AudioLeadIn: 1500
PreviewTime: 56962
Countdown: 0
SampleSet: Soft
StackLeniency: 0.7
Mode: 0
LetterboxInBreaks: 0

[Editor]
Bookmarks: 13799
DistanceSpacing: 1.1
BeatDivisor: 4
GridSize: 4

[Metadata]
Title:DreamRiser
TitleUnicode:DreamRiser
Artist:ChouCho
ArtistUnicode:ちょうちょ
Creator:scanter
Version:Hard
Source:Girls und Panzer
Tags:HabiHolic -iCo- Opening
BeatmapID:204010
BeatmapSetID:68916

[Difficulty]
HPDrainRate:6
CircleSize:4
OverallDifficulty:6
ApproachRate:7
SliderMultiplier:1.5
SliderTickRate:2

[Events]
//Background and Video events
0,0,"BG.jpg",0,0
//Break Periods
2,86248,93875
2,161884,169875
2,182248,186239
//Storyboard Layer 0 (Background)
//Storyboard Layer 1 (Fail)
//Storyboard Layer 2 (Pass)
//Storyboard Layer 3 (Foreground)
//Storyboard Sound Samples
//Background Colour Transformations
3,100,163,162,255

[TimingPoints]
230,363.636363636364,4,2,1,65,1,0
1866,-100,4,3,1,65,0,0
1957,-100,4,2,1,65,0,0
2775,-100,4,1,1,65,0,0
2866,-100,4,2,1,65,0,0
4775,-100,4,3,1,65,0,0
4866,-100,4,2,1,65,0,0
5684,-100,4,3,1,65,0,0
5775,-100,4,2,1,65,0,0
8957,-100,4,1,2,65,0,0
9048,-100,4,2,1,65,0,0
19139,-100,4,2,1,45,0,0
25684,-100,4,1,1,45,0,0
25775,-100,4,2,1,45,0,0
26411,-100,4,1,1,45,0,0
26502,-100,4,2,1,45,0,0
27139,-100,4,1,1,45,0,0
27230,-100,4,2,1,45,0,0
28593,-100,4,1,2,45,0,0
28684,-100,4,2,1,45,0,0
29139,-100,4,2,1,55,0,0
30775,-100,4,2,1,65,0,0
34593,-100,4,1,1,65,0,0
34684,-100,4,2,1,65,0,0
37320,-100,4,1,1,65,0,0
37411,-100,4,2,1,65,0,0
38775,-100,4,1,1,65,0,0
38866,-100,4,2,1,65,0,0
42775,-133.333333333333,4,2,1,55,0,0
42957,-133.333333333333,4,1,1,55,0,0
43048,-133.333333333333,4,2,1,55,0,0
44048,-133.333333333333,4,3,1,55,0,0
44139,-133.333333333333,4,2,1,55,0,0
44593,-133.333333333333,4,3,1,55,0,0
44684,-133.333333333333,4,2,1,55,0,0
45866,-133.333333333333,4,1,1,55,0,0
45957,-133.333333333333,4,2,1,55,0,0
46593,-133.333333333333,4,1,1,55,0,0
46684,-133.333333333333,4,2,1,55,0,0
47684,-100,4,2,1,65,0,0
56957,-100,4,2,1,85,0,1
57684,-100,4,1,1,85,0,1
57775,-100,4,2,1,85,0,1
60593,-100,4,1,1,85,0,1
60684,-100,4,2,1,85,0,1
63502,-100,4,1,1,85,0,1
63593,-100,4,2,1,85,0,1
64048,-100,4,1,2,85,0,1
64139,-100,4,2,1,85,0,1
66411,-100,4,1,1,85,0,1
66502,-100,4,2,1,85,0,1
68502,-100,4,2,1,85,0,0
68593,-100,4,2,1,85,0,1
69320,-100,4,1,1,85,0,1
69411,-100,4,2,1,85,0,1
72593,-100,4,3,1,85,0,1
72684,-100,4,2,1,85,0,1
78048,-100,4,1,1,85,0,1
78139,-100,4,2,1,85,0,1
82411,-166.666666666667,4,2,1,45,0,1
83139,-100,4,2,1,75,0,0
86048,-100,4,2,1,40,0,0
94775,-100,4,2,1,45,0,0
101320,-100,4,1,1,45,0,0
101411,-100,4,2,1,45,0,0
102048,-100,4,1,1,45,0,0
102139,-100,4,2,1,45,0,0
102775,-100,4,1,1,45,0,0
102866,-100,4,2,1,45,0,0
104048,-100,4,2,1,55,0,0
104148,-100,4,2,1,55,0,0
104957,-100,4,2,1,55,0,0
106411,-100,4,2,1,65,0,0
110230,-100,4,1,1,65,0,0
110320,-100,4,2,1,65,0,0
112957,-100,4,1,1,65,0,0
113048,-100,4,2,1,65,0,0
114411,-100,4,1,1,65,0,0
114502,-100,4,2,1,65,0,0
118411,-133.333333333333,4,2,1,55,0,0
118593,-133.333333333333,4,1,1,55,0,0
118684,-133.333333333333,4,2,1,55,0,0
120230,-133.333333333333,4,3,1,55,0,0
120320,-133.333333333333,4,2,1,55,0,0
121502,-133.333333333333,4,1,1,55,0,0
121593,-133.333333333333,4,2,1,55,0,0
123320,-100,4,2,1,65,0,0
132593,-100,4,2,1,85,0,1
133320,-100,4,1,1,85,0,1
133411,-100,4,2,1,85,0,1
139139,-100,4,1,1,85,0,1
139230,-100,4,2,1,85,0,1
140593,-100,4,1,1,85,0,1
140684,-100,4,2,1,85,0,1
142048,-100,4,1,1,85,0,1
142139,-100,4,2,1,85,0,1
144139,-100,4,2,1,85,0,0
144230,-100,4,2,1,85,0,1
150775,-100,4,1,1,85,0,1
150866,-100,4,2,1,85,0,1
152230,-100,4,1,1,85,0,1
152320,-100,4,2,1,85,0,1
153684,-100,4,1,1,85,0,1
153775,-100,4,2,1,85,0,1
155866,-100,4,2,1,85,0,1
158048,-166.666666666667,4,2,1,45,0,1
158775,-100,4,2,1,75,0,0
170775,-100,4,2,1,65,0,0
172048,-100,4,1,1,65,0,0
172139,-100,4,2,1,65,0,0
182048,-100,4,2,1,55,0,0
190775,-100,4,2,1,65,0,0
191502,-100,4,1,1,65,0,0
191593,-100,4,2,1,65,0,0
192230,-100,4,2,1,55,0,0
192957,-100,4,2,1,65,0,0
193684,-100,4,2,1,85,0,1
194411,-100,4,1,1,85,0,1
194502,-100,4,2,1,85,0,1
197684,-100,4,3,1,85,0,1
197775,-100,4,2,1,85,0,1
208957,-100,4,1,1,85,0,1
209048,-100,4,2,1,85,0,1
213320,-166.666666666667,4,2,1,45,0,1
214048,-166.666666666667,4,2,1,45,0,0
216593,-166.666666666667,4,2,1,40,0,0
216957,-100,4,2,1,65,0,0
227139,-100,4,2,1,68,0,0
227502,-100,4,2,1,64,0,0
227866,-100,4,2,1,60,0,0
228230,-100,4,2,1,56,0,0
228593,-100,4,2,1,52,0,0
228957,-100,4,2,1,48,0,0
229320,-100,4,2,1,44,0,0
229684,-100,4,2,1,40,0,0
230048,-100,4,2,1,36,0,0
230411,-100,4,2,1,32,0,0
230775,-100,4,2,1,28,0,0
231139,-100,4,2,1,24,0,0
231502,-100,4,2,1,20,0,0
231866,-100,4,2,1,16,0,0
232230,-100,4,2,1,12,0,0
232593,-100,4,2,1,8,0,0
232957,-100,4,2,1,5,0,0

[Colours]
Combo1 : 173,79,71
Combo2 : 39,205,64
Combo3 : 49,49,196
Combo4 : 43,179,202

[HitObjects]
360,56,1684,6,0,P|432:40|476:120,2,150,12|0|8,0:0|0:0|0:0,0:0:0:0:
277,98,2593,2,0,P|332:144|404:128,1,150,0|4,0:0|0:0,0:0:0:0:
112,96,3320,6,0,P|75:127|76:181,1,75,2|8,0:0|0:0,0:0:0:0:
80,236,3684,2,0,B|152:216|152:216|152:208|152:208|224:188,1,150,4|2,0:0|0:0,0:0:0:0:
204,272,4230,2,0,P|248:284|296:284,1,75,8|0,0:0|0:0,0:0:0:0:
360,328,4593,6,0,P|432:344|476:264,2,150,12|0|2,0:0|0:0|0:0,0:0:0:0:
277,285,5502,2,0,P|332:240|404:256,1,150,0|4,0:0|0:0,0:0:0:0:
124,276,6230,6,0,L|124:180,1,75,2|8,0:0|0:0,0:0:0:0:
136,120,6593,2,0,B|208:136|208:136|208:144|208:144|280:160,1,150,4|2,0:0|0:0,0:0:0:0:
276,76,7139,2,8,L|316:76,3,37.5,8|0|8|8,0:0|0:0|0:0|0:0,0:0:0:0:
352,76,7502,6,0,P|428:92|468:180,1,150,4|8,0:0|0:0,0:0:0:0:
348,324,8230,1,2,0:0:0:0:
272,352,8411,1,2,0:0:0:0:
188,344,8593,1,8,0:0:0:0:
112,312,8775,2,8,P|72:236|137:182,1,150,0|0,0:0|0:0,0:0:0:0:
132,112,9320,1,8,0:0:0:0:
64,64,9502,2,0,P|139:24|200:72,1,150,6|2,0:0|0:0,0:0:0:0:
272,68,10048,2,0,L|312:68,3,37.5,8|0|2|0,0:0|0:0|0:0|0:0,0:0:0:0:
348,72,10411,6,0,P|374:112|373:157,1,75,12|2,0:0|0:0,0:0:0:0:
376,220,10775,1,2,0:0:0:0:
372,304,10957,2,0,P|331:330|286:329,1,75,12|2,0:0|0:0,0:0:0:0:
224,332,11320,1,2,0:0:0:0:
144,328,11502,2,0,P|117:287|118:242,1,75,12|2,0:0|0:0,0:0:0:0:
112,180,11866,1,2,0:0:0:0:
116,96,12048,2,0,P|156:69|201:70,1,75,12|2,0:0|0:0,0:0:0:0:
264,64,12411,1,2,0:0:0:0:
348,72,12593,2,0,B|396:60|396:60|392:120|460:156,1,150,12|12,0:0|0:0,0:0:0:0:
220,128,13320,6,0,L|124:160,1,75,12|2,0:0|0:0,0:0:0:0:
76,192,13684,1,2,0:0:0:0:
148,232,13866,2,0,L|219:255,1,75,8|2,0:0|0:0,0:0:0:0:
256,328,14230,1,2,0:0:0:0:
292,256,14411,2,0,L|388:224,1,75,8|2,0:0|0:0,0:0:0:0:
436,192,14775,1,2,0:0:0:0:
364,152,14957,2,0,L|293:129,1,75,8|2,0:0|0:0,0:0:0:0:
252,56,15320,1,2,0:0:0:0:
168,56,15502,2,0,P|104:98|105:186,1,150,8|8,0:0|0:0,0:0:0:0:
326,253,16230,6,0,L|256:281,1,75,12|2,0:0|0:0,0:0:0:0:
312,172,16593,1,2,0:0:0:0:
186,131,16775,2,0,L|255:102,1,75,8|2,0:0|0:0,0:0:0:0:
198,207,17139,1,2,0:0:0:0:
318,211,17320,1,8,0:0:0:0:
444,268,17502,2,0,P|372:316|312:268,1,150,4|2,0:0|0:0,0:0:0:0:
256,246,18048,1,8,0:0:0:0:
184,288,18230,2,0,P|135:314|63:266,1,150,4|2,0:0|0:0,0:0:0:0:
112,188,18775,2,8,L|72:160,3,37.5,8|0|2|8,0:0|0:0|0:0|0:0,0:0:0:0:
40,156,19139,6,0,P|9:191|8:239,1,75,4|0,0:0|0:0,0:0:0:0:
16,300,19502,2,0,P|57:313|87:306,1,75,2|0,0:0|0:0,0:0:0:0:
172,284,19866,2,0,P|220:356|292:356,1,150,2|2,0:0|0:0,0:0:0:0:
316,288,20411,1,0,0:0:0:0:
396,272,20593,2,0,L|396:176,1,75,2|0,0:0|0:0,0:0:0:0:
396,112,20957,2,0,P|460:52|432:-16,1,150,2|2,0:0|0:0,0:0:0:0:
208,20,21684,1,2,0:0:0:0:
148,160,22048,6,0,P|140:196|160:256,1,75,2|0,0:0|0:0,0:0:0:0:
224,260,22411,2,0,P|253:233|293:225,1,75,2|0,0:0|0:0,0:0:0:0:
360,260,22775,2,0,P|312:332|232:340,1,150,2|2,0:0|0:0,0:0:0:0:
172,348,23320,1,0,0:0:0:0:
96,312,23502,2,0,P|64:284|55:249,1,75,2|0,0:0|0:0,0:0:0:0:
48,172,23866,2,0,P|88:92|156:96,1,150,2|2,0:0|0:0,0:0:0:0:
356,192,24593,1,2,0:0:0:0:
412,80,24775,5,0,0:0:0:0:
328,72,24957,2,0,P|252:112|268:188,1,150,2|2,0:0|0:0,0:0:0:0:
336,152,25502,2,0,P|401:187|387:264,1,150,0|0,0:0|0:0,0:0:0:0:
336,316,26048,1,2,0:0:0:0:
256,328,26230,2,0,P|178:287|176:233,1,150,0|0,0:0|0:0,0:0:0:0:
252,188,26775,1,2,0:0:0:0:
336,152,26957,2,0,P|334:98|256:57,1,150,0|0,0:0|0:0,0:0:0:0:
168,60,27502,1,2,0:0:0:0:
100,120,27684,1,0,0:0:0:0:
44,192,27866,6,0,P|92:212|173:167,1,150,2|2,0:0|0:0,0:0:0:0:
224,244,28411,2,0,P|268:276|268:364,1,150,0|4,0:0|0:0,0:0:0:0:
189,328,28957,2,0,L|328:272,1,150,4|8,0:0|0:0,0:0:0:0:
328,272,29684,5,8,0:0:0:0:
360,112,30048,2,0,P|410:117|444:140,1,75,8|8,0:0|0:0,0:0:0:0:
188,108,30775,6,0,L|276:132,1,75,4|0,0:0|0:0,0:0:0:0:
144,176,31139,2,0,L|60:156,1,75,8|0,0:0|0:0,0:0:0:0:
60,240,31502,1,2,0:0:0:0:
264,288,31866,2,0,L|336:307,1,75,8|4,0:0|0:0,0:0:0:0:
448,260,32230,2,0,L|375:242,1,75,0|2,0:0|0:0,0:0:0:0:
408,168,32593,2,0,P|392:72|328:64,1,150,8|2,0:0|0:0,0:0:0:0:
268,56,33139,1,2,0:0:0:0:
188,64,33320,1,8,0:0:0:0:
108,92,33502,1,0,0:0:0:0:
124,172,33684,6,0,L|100:252,1,75,4|0,0:0|0:0,0:0:0:0:
7,280,34048,2,0,L|28:208,1,75,8|0,0:0|0:0,0:0:0:0:
76,324,34411,2,0,P|127:357|207:333,1,150,2|8,0:0|0:0,0:0:0:0:
292,332,34957,2,0,P|297:336|361:336,1,75,4|0,0:0|0:0,0:0:0:0:
429,256,35320,2,0,P|424:252|360:252,1,75,2|8,0:0|0:0,0:0:0:0:
256,116,35866,1,0,0:0:0:0:
180,192,36048,1,2,0:0:0:0:
256,268,36230,1,8,0:0:0:0:
332,192,36411,1,2,0:0:0:0:
180,192,36593,6,0,P|176:260|102:303,1,150,4|8,0:0|0:0,0:0:0:0:
100,220,37139,2,0,L|222:306,1,150,0|2,0:0|0:0,0:0:0:0:
296,344,37684,1,8,0:0:0:0:
380,348,37866,2,0,P|408:341|449:240,1,150,4|2,0:0|0:0,0:0:0:0:
368,244,38411,1,8,0:0:0:0:
353,140,38593,2,0,P|325:147|284:248,1,150,4|2,0:0|0:0,0:0:0:0:
422,119,39139,2,0,P|398:135|353:140,1,75,8|0,0:0|0:0,0:0:0:0:
308,56,39502,5,4,0:0:0:0:
144,128,39866,1,8,0:0:0:0:
256,321,40230,1,2,0:0:0:0:
368,132,40593,1,8,0:0:0:0:
144,128,40957,1,4,0:0:0:0:
256,192,41139,12,4,42411,0:0:0:0:
168,72,42775,6,0,P|136:24|64:32,1,112.500004291535,0|8,0:0|0:0,0:0:0:0:
84,144,43502,1,0,0:0:0:0:
4,240,43866,2,0,P|36:288|108:280,1,112.500004291535,0|8,0:0|0:0,0:0:0:0:
246,360,44411,2,0,P|214:312|164:308,1,112.500004291535,0|0,0:0|0:0,0:0:0:0:
312,312,44957,1,0,0:0:0:0:
440,220,45320,1,2,0:0:0:0:
312,312,45684,6,0,P|344:360|416:352,1,112.500004291535,0|8,0:0|0:0,0:0:0:0:
488,236,46411,2,0,P|456:188|384:196,1,112.500004291535,0|4,0:0|0:0,0:0:0:0:
248,188,47139,2,0,L|184:188,1,56.2500021457673,8|4,0:0|0:0,0:0:0:0:
96,336,47684,6,0,L|32:272,1,75,0|8,0:0|0:0,0:0:0:0:
60,200,48048,2,0,P|36:104|84:56,1,150,4|2,0:0|0:0,0:0:0:0:
144,60,48593,2,0,P|232:92|280:60,1,150,8|2,0:0|0:0,0:0:0:0:
416,156,49320,1,8,0:0:0:0:
272,236,49684,6,0,L|208:195,1,75,4|0,0:0|0:0,0:0:0:0:
248,124,50048,2,0,L|311:164,1,75,8|4,0:0|0:0,0:0:0:0:
428,280,50593,2,0,P|404:328|372:344,2,75,2|8|0,0:0|0:0|0:0,0:0:0:0:
448,200,51139,6,0,L|400:128,1,75,12|0,0:0|0:0,0:0:0:0:
324,124,51502,1,8,0:0:0:0:
288,200,51684,2,0,L|160:96,1,150,4|2,0:0|0:0,0:0:0:0:
88,112,52229,1,8,0:0:0:0:
52,188,52411,2,0,P|44:276|108:316,1,150,4|2,0:0|0:0,0:0:0:0:
120,236,52957,1,8,0:0:0:0:
256,192,53320,12,0,55320,0:0:0:0:
408,64,56229,6,0,L|344:64,3,37.5,0|2|8|8,0:0|0:0|0:0|0:0,0:0:0:0:
328,64,56593,2,0,P|284:72|264:92,1,75,2|2,0:0|0:0,0:0:0:0:
232,168,56957,6,0,P|169:199|101:167,1,150,4|8,0:0|0:0,0:0:0:0:
168,104,57502,2,0,L|168:256,1,150,0|2,0:0|0:0,0:0:0:0:
244,304,58048,1,8,0:0:0:0:
328,332,58229,2,0,B|376:283|376:283|376:272|376:272|429:218,1,150,4|2,0:0|0:0,0:0:0:0:
440,132,58775,2,0,P|424:60|348:44,1,150,8|2,0:0|0:0,0:0:0:0:
268,48,59320,2,0,L|188:48,2,75,2|8|0,0:0|0:0|0:0,0:0:0:0:
264,140,59866,6,0,L|96:140,1,150,4|8,0:0|0:0,0:0:0:0:
60,212,60411,2,0,P|80:284|148:308,1,150,0|2,0:0|0:0,0:0:0:0:
152,216,60957,1,8,0:0:0:0:
224,272,61139,2,0,B|264:296|264:296|308:236|368:288,1,150,4|2,0:0|0:0,0:0:0:0:
420,336,61684,2,0,P|476:256|436:216,1,150,8|2,0:0|0:0,0:0:0:0:
428,140,62229,1,2,0:0:0:0:
372,72,62411,2,8,L|332:72,3,37.5,8|0|8|8,0:0|0:0|0:0|0:0,0:0:0:0:
288,72,62775,6,0,L|214:86,1,75,4|0,0:0|0:0,0:0:0:0:
124,104,63139,1,8,0:0:0:0:
44,64,63320,2,0,P|30:110|91:182,1,150,0|2,0:0|0:0,0:0:0:0:
180,204,63866,2,0,P|240:275|228:324,1,150,8|0,0:0|0:0,0:0:0:0:
144,288,64411,2,0,P|122:329|139:375,2,75,2|8|0,0:0|0:0|0:0,0:0:0:0:
228,324,64957,2,0,L|300:292,1,75,2|2,0:0|0:0,0:0:0:0:
426,268,65320,2,0,L|380:328,1,75,8|0,0:0|0:0,0:0:0:0:
496,212,65684,6,0,P|448:148|368:172,1,150,4|8,0:0|0:0,0:0:0:0:
340,84,66229,2,0,P|252:116|204:68,1,150,0|2,0:0|0:0,0:0:0:0:
124,100,66775,1,8,0:0:0:0:
80,180,66957,2,0,B|56:220|56:220|116:264|64:324,1,150,4|0,0:0|0:0,0:0:0:0:
164,332,67502,2,0,P|220:356|244:348,1,75,8|0,0:0|0:0,0:0:0:0:
320,344,67866,2,0,L|360:336,3,37.5,8|0|8|0,0:0|0:0|0:0|0:0,0:0:0:0:
400,320,68229,2,8,L|440:296,3,37.5,8|0|8|0,0:0|0:0|0:0|0:0,0:0:0:0:
460,264,68593,6,0,P|490:179|450:120,1,150,4|8,0:0|0:0,0:0:0:0:
398,59,69139,2,0,P|369:142|396:192,1,150,0|2,0:0|0:0,0:0:0:0:
288,140,69684,1,8,0:0:0:0:
228,72,69866,2,0,B|192:104|192:104|136:60|84:104,1,150,4|2,0:0|0:0,0:0:0:0:
136,176,70411,2,0,P|112:256|144:328,1,150,8|2,0:0|0:0,0:0:0:0:
204,256,70957,1,2,0:0:0:0:
216,344,71139,2,0,L|264:344,3,37.5,8|0|2|0,0:0|0:0|0:0|0:0,0:0:0:0:
292,344,71502,6,0,P|372:328|396:248,1,150,12|8,0:0|0:0,0:0:0:0:
404,180,72048,1,12,0:0:0:0:
244,96,72411,2,8,P|181:85|146:12,1,150,2|6,0:0|0:0,0:0:0:0:
96,184,73139,2,0,P|16:192|0:208,2,75,2|8|6,0:0|0:0|0:0,0:0:0:0:
4,340,73866,1,0,0:0:0:0:
84,296,74048,2,0,L|124:296,3,37.5,8|0|2|8,0:0|0:0|0:0|0:0,0:0:0:0:
168,296,74411,6,0,P|224:304|248:296,1,75,4|0,0:0|0:0,0:0:0:0:
328,280,74775,2,0,P|376:264|408:240,1,75,8|0,0:0|0:0,0:0:0:0:
432,168,75139,1,2,0:0:0:0:
436,80,75320,2,0,L|368:32,2,75,2|8|4,0:0|0:0|0:0,0:0:0:0:
356,124,75866,6,0,P|332:141|288:153,1,75,0|2,0:0|0:0,0:0:0:0:
220,93,76229,2,0,P|244:76|288:64,1,75,8|0,0:0|0:0,0:0:0:0:
140,64,76593,2,0,P|108:128|116:152,1,75,2|2,0:0|0:0,0:0:0:0:
64,250,76957,2,0,P|48:232|40:184,1,75,8|0,0:0|0:0,0:0:0:0:
144,296,77320,6,0,P|224:344|304:312,1,150,4|8,0:0|0:0,0:0:0:0:
352,288,77866,2,0,P|400:232|384:160,1,150,0|2,0:0|0:0,0:0:0:0:
296,152,78411,1,8,0:0:0:0:
320,64,78593,2,0,P|240:16|160:48,1,150,4|0,0:0|0:0,0:0:0:0:
116,80,79139,1,8,0:0:0:0:
156,160,79320,1,0,0:0:0:0:
64,164,79502,2,0,P|40:204|40:252,1,75,2|8,0:0|0:0,0:0:0:0:
72,316,79866,2,0,P|112:340|160:324,1,75,2|2,0:0|0:0,0:0:0:0:
224,304,80229,6,0,L|288:248,1,75,12|0,0:0|0:0,0:0:0:0:
368,196,80593,2,0,L|312:136,1,75,8|0,0:0|0:0,0:0:0:0:
280,44,80957,2,8,L|220:100,1,75,12|0,0:0|0:0,0:0:0:0:
132,144,81320,2,8,L|188:203,1,75,8|0,0:0|0:0,0:0:0:0:
272,256,81684,2,0,L|352:256,1,75,12|0,0:0|0:0,0:0:0:0:
348,164,82048,2,0,L|416:134,1,75,8|0,0:0|0:0,0:0:0:0:
400,44,82411,6,0,P|324:40|272:72,1,134.999995880127
256,192,83139,1,4,0:0:0:0:
256,192,83320,12,8,86048,0:0:0:0:
416,336,94775,6,0,P|440:288|432:240,1,75,2|0,0:0|0:0,0:0:0:0:
296,237,95139,2,0,P|300:244|356:276,1,75,2|0,0:0|0:0,0:0:0:0:
368,196,95502,2,0,P|354:110|289:80,1,150,2|2,0:0|0:0,0:0:0:0:
220,80,96048,1,0,0:0:0:0:
136,84,96229,2,0,P|80:108|64:140,1,75,2|0,0:0|0:0,0:0:0:0:
155,302,96593,2,0,P|172:240|140:164,1,150,2|2,0:0|0:0,0:0:0:0:
296,36,97320,1,2,0:0:0:0:
72,60,97684,6,0,P|48:108|56:156,1,75,2|0,0:0|0:0,0:0:0:0:
189,155,98048,2,0,P|184:148|128:116,1,75,2|0,0:0|0:0,0:0:0:0:
108,200,98411,2,0,P|156:272|228:272,1,150,2|2,0:0|0:0,0:0:0:0:
272,336,98957,1,0,0:0:0:0:
352,308,99139,2,0,P|408:284|424:252,1,75,2|0,0:0|0:0,0:0:0:0:
352,91,99502,2,0,P|320:156|348:224,1,150,2|2,0:0|0:0,0:0:0:0:
140,260,100229,1,2,0:0:0:0:
272,336,100411,5,0,0:0:0:0:
352,308,100593,2,0,P|436:305|474:221,1,150,2|2,0:0|0:0,0:0:0:0:
392,232,101139,2,0,P|389:147|305:109,1,150,0|0,0:0|0:0,0:0:0:0:
260,136,101684,1,2,0:0:0:0:
196,80,101866,2,0,B|128:68|128:68|125:76|125:76|44:61,1,150,0|0,0:0|0:0,0:0:0:0:
68,144,102411,1,2,0:0:0:0:
36,220,102593,2,0,P|22:283|81:337,1,150,0|0,0:0|0:0,0:0:0:0:
160,356,103139,1,2,0:0:0:0:
244,360,103320,5,0,0:0:0:0:
324,344,103502,2,0,P|385:323|403:245,1,150,2|2,0:0|0:0,0:0:0:0:
372,172,104048,1,8,0:0:0:0:
440,124,104229,2,0,L|408:100,3,37.5,2|0|0|0,0:0|0:0|0:0|0:0,0:0:0:0:
376,88,104593,2,0,L|328:72,3,37.5,2|0|0|0,0:0|0:0|0:0|0:0,0:0:0:0:
304,72,104957,5,8,0:0:0:0:
156,80,105320,1,8,0:0:0:0:
156,232,105684,2,8,P|105:226|71:203,1,75,8|8,0:0|0:0,0:0:0:0:
428,344,106411,6,0,L|352:316,1,75,4|0,0:0|0:0,0:0:0:0:
268,264,106775,2,0,L|338:238,1,75,8|0,0:0|0:0,0:0:0:0:
324,156,107139,1,2,0:0:0:0:
184,68,107502,2,0,P|136:52|88:52,1,75,8|4,0:0|0:0,0:0:0:0:
35,120,107866,2,0,P|68:132|108:132,1,75,0|2,0:0|0:0,0:0:0:0:
32,204,108229,2,0,P|48:288|112:312,1,150,8|2,0:0|0:0,0:0:0:0:
184,320,108775,1,2,0:0:0:0:
256,284,108957,1,8,0:0:0:0:
300,212,109139,1,0,0:0:0:0:
368,260,109320,6,0,P|385:218|372:172,1,75,4|0,0:0|0:0,0:0:0:0:
257,158,109684,2,0,P|273:198|300:212,1,75,8|0,0:0|0:0,0:0:0:0:
316,100,110048,2,0,P|236:76|180:116,1,150,2|8,0:0|0:0,0:0:0:0:
104,88,110593,2,0,P|104:152|108:158,1,75,4|0,0:0|0:0,0:0:0:0:
55,244,110957,2,0,P|119:244|124:240,1,75,2|8,0:0|0:0,0:0:0:0:
256,116,111502,5,0,0:0:0:0:
332,191,111684,1,2,0:0:0:0:
256,268,111866,1,8,0:0:0:0:
180,192,112048,1,0,0:0:0:0:
350,318,112229,6,0,P|271:374|230:332,1,150,4|8,0:0|0:0,0:0:0:0:
160,332,112775,2,0,B|107:285|107:285|104:268|104:268|48:216,1,150,0|2,0:0|0:0,0:0:0:0:
80,144,113320,1,8,0:0:0:0:
120,72,113502,2,0,P|227:57|258:104,1,150,4|2,0:0|0:0,0:0:0:0:
332,92,114048,1,8,0:0:0:0:
412,116,114229,2,0,P|465:183|440:243,1,150,0|2,0:0|0:0,0:0:0:0:
297,272,114775,2,0,L|372:272,1,75,8|0,0:0|0:0,0:0:0:0:
256,192,115139,5,4,0:0:0:0:
372,100,115502,1,8,0:0:0:0:
140,100,115866,1,2,0:0:0:0:
256,300,116229,1,8,0:0:0:0:
372,100,116593,1,4,0:0:0:0:
256,192,116775,12,4,118048,0:0:0:0:
336,288,118411,6,0,P|368:344|432:352,2,112.500004291535,0|8|0,0:0|0:0|0:0,0:0:0:0:
468,204,119502,1,0,0:0:0:0:
312,196,119866,1,2,0:0:0:0:
236,216,120048,2,0,P|180:224|124:188,1,112.500004291535,0|0,0:0|0:0,0:0:0:0:
152,120,120593,1,0,0:0:0:0:
28,44,120957,1,4,0:0:0:0:
56,200,121320,6,0,P|88:256|152:264,2,112.500004291535,0|8|0,0:0|0:0|0:0,0:0:0:0:
200,140,122411,1,4,0:0:0:0:
348,84,122775,2,0,L|412:84,1,56.2500021457673,8|2,0:0|0:0,0:0:0:0:
280,257,123320,6,0,L|220:212,1,75,2|8,0:0|0:0,0:0:0:0:
368,252,123684,2,0,P|317:336|249:336,1,150,6|2,0:0|0:0,0:0:0:0:
196,320,124229,2,0,P|116:284|64:308,1,150,8|2,0:0|0:0,0:0:0:0:
65,308,124957,1,8,0:0:0:0:
220,232,125320,6,0,L|295:232,1,75,4|0,0:0|0:0,0:0:0:0:
296,148,125684,2,0,L|221:148,1,75,8|4,0:0|0:0,0:0:0:0:
60,112,126229,2,0,P|84:64|116:48,2,75,2|8|0,0:0|0:0|0:0,0:0:0:0:
68,196,126775,6,0,L|116:268,1,75,12|0,0:0|0:0,0:0:0:0:
188,280,127139,1,8,0:0:0:0:
220,204,127320,2,0,P|300:220|332:300,1,150,6|2,0:0|0:0,0:0:0:0:
416,276,127866,1,8,0:0:0:0:
456,204,128048,2,0,P|464:116|400:76,1,150,4|2,0:0|0:0,0:0:0:0:
340,72,128593,1,8,0:0:0:0:
256,76,128775,1,0,0:0:0:0:
180,108,128957,2,0,L|100:156,1,75,2|2,0:0|0:0,0:0:0:0:
160,216,129320,2,0,L|225:179,1,75,8|0,0:0|0:0,0:0:0:0:
256,192,129684,12,0,130957,0:0:0:0:
168,72,131866,6,0,L|112:88,3,37.5,2|0|2|0,0:0|0:0|0:0|0:0,0:0:0:0:
100,104,132229,2,0,P|68:168|76:200,1,75,8|0,0:0|0:0,0:0:0:0:
64,260,132593,6,4,L|216:300,1,150,4|8,0:0|0:0,0:0:0:0:
296,316,133139,2,0,P|384:316|432:244,1,150,0|2,0:0|0:0,0:0:0:0:
368,204,133684,1,8,0:0:0:0:
456,180,133866,2,0,B|456:112|456:112|448:104|448:104|448:28,1,150,4|2,0:0|0:0,0:0:0:0:
360,24,134411,1,8,0:0:0:0:
272,32,134593,1,0,0:0:0:0:
184,52,134775,2,0,P|136:84|120:116,1,75,2|2,0:0|0:0,0:0:0:0:
79,233,135139,2,0,P|127:201|136:188,1,75,8|0,0:0|0:0,0:0:0:0:
36,312,135502,6,0,L|204:312,1,150,4|8,0:0|0:0,0:0:0:0:
272,344,136048,2,0,L|344:304,1,75,0|2,0:0|0:0,0:0:0:0:
451,258,136411,2,0,L|424:328,1,75,2|8,0:0|0:0,0:0:0:0:
396,184,136775,2,0,P|457:102|424:42,1,150,4|0,0:0|0:0,0:0:0:0:
360,96,137320,2,0,P|278:35|218:68,1,150,8|2,0:0|0:0,0:0:0:0:
152,72,137866,1,0,0:0:0:0:
108,152,138048,2,0,L|60:152,3,37.5,8|0|2|8,0:0|0:0|0:0|0:0,0:0:0:0:
24,152,138411,5,4,0:0:0:0:
32,244,138593,2,0,P|70:287|108:297,1,75,0|8,0:0|0:0,0:0:0:0:
172,312,138957,2,0,P|284:296|308:248,1,150,0|2,0:0|0:0,0:0:0:0:
388,248,139502,1,8,0:0:0:0:
444,176,139684,1,4,0:0:0:0:
452,88,139866,1,0,0:0:0:0:
301,37,140048,6,0,P|324:32|372:48,1,75,0|8,0:0|0:0,0:0:0:0:
328,124,140411,2,0,P|224:132|200:76,1,150,0|2,0:0|0:0,0:0:0:0:
120,80,140957,1,8,0:0:0:0:
40,120,141139,1,0,0:0:0:0:
92,192,141320,6,0,P|86:299|32:320,1,150,4|8,0:0|0:0,0:0:0:0:
12,240,141866,2,0,L|168:276,1,150,0|2,0:0|0:0,0:0:0:0:
248,292,142411,1,8,0:0:0:0:
336,284,142593,2,0,B|386:233|386:233|375:233|375:233|429:179,1,150,4|0,0:0|0:0,0:0:0:0:
428,96,143139,1,8,0:0:0:0:
372,24,143320,1,0,0:0:0:0:
280,24,143502,2,0,L|240:24,3,37.5,8|0|8|0,0:0|0:0|0:0|0:0,0:0:0:0:
204,24,143866,2,8,L|156:24,3,37.5,8|0|8|0,0:0|0:0|0:0|0:0,0:0:0:0:
128,24,144229,6,8,P|56:40|32:120,1,150,4|8,0:0|0:0,0:0:0:0:
96,168,144775,1,0,0:0:0:0:
44,244,144957,2,0,L|116:308,1,75,2|2,0:0|0:0,0:0:0:0:
184,332,145320,1,8,0:0:0:0:
272,344,145502,2,0,P|344:296|328:232,1,150,4|0,0:0|0:0,0:0:0:0:
408,188,146048,1,8,0:0:0:0:
428,100,146229,1,0,0:0:0:0:
360,40,146411,2,0,L|272:48,1,75,2|2,0:0|0:0,0:0:0:0:
132,64,146775,2,0,L|196:24,1,75,8|0,0:0|0:0,0:0:0:0:
44,44,147139,6,0,L|12:132,1,75,12|0,0:0|0:0,0:0:0:0:
64,192,147502,1,8,0:0:0:0:
64,192,147684,1,6,0:0:0:0:
160,344,148048,1,2,0:0:0:0:
252,348,148230,1,8,0:0:0:0:
340,324,148411,2,0,B|396:308|396:308|388:316|388:316|476:292,1,150,6|2,0:0|0:0,0:0:0:0:
436,208,148957,1,8,0:0:0:0:
476,128,149139,2,0,P|444:64|348:56,1,150,6|0,0:0|0:0,0:0:0:0:
284,48,149684,2,0,L|244:48,3,37.5,8|0|8|8,0:0|0:0|0:0|0:0,0:0:0:0:
200,48,150048,6,0,P|185:52|150:97,1,75,4|0,0:0|0:0,0:0:0:0:
68,128,150411,1,8,0:0:0:0:
68,220,150593,2,0,P|51:289|101:358,1,150,0|2,0:0|0:0,0:0:0:0:
180,368,151139,1,8,0:0:0:0:
268,360,151320,1,4,0:0:0:0:
352,324,151502,1,0,0:0:0:0:
424,268,151684,6,0,P|450:211|440:171,1,75,0|8,0:0|0:0,0:0:0:0:
452,112,152048,2,0,P|420:40|344:16,1,150,0|2,0:0|0:0,0:0:0:0:
360,104,152593,1,8,0:0:0:0:
272,112,152775,1,0,0:0:0:0:
184,136,152957,6,0,P|136:216|160:280,1,150,4|8,0:0|0:0,0:0:0:0:
72,312,153502,2,0,P|152:360|208:336,1,150,0|2,0:0|0:0,0:0:0:0:
260,276,154048,1,8,0:0:0:0:
348,300,154229,2,0,P|412:244|396:172,1,150,4|0,0:0|0:0,0:0:0:0:
484,140,154775,1,8,0:0:0:0:
440,60,154957,1,0,0:0:0:0:
348,64,155139,2,0,L|252:72,1,75,2|2,0:0|0:0,0:0:0:0:
221,162,155502,2,0,L|296:156,1,75,8|0,0:0|0:0,0:0:0:0:
132,172,155866,6,0,L|192:232,1,75,12|0,0:0|0:0,0:0:0:0:
260,312,156229,2,0,L|320:252,1,75,8|0,0:0|0:0,0:0:0:0:
416,216,156593,2,0,L|356:156,1,75,12|0,0:0|0:0,0:0:0:0:
308,64,156957,2,0,L|248:124,1,75,8|0,0:0|0:0,0:0:0:0:
208,220,157320,2,0,L|120:220,1,75,12|0,0:0|0:0,0:0:0:0:
124,128,157684,2,0,L|53:102,1,75,8|0,0:0|0:0,0:0:0:0:
120,40,158048,6,0,P|188:40|244:100,1,134.999995880127
256,192,158775,1,4,0:0:0:0:
256,192,158957,12,0,161684,0:0:0:0:
168,72,170775,6,0,P|80:80|64:144,1,150,8|2,0:0|0:0,0:0:0:0:
216,192,171502,1,8,0:0:0:0:
61,255,171866,2,0,P|80:304|168:312,1,150,0|8,0:0|0:0,0:0:0:0:
244,280,172411,2,0,L|396:312,1,150,4|2,0:0|0:0,0:0:0:0:
420,232,172957,1,8,0:0:0:0:
404,152,173139,1,0,0:0:0:0:
344,96,173320,6,0,L|256:120,1,75,0|0,0:0|0:0,0:0:0:0:
172,156,173684,2,0,L|242:182,1,75,8|0,0:0|0:0,0:0:0:0:
116,96,174048,2,0,L|28:120,1,75,2|2,0:0|0:0,0:0:0:0:
44,280,174411,1,8,0:0:0:0:
16,200,174593,2,0,P|68:196|136:280,1,150,6|2,0:0|0:0,0:0:0:0:
208,300,175139,1,8,0:0:0:0:
292,296,175320,1,0,0:0:0:0:
368,260,175502,2,0,P|377:241|374:188,1,75,2|2,0:0|0:0,0:0:0:0:
362,106,175866,2,8,P|331:116|302:146,1,75,8|0,0:0|0:0,0:0:0:0:
184,68,176229,6,0,L|104:112,1,75,12|2,0:0|0:0,0:0:0:0:
176,192,176593,1,2,0:0:0:0:
120,280,176775,2,0,L|185:316,1,75,8|2,0:0|0:0,0:0:0:0:
256,236,177139,1,2,0:0:0:0:
326,316,177320,2,0,L|392:280,1,75,8|2,0:0|0:0,0:0:0:0:
336,192,177684,1,2,0:0:0:0:
392,104,177866,2,0,L|326:67,1,75,8|2,0:0|0:0,0:0:0:0:
256,148,178229,1,2,0:0:0:0:
160,104,178411,2,0,L|80:124,1,75,8|2,0:0|0:0,0:0:0:0:
8,192,178775,2,0,L|77:223,1,75,8|2,0:0|0:0,0:0:0:0:
160,212,179139,6,0,L|248:212,1,75,6|0,0:0|0:0,0:0:0:0:
316,212,179502,2,0,L|416:212,1,75,8|0,0:0|0:0,0:0:0:0:
456,280,179866,2,0,L|416:296,3,37.5,2|0|0|8,0:0|0:0|0:0|0:0,0:0:0:0:
380,296,180229,2,0,L|336:300,3,37.5,8|0|4|0,0:0|0:0|0:0|0:0,0:0:0:0:
300,300,180593,2,0,L|260:300,3,37.5,2|0|8|0,0:0|0:0|0:0|0:0,0:0:0:0:
220,296,180957,2,0,B|212:300|212:300|208:288|208:288|200:296|200:296|196:284|196:284|188:292|188:292|184:280|184:280|176:288|176:288|172:276|172:276|164:284|164:284|160:272|160:272|152:280|152:280|148:268|148:268|140:276|140:276|136:264|136:264|128:272|128:272|124:260|124:260|116:268|116:268|112:256|112:256|104:264|104:264|100:252|100:252|92:260|92:260|88:248|88:248|80:256|80:256|76:244|76:244|68:252|68:252|64:240|64:240,1,300,8|0,0:0|0:0,0:0:0:0:
68,80,182048,5,4,0:0:0:0:
364,104,187139,5,8,0:0:0:0:
148,104,187502,1,8,0:0:0:0:
256,296,187866,1,8,0:0:0:0:
180,192,188775,6,8,L|332:192,1,150
364,280,190048,5,8,0:0:0:0:
148,280,190411,1,12,0:0:0:0:
256,124,190775,6,0,P|172:72|120:116,1,150,4|8,0:0|0:0,0:0:0:0:
60,128,191320,2,0,P|144:180|179:160,1,150,0|2,0:0|0:0,0:0:0:0:
200,240,191866,1,8,0:0:0:0:
164,316,192048,2,0,L|324:316,1,150,4|0,0:0|0:0,0:0:0:0:
396,186,192593,2,0,L|384:260,1,75,0|0,0:0|0:0,0:0:0:0:
408,96,192957,2,0,L|368:96,3,37.5,2|0|8|8,0:0|0:0|0:0|0:0,0:0:0:0:
328,96,193320,2,0,L|280:96,3,37.5,2|8|8|8,0:0|0:0|0:0|0:0,0:0:0:0:
248,96,193684,6,8,P|157:96|112:152,1,150,4|8,0:0|0:0,0:0:0:0:
28,148,194229,2,0,P|4:235|47:293,1,150,0|2,0:0|0:0,0:0:0:0:
116,312,194775,1,8,0:0:0:0:
204,336,194957,2,0,P|288:330|317:268,1,150,4|2,0:0|0:0,0:0:0:0:
332,192,195502,1,8,0:0:0:0:
400,136,195684,1,0,0:0:0:0:
456,208,195866,2,0,P|488:172|480:120,1,75,2|2,0:0|0:0,0:0:0:0:
392,34,196229,2,8,P|434:41|460:60,1,75,8|0,0:0|0:0,0:0:0:0:
316,84,196593,6,8,L|148:84,1,150,6|8,0:0|0:0,0:0:0:0:
192,172,197139,1,6,0:0:0:0:
36,264,197502,2,8,P|61:329|133:345,1,150,0|6,0:0|0:0,0:0:0:0:
192,172,198229,2,0,P|112:180|96:196,2,75,2|8|4,0:0|0:0|0:0,0:0:0:0:
228,348,198957,1,2,0:0:0:0:
320,348,199139,2,0,L|360:348,3,37.5,8|0|8|8,0:0|0:0|0:0|0:0,0:0:0:0:
404,348,199502,6,0,P|458:331|476:314,1,75,4|0,0:0|0:0,0:0:0:0:
455,181,199866,2,0,P|448:212|420:244,1,75,8|0,0:0|0:0,0:0:0:0:
432,96,200229,1,2,0:0:0:0:
360,40,200411,2,0,P|328:24|289:25,2,75,8|8|4,0:0|0:0|0:0,0:0:0:0:
304,112,200957,6,0,L|216:128,1,75,0|2,0:0|0:0,0:0:0:0:
108,85,201320,2,0,L|176:52,1,75,8|0,0:0|0:0,0:0:0:0:
96,176,201684,1,2,0:0:0:0:
60,260,201866,2,0,P|28:232|16:184,2,75,2|8|0,0:0|0:0|0:0,0:0:0:0:
148,284,202411,6,0,L|236:268,1,75,4|0,0:0|0:0,0:0:0:0:
363,286,202775,2,0,L|296:320,1,75,8|0,0:0|0:0,0:0:0:0:
392,200,203139,1,2,0:0:0:0:
444,128,203320,2,0,P|468:152|480:196,2,75,2|8|4,0:0|0:0|0:0,0:0:0:0:
384,60,203866,6,0,P|344:48|304:60,1,75,0|0,0:0|0:0,0:0:0:0:
224,76,204229,2,0,P|183:103|174:150,1,75,8|0,0:0|0:0,0:0:0:0:
100,180,204593,1,0,0:0:0:0:
92,267,204775,2,0,P|56:260|28:236,2,75,2|8|8,0:0|0:0|0:0,0:0:0:0:
164,324,205320,5,4,0:0:0:0:
248,292,205502,2,0,P|288:316|336:316,1,75,0|8,0:0|0:0,0:0:0:0:
404,296,205866,2,0,P|476:224|476:168,1,150,0|2,0:0|0:0,0:0:0:0:
432,104,206411,1,8,0:0:0:0:
352,64,206593,1,4,0:0:0:0:
260,64,206775,5,0,0:0:0:0:
172,84,206957,2,0,P|148:116|148:156,1,75,2|8,0:0|0:0,0:0:0:0:
224,192,207320,2,0,P|176:272|104:272,1,150,4|2,0:0|0:0,0:0:0:0:
84,360,207866,2,0,L|164:360,1,75,8|0,0:0|0:0,0:0:0:0:
248,364,208229,6,0,P|344:324|360:260,1,150,4|8,0:0|0:0,0:0:0:0:
448,276,208775,2,0,P|433:239|337:199,1,150,0|2,0:0|0:0,0:0:0:0:
316,112,209320,1,8,0:0:0:0:
300,24,209502,2,0,L|140:24,1,150,4|2,0:0|0:0,0:0:0:0:
72,68,210048,1,8,0:0:0:0:
60,156,210229,1,0,0:0:0:0:
100,236,210411,2,0,P|130:271|182:286,1,75,2|8,0:0|0:0,0:0:0:0:
305,226,210775,2,0,P|280:235|232:236,1,75,2|8,0:0|0:0,0:0:0:0:
388,188,211139,6,0,L|468:164,1,75,12|0,0:0|0:0,0:0:0:0:
348,128,211502,2,0,L|420:64,1,75,8|0,0:0|0:0,0:0:0:0:
292,84,211866,2,0,L|324:4,1,75,12|0,0:0|0:0,0:0:0:0:
220,84,212230,2,0,L|188:4,1,75,8|0,0:0|0:0,0:0:0:0:
164,128,212593,2,0,L|92:64,1,75,12|0,0:0|0:0,0:0:0:0:
124,188,212957,2,0,L|44:164,1,75,8|0,0:0|0:0,0:0:0:0:
194,259,213320,6,0,P|246:283|328:248,1,134.999995880127
256,192,214048,1,0,0:0:0:0:
256,192,214229,12,8,216593,0:0:0:0:
304,272,216957,6,0,P|343:242|400:240,1,75,12|2,0:0|0:0,0:0:0:0:
436,192,217320,1,2,0:0:0:0:
367,147,217502,2,0,P|343:142|304:112,1,75,8|2,0:0|0:0,0:0:0:0:
256,44,217866,1,2,0:0:0:0:
208,112,218048,2,0,P|169:142|144:147,1,75,8|2,0:0|0:0,0:0:0:0:
76,192,218411,1,2,0:0:0:0:
144,236,218593,2,0,P|169:242|208:272,1,75,8|2,0:0|0:0,0:0:0:0:
256,340,218957,1,2,0:0:0:0:
340,328,219139,2,0,P|404:286|403:198,1,150,8|8,0:0|0:0,0:0:0:0:
244,88,219866,6,0,P|272:86|314:105,1,75,12|2,0:0|0:0,0:0:0:0:
256,192,220229,1,2,0:0:0:0:
268,296,220411,2,0,P|239:297|197:278,1,75,8|2,0:0|0:0,0:0:0:0:
256,192,220775,1,2,0:0:0:0:
360,180,220957,2,0,P|361:208|342:250,1,75,8|2,0:0|0:0,0:0:0:0:
256,192,221320,1,2,0:0:0:0:
152,204,221502,2,0,P|150:175|169:133,1,75,8|2,0:0|0:0,0:0:0:0:
256,192,221866,1,2,0:0:0:0:
352,240,222048,2,0,P|388:228|416:204,2,75,8|0|8,0:0|0:0|0:0,0:0:0:0:
164,312,222775,6,0,P|138:272|139:227,1,75,12|2,0:0|0:0,0:0:0:0:
136,164,223139,1,2,0:0:0:0:
136,80,223320,2,0,P|177:54|222:55,1,75,8|2,0:0|0:0,0:0:0:0:
284,56,223684,1,2,0:0:0:0:
368,60,223866,2,0,P|395:101|394:146,1,75,8|2,0:0|0:0,0:0:0:0:
400,208,224229,1,2,0:0:0:0:
400,292,224411,2,0,P|360:319|315:318,1,75,8|2,0:0|0:0,0:0:0:0:
252,320,224775,1,2,0:0:0:0:
164,316,224957,2,0,P|128:288|114:241,1,75,8|2,0:0|0:0,0:0:0:0:
116,172,225320,1,8,0:0:0:0:
276,112,225684,6,0,P|328:144|328:232,1,150,12|8,0:0|0:0,0:0:0:0:
236,272,226229,2,0,P|184:240|180:152,1,150,12|2,0:0|0:0,0:0:0:0:
256,192,226775,5,4,0:0:0:0:
256,192,226957,12,0,232957,0:0:0:0:
