osu file format v13

[General]
AudioFilename: ChouCho - DreamRiser.mp3
AudioLeadIn: 500
PreviewTime: 57164
Countdown: 0
SampleSet: Soft
StackLeniency: 0.7
Mode: 0
LetterboxInBreaks: 0
WidescreenStoryboard: 0

[Editor]
DistanceSpacing: 1
BeatDivisor: 4
GridSize: 4
TimelineZoom: 1

[Metadata]
Title:DreamRiser (TV size)
TitleUnicode:DreamRiser (TV size)
Artist:ChouCho
ArtistUnicode:ChouCho
Creator:IamKwaN
Version:Normal
Source:GIRLS und PANZER
Tags:Opening KwaN ガールズ&パンツァー ガルパン Garuzu ando Pantsa Actas Sensha-dou ちょうちょ
BeatmapID:538929
BeatmapSetID:232051

[Difficulty]
HPDrainRate:3
CircleSize:3.5
OverallDifficulty:4
ApproachRate:5
SliderMultiplier:1.2
SliderTickRate:1

[Events]
//Background and Video events
Video,91,"Video.avi"
0,0,"Background.jpg",0,0
//Break Periods
//Storyboard Layer 0 (Background)
//Storyboard Layer 1 (Fail)
//Storyboard Layer 2 (Pass)
//Storyboard Layer 3 (Foreground)
//Storyboard Sound Samples
//Background Colour Transformations
3,100,163,162,255

[TimingPoints]
2074,363.636363636364,4,2,1,60,1,0
10801,-100,4,2,1,70,0,0
19528,-100,4,2,1,50,0,0
20801,-100,4,2,1,30,0,0
20983,-100,4,2,1,50,0,0
23710,-100,4,2,1,30,0,0
23801,-100,4,2,1,50,0,0
24437,-100,4,2,1,30,0,0
24528,-100,4,2,1,50,0,0
26619,-100,4,2,1,40,0,0
26710,-100,4,2,1,50,0,0
28983,-100,4,2,1,40,0,0
29074,-100,4,2,1,60,0,0
42801,-133.333333333333,4,2,1,40,0,0
44255,-133.333333333333,4,2,1,25,0,0
44437,-133.333333333333,4,2,1,40,0,0
45346,-133.333333333333,4,2,1,25,0,0
45528,-133.333333333333,4,2,1,40,0,0
46074,-133.333333333333,4,2,1,25,0,0
46437,-133.333333333333,4,2,1,40,0,0
47710,-133.333333333333,4,2,1,60,0,0
48437,-100,4,2,1,60,0,0
51528,-100,4,2,1,70,0,0
52801,-100,4,2,1,60,0,0
55892,-100,4,2,2,60,0,0
57346,-100,4,2,1,80,0,1
68892,-100,4,2,1,80,0,0
68983,-100,4,2,1,80,0,1
71892,-100,4,2,1,90,0,1
74801,-100,4,2,1,80,0,1
78437,-100,4,2,1,60,0,1
78619,-100,4,2,1,80,0,1
82437,-100,4,2,1,80,0,0
83528,-100,4,2,1,60,0,1
83619,-100,4,2,1,60,0,0
88255,-100,4,2,1,50,0,0
88983,-100,4,2,1,40,0,0
89710,-100,4,2,1,20,0,0
90255,-100,4,2,1,5,0,0

[Colours]
Combo1 : 192,192,192
Combo2 : 244,143,68
Combo3 : 66,221,121
Combo4 : 88,148,239
Combo5 : 104,94,94

[HitObjects]
339,89,2074,6,0,L|399:97,1,60,8|8,0:0|0:0,0:0:0:0:
427,274,2801,2,0,L|309:290,1,120,8|2,0:0|0:0,0:0:0:0:
248,294,3346,2,0,P|188:276|134:297,1,120,4|2,0:0|0:0,0:0:0:0:
81,321,3892,1,8,0:0:0:0:
81,321,4074,2,0,P|104:228|50:175,1,180,4|8,0:0|0:0,0:0:0:0:
117,75,4983,6,0,L|177:83,1,60,8|8,0:0|0:0,0:0:0:0:
327,181,5710,2,0,L|445:165,1,120,8|8,0:3|0:0,0:0:0:0:
492,202,6255,2,0,P|504:260|478:314,1,120,4|2,0:0|0:0,0:0:0:0:
430,349,6801,1,8,0:0:0:0:
430,349,6983,2,0,B|309:336|309:336|253:353,1,180,4|8,0:0|0:0,0:0:0:0:
134,337,7892,6,0,P|156:284|140:225,1,120,4|8,0:0|0:0,0:0:0:0:
24,193,8619,2,0,P|2:140|18:81,1,120,0|8,0:0|0:0,0:0:0:0:
132,47,9346,2,0,B|207:53|207:53|250:38,1,120,4|8,0:0|0:0,0:0:0:0:
307,22,9892,2,0,P|365:16|418:44,1,120,4|2,0:0|0:0,0:0:0:0:
467,78,10437,1,8,0:0:0:0:
469,198,10801,38,0,B|484:273|434:315|434:315|381:324,2,180,8|8|8,0:0|0:0|0:0,0:0:0:0:
352,227,12255,1,2,0:0:0:0:
352,227,12437,2,0,P|293:223|243:257,1,120,8|2,0:0|0:0,0:0:0:0:
202,299,12983,1,8,0:0:0:0:
87,263,13346,1,4,1:2:0:0:
55,147,13710,6,0,B|21:95|45:51|45:51|85:60|118:33,2,180,12|8|8,0:0|0:0|0:0,0:0:0:0:
175,149,15164,1,0,0:0:0:0:
175,149,15346,2,0,P|235:151|276:112,1,120,8|2,0:0|0:0,0:0:0:0:
310,62,15892,1,8,0:0:0:0:
425,93,16255,1,8,0:0:0:0:
420,213,16619,6,0,B|449:275|416:337|416:337|463:318,2,180,8|8|8,0:0|0:0|0:0,0:0:0:0:
370,178,17892,2,0,P|310:195|273:237,1,120,4|2,0:0|0:0,0:0:0:0:
224,272,18437,1,8,0:0:0:0:
224,272,18619,2,0,B|160:284|160:284|126:227|62:248,1,180,4|8,0:0|0:0,0:0:0:0:
34,131,19528,38,0,P|18:74|34:15,1,120,2|2,0:0|0:0,0:0:0:0:
141,72,20255,1,2,0:0:0:0:
256,38,20619,2,0,L|315:46,1,60,2|2,0:0|0:1,0:0:0:0:
375,37,20983,1,2,0:0:0:0:
469,111,21346,2,0,L|457:231,1,120,2|2,0:0|0:0,0:0:0:0:
387,328,22074,1,2,0:0:0:0:
267,336,22437,6,0,P|210:352|153:336,1,120,2|2,0:0|0:0,0:0:0:0:
58,262,23164,1,2,0:0:0:0:
40,143,23528,2,0,L|49:82,1,60,2|2,0:0|0:1,0:0:0:0:
88,38,23892,1,2,0:0:0:0:
203,68,24255,2,0,P|206:38|200:4,2,60,2|2|2,0:0|0:1|0:0,0:0:0:0:
291,150,24983,2,0,P|319:141|344:121,1,60,2|2,0:0|0:0,0:0:0:0:
383,79,25346,6,0,B|459:62|459:62|497:78,1,120,2|2,0:0|0:0,0:0:0:0:
459,192,26074,1,2,0:0:0:0:
497,305,26437,2,0,L|439:322,1,60,2|2,0:0|0:1,0:0:0:0:
383,305,26801,1,2,0:0:0:0:
265,328,27164,2,0,P|205:305|154:321,1,120,2|2,0:0|0:0,0:0:0:0:
50,260,27892,1,2,0:0:0:0:
52,140,28255,38,0,L|64:18,1,120,2|2,0:0|0:0,0:0:0:0:
181,46,28983,2,0,L|192:165,1,120,2|2,0:1|0:0,0:0:0:0:
233,209,29528,1,0,0:0:0:0:
233,209,29710,2,0,P|289:220|342:190,1,120,8|8,0:0|0:3,0:0:0:0:
387,151,30255,1,2,0:0:0:0:
387,151,30437,2,0,L|446:156,1,60,8|8,0:0|0:0,0:0:0:0:
391,327,31164,6,0,L|269:337,1,120,4|8,0:0|0:0,0:0:0:0:
156,299,31892,2,0,L|96:304,2,60,2|2|8,0:0|0:0|0:0,0:0:0:0:
194,253,32437,1,0,0:0:0:0:
194,253,32619,2,0,P|219:202|198:145,1,120,0|8,0:0|0:0,0:0:0:0:
78,142,33346,2,0,P|75:113|79:79,1,60,2|2,0:0|0:0,0:0:0:0:
112,32,33710,1,8,0:0:0:0:
232,34,34074,6,0,B|303:59|303:59|347:47,1,120,0|8,0:0|0:0,0:0:0:0:
424,138,34801,2,0,L|484:142,2,60,2|2|8,0:0|0:0|0:0,0:0:0:0:
376,174,35346,1,2,0:0:0:0:
378,294,35710,1,2,0:0:0:0:
378,294,35892,2,0,P|437:305|493:282,2,120,8|0|8,0:0|0:0|0:0,0:0:0:0:
260,270,36983,38,0,B|202:256|202:256|167:269|159:298,1,120,2|8,0:0|0:0,0:0:0:0:
40,299,37710,2,0,P|39:326|32:358,2,60,2|2|8,0:0|0:0|0:0,0:0:0:0:
43,239,38255,1,2,0:0:0:0:
115,143,38619,1,2,0:0:0:0:
115,143,38801,2,0,P|107:84|123:26,2,120,8|2|8,0:0|0:0|0:0,0:0:0:0:
200,227,39892,5,2,0:0:0:0:
318,245,40255,1,8,0:0:0:0:
423,188,40619,1,2,0:0:0:0:
397,70,40983,1,8,0:0:0:0:
423,188,41346,2,0,L|411:311,1,120,4|8,0:0|0:0,0:0:0:0:
429,365,41892,2,0,P|347:320|268:349,1,180,4|8,0:0|0:0,0:0:0:0:
154,297,42801,22,0,L|61:304,1,90.0000034332277,4|0,0:0|0:0,0:0:0:0:
26,222,43528,2,0,P|19:178|31:134,1,90.0000034332277,8|0,0:0|0:0,0:0:0:0:
77,57,44255,1,2,0:1:0:0:
77,57,44437,2,0,B|120:69|120:69|166:65,1,90.0000034332277,8|2,0:0|0:0,0:0:0:0:
209,63,44983,1,8,0:0:0:0:
298,59,45346,2,0,P|304:33|301:10,2,45.0000017166138,2|0|2,0:1|0:0|0:0,0:0:0:0:
341,138,46074,5,2,0:1:0:0:
429,121,46437,1,8,0:0:0:0:
446,209,46801,1,0,0:0:0:0:
394,282,47164,2,0,L|305:288,1,90.0000034332277,2|8,0:1|0:0,0:0:0:0:
258,290,47710,1,4,0:0:0:0:
178,333,48074,2,0,P|156:329|131:335,1,45.0000017166138,2|8,0:0|0:0,0:0:0:0:
88,340,48437,38,0,P|96:278|64:234,1,120,4|2,0:0|0:0,0:0:0:0:
19,193,48983,1,8,0:0:0:0:
14,73,49346,1,2,0:0:0:0:
127,33,49710,1,8,0:0:0:0:
234,86,50074,2,0,B|280:100|280:100|319:98|350:78,1,120,4|8,0:0|0:0,0:0:0:0:
395,43,50619,2,0,P|488:42|498:117,1,180,12|8,0:0|0:0,0:0:0:0:
501,230,51528,38,0,P|461:277|460:332,1,120,4|8,0:0|0:0,0:0:0:0:
422,380,52074,1,6,0:0:0:0:
319,318,52437,2,0,B|259:320,1,60,2|8,0:0|0:0,0:0:0:0:
199,327,52801,2,0,P|119:345|64:275,1,180,4|8,0:0|0:0,0:0:0:0:
29,160,53710,2,0,P|20:104|44:45,1,120,10|8,0:0|0:0,0:0:0:0:
140,116,54437,6,0,P|226:114|267:39,2,180,12|12|8,0:0|0:0|0:0,0:0:0:0:
111,232,55892,1,2,0:0:0:0:
196,315,56255,1,2,0:0:0:0:
316,315,56619,1,2,0:0:0:0:
401,232,56983,1,2,0:0:0:0:
401,232,57346,6,0,P|423:179|402:121,1,120,4|8,0:0|0:0,0:0:0:0:
357,82,57892,2,0,B|303:89|303:89|254:40|188:73,1,180,0|8,0:0|0:0,0:0:0:0:
132,95,58619,1,6,0:0:0:0:
85,205,58983,1,2,0:0:0:0:
85,205,59164,2,0,L|75:324,2,120,8|2|8,0:0|0:0|0:0,0:0:0:0:
188,265,60255,38,0,P|241:278|296:244,1,120,6|8,0:0|0:0,0:0:0:0:
339,205,60801,2,0,B|409:188|472:231|472:231|457:212|458:189,1,180,0|8,0:0|0:0,0:0:0:0:
472,135,61528,1,6,0:0:0:0:
406,34,61892,1,2,0:0:0:0:
406,34,62074,2,0,L|286:45,1,120,8|0,0:0|0:0,0:0:0:0:
174,88,62801,2,0,P|167:60|167:27,2,60,8|8|2,0:0|0:0|0:0,0:0:0:0:
56,111,63528,6,0,L|62:232,1,120,8|2,0:0|0:0,0:0:0:0:
102,275,64074,2,0,L|104:334,1,60,2|8,0:0|0:0,0:0:0:0:
151,372,64437,1,4,0:0:0:0:
262,328,64801,1,2,0:0:0:0:
262,328,64983,2,0,B|334:316|334:316|378:334,1,120,8|0,0:0|0:0,0:0:0:0:
437,331,65528,2,0,L|497:322,1,60,2|8,0:0|0:0,0:0:0:0:
458,208,66074,6,0,P|483:159|468:98,1,120,6|8,0:0|0:0,0:0:0:0:
348,94,66801,2,0,P|345:65|351:31,2,60,2|2|8,0:0|0:0|0:0,0:0:0:0:
381,145,67346,2,0,P|295:126|226:178,1,180,6|8,0:0|0:0,0:0:0:0:
151,83,68255,2,0,L|30:83,1,120,2|8,0:0|0:0,0:0:0:0:
44,203,68983,38,0,P|27:262|45:315,1,120,4|8,0:0|0:0,0:0:0:0:
100,340,69528,2,0,B|184:367|184:313|277:340,1,180,0|8,0:0|0:0,0:0:0:0:
334,353,70255,1,6,0:0:0:0:
424,273,70619,1,2,0:0:0:0:
424,273,70801,2,0,P|445:224|436:159,2,120,8|2|8,0:0|0:0|0:0,0:0:0:0:
324,205,71892,6,0,L|204:217,1,120,4|8,0:0|0:0,0:0:0:0:
183,273,72437,2,0,P|126:279|84:323,1,120,6|2,0:0|0:0,0:0:0:0:
41,210,73164,2,0,L|51:90,1,120,6|2,0:0|0:0,0:0:0:0:
83,39,73710,1,8,0:0:0:0:
83,39,73892,2,0,B|113:19|152:23|152:23|188:68|250:48,1,180,6|8,0:0|0:0,0:0:0:0:
364,82,74801,6,0,B|439:78|439:78|477:102,1,120,6|8,0:0|0:0,0:0:0:0:
481,221,75528,2,0,L|487:280,2,60,2|2|8,0:0|0:0|0:0,0:0:0:0:
425,198,76074,1,6,0:0:0:0:
351,292,76437,1,2,0:0:0:0:
351,292,76619,2,0,B|359:335|359:335|399:353|444:347,2,120,8|0|8,0:0|0:0|0:0,0:0:0:0:
256,218,77710,37,4,0:0:0:0:
161,292,78074,2,0,B|153:335|153:335|113:353|68:347,2,120,8|8|8,0:0|0:3|0:0,0:0:0:0:
159,231,78983,2,0,B|151:174|151:174|205:140|191:66,1,180,6|8,0:0|0:0,0:0:0:0:
306,32,79892,2,0,L|425:43,1,120,6|2,0:0|0:0,0:0:0:0:
470,154,80619,5,12,0:0:0:0:
470,154,80983,2,0,P|477:211|455:274,1,120,8|8,0:0|0:0,0:0:0:0:
358,201,81710,1,8,0:0:0:0:
358,201,82074,2,0,P|332:252|280:293,1,120,8|8,0:0|0:0,0:0:0:0:
284,291,83528,6,0,L|102:272,1,180,12|8,0:0|0:0,0:0:0:0:
6,121,84619,2,0,L|125:108,1,120,8|2,0:0|0:0,0:0:0:0:
182,90,85164,2,0,P|239:112|294:88,1,120,8|2,0:0|0:0,0:0:0:0:
340,56,85710,1,8,0:0:0:0:
410,152,86074,1,8,0:0:0:0:
373,266,86437,38,0,B|446:287|492:241|492:241|506:189,2,180,6|6|12,0:0|0:0|0:0,0:0:0:0:
256,192,87710,12,0,90255,0:0:0:0:
