osu file format v14

[General]
AudioFilename: optc.mp3
AudioLeadIn: 0
PreviewTime: 65780
Countdown: 0
SampleSet: Soft
StackLeniency: 0.7
Mode: 0
LetterboxInBreaks: 0
WidescreenStoryboard: 0

[Editor]
Bookmarks: 11622,21727,41938,67201
DistanceSpacing: 1
BeatDivisor: 4
GridSize: 4
TimelineZoom: 1.5

[Metadata]
Title:BLESS YoUr NAME
TitleUnicode:BLESS YoUr NAME
Artist:ChouCho
ArtistUnicode:ChouCho
Creator:Shad0w1and
Version:Normal
Source:ハイスクールD×D BorN
Tags:highschool high school dxd opening ちょうちょ m1223961117 DreaM117er
BeatmapID:674878
BeatmapSetID:300612

[Difficulty]
HPDrainRate:2
CircleSize:3
OverallDifficulty:3.5
ApproachRate:4
SliderMultiplier:0.9
SliderTickRate:1

[Events]
//Background and Video events
Video,0,"optc.flv"
0,0,"BG.jpg",0,0
//Break Periods
//Storyboard Layer 0 (Background)
//Storyboard Layer 1 (Fail)
//Storyboard Layer 2 (Pass)
//Storyboard Layer 3 (Foreground)
//Storyboard Sound Samples

[TimingPoints]
1517,315.789473684211,4,2,1,60,1,0
67201,-100,4,2,1,60,0,1
87411,-100,4,2,1,60,0,0

[Colours]
Combo1 : 250,225,94
Combo2 : 231,34,43
Combo3 : 153,88,174
Combo4 : 245,44,145
Combo5 : 245,224,180
Combo6 : 72,72,108
Combo7 : 220,220,220
Combo8 : 101,69,51

[HitObjects]
392,32,1517,5,2,1:3:0:0:
404,120,1832,2,0,P|416:164|400:224,1,90,2|2,0:3|0:3,0:0:0:0:
380,292,2464,1,2,0:3:0:0:
319,225,2780,86,0,P|235:189|155:225,1,180,2|2,1:3|0:3,0:0:0:0:
107,296,3727,1,2,0:3:0:0:
175,353,4043,102,0,L|271:353,1,90,2|2,1:3|0:3,0:0:0:0:
342,306,4674,2,0,L|451:305,1,90,2|2,0:3|0:3,0:0:0:0:
457,268,5148,1,2,0:3:0:0:
454,177,5464,6,0,P|444:120|350:51,1,180,2|2,0:3|0:3,0:0:0:0:
214,61,6569,22,0,P|190:116|226:198,1,135,2|2,1:3|0:3,0:0:0:0:
279,124,7359,1,0,0:0:0:0:
303,210,7674,2,0,P|365:136|296:38,1,225,2|2,1:3|0:3,0:0:0:0:
214,61,8780,1,2,0:3:0:0:
171,139,9095,6,0,L|71:139,1,90,2|2,1:3|0:3,0:0:0:0:
35,136,9569,2,0,B|23:92|23:92|35:36,2,90,2|2|2,0:3|0:3|1:3,0:0:0:0:
139,342,10990,1,2,0:3:0:0:
256,192,11622,12,2,15253,1:3:0:0:
164,128,16674,6,0,P|64:230|160:338,1,315,2|2,1:3|1:3,0:0:0:0:
318,354,19201,70,0,L|318:309,1,45,2|2,0:3|0:3,0:0:0:0:
231,282,19674,2,0,L|231:237,1,45,2|2,0:3|0:3,0:0:0:0:
320,223,20148,2,0,L|320:167,1,45,2|2,0:3|0:3,0:0:0:0:
234,148,20622,2,0,L|234:103,1,45,2|2,0:3|0:3,0:0:0:0:
323,90,21095,2,0,L|323:45,1,45,2|2,0:3|0:3,0:0:0:0:
394,170,21727,102,0,B|394:258|394:258|366:299,1,135,2|2,0:3|0:3,0:0:0:0:
274,297,22517,1,2,0:3:0:0:
192,264,22832,2,0,L|192:156,1,90,2|2,0:3|0:3,0:3:0:0:
192,84,23464,1,2,0:3:0:0:
284,84,23780,1,2,0:3:0:0:
416,100,24253,86,0,P|414:284|272:276,1,360,2|2,0:3|0:3,0:0:0:0:
97,277,26148,2,0,P|105:231|97:179,1,90,2|2,0:3|0:3,0:0:0:0:
55,109,26780,6,0,P|98:99|144:111,1,90,2|2,0:3|0:3,0:0:0:0:
176,138,27253,2,0,P|219:148|263:137,1,90,2|2,0:3|0:3,0:0:0:0:
348,104,27885,2,0,B|388:104|388:104|428:152|428:236|380:272,1,225,2|2,0:3|0:3,0:0:0:0:
304,320,28990,6,0,L|304:376,2,45,2|2|0,0:3|0:3|0:0,0:0:0:0:
240,260,29622,1,0,0:0:0:0:
263,226,29780,2,0,B|275:182|259:126,1,90,2|2,0:3|0:3,0:0:0:0:
195,79,30411,2,0,P|112:139|108:219,1,180
105,210,31359,22,0,L|161:210,1,45,2|2,0:3|0:3,0:0:0:0:
202,285,31832,2,0,P|258:301|302:285,1,90,2|8,0:3|0:0,0:0:0:0:
331,284,32306,2,0,P|318:235|335:185,1,90,2|2,0:3|0:3,0:0:0:0:
409,235,32938,54,0,L|505:235,1,90,2|2,0:3|0:3,0:0:0:0:
494,145,33569,2,0,L|399:145,1,90,2|2,0:3|0:3,0:0:0:0:
314,133,34201,2,0,P|328:198|312:268,1,135,2|2,0:3|0:3,0:0:0:0:
290,302,34832,2,0,B|255:322|255:322|226:307|226:307|186:347|109:342|83:297,1,225,2|2,0:3|0:3,0:0:0:0:
64,218,35938,6,0,B|71:173|62:129,1,90,8|2,0:0|0:3,0:0:0:0:
92,96,36411,2,0,P|135:86|183:96,1,90,2|2,0:3|0:3,0:0:0:0:
185,139,36885,2,0,B|230:147|230:147|284:137,1,90,2|8,0:3|0:0,0:0:0:0:
317,127,37359,2,0,B|358:117|358:117|403:130,1,90,2|2,0:3|0:3,0:0:0:0:
446,145,37832,1,8,0:0:0:0:
102,7,38780,86,0,L|202:7,1,90,2|8,0:3|0:0,0:0:0:0:
218,91,39411,2,0,L|114:91,1,90,2|8,3:3|0:0,0:0:0:0:
102,127,39885,2,0,P|88:188|109:269,1,135,2|8,0:3|0:0,0:0:0:0:
271,324,40990,21,8,0:0:0:0:
338,263,41306,2,0,L|392:263,1,45,8|2,0:0|0:3,0:0:0:0:
296,160,41938,102,0,P|272:92|312:32,2,135,2|2|8,1:3|0:3|0:0,0:0:0:0:
380,192,43201,2,0,P|391:248|384:292,1,90,2|2,1:3|0:3,0:0:0:0:
352,308,43674,2,0,L|241:308,1,90,2|2,0:3|0:3,0:0:0:0:
216,308,44148,1,8,0:0:0:0:
125,304,44464,22,0,P|109:241|134:177,1,135,2|2,1:3|0:3,0:0:0:0:
243,256,45411,2,0,P|328:314|471:247,1,270,8|2,0:0|0:3,0:0:0:0:
442,11,46990,70,0,P|452:65|442:113,1,90,2|2,3:3|0:3,0:0:0:0:
414,133,47464,2,0,P|407:188|418:233,1,90,2|2,0:3|0:3,0:0:0:0:
438,257,47938,1,8,0:0:0:0:
396,336,48253,38,0,P|340:328|292:336,1,90,2|2,0:3|0:3,0:0:0:0:
272,360,48727,2,0,P|215:366|175:354,1,90,2|2,0:3|0:3,0:0:0:0:
144,332,49201,1,8,0:0:0:0:
132,244,49517,86,0,P|180:256|224:244,1,90,2|2,3:3|0:3,0:0:0:0:
252,216,49990,2,0,P|297:209|356:220,1,90,2|2,0:3|0:3,0:0:0:0:
384,212,50464,1,8,0:0:0:0:
152,40,51411,37,2,0:3:0:0:
72,84,51727,1,8,0:0:0:0:
152,128,52043,2,0,L|252:128,1,90,2|2,1:3|0:3,0:0:0:0:
288,128,52517,1,2,0:3:0:0:
363,14,52990,69,2,0:3:0:0:
420,83,53306,2,0,P|428:139|416:183,1,90,2|8,1:3|0:0,0:0:0:0:
401,212,53780,1,2,0:3:0:0:
266,213,54253,1,8,0:0:0:0:
262,302,54569,102,0,P|205:312|162:286,1,90,2|2,1:3|0:3,0:0:0:0:
166,255,55043,2,0,P|121:242|79:254,1,90,2|2,0:3|0:3,0:0:0:0:
41,275,55517,1,2,1:3:0:0:
176,41,56464,54,0,L|256:41,2,67.5,2|2|2,0:3|0:3|0:3,0:3:0:0:
132,45,57095,2,0,P|104:113|132:181,2,135,2|2|2,0:3|0:3|0:3,0:0:0:0:
451,211,59306,1,2,0:3:0:0:
496,132,59622,70,0,P|512:52|492:-4,2,135,2|2|2,0:3|0:3|0:3,0:0:0:0:
256,252,61517,2,0,L|255:318,2,45,2|2|2,0:3|0:3|0:3,0:0:0:0:
208,176,62148,70,0,P|156:144|88:176,2,135,8|8|8,0:0|0:0|0:0,0:0:0:0:
256,192,63411,12,2,64674,0:3:0:0:
356,100,65938,70,0,P|376:176|328:264,1,180,8|2,0:0|0:3,0:0:0:0:
156,324,67201,22,0,P|166:280|154:237,1,90,2|8,1:3|0:0,0:0:0:0:
132,200,67674,2,0,P|119:150|130:109,1,90,2|2,0:3|0:3,0:0:0:0:
200,56,68306,1,2,0:3:0:0:
268,116,68622,1,2,0:3:0:0:
340,60,68938,2,0,P|360:112|352:156,1,90,2|2,0:3|0:3,0:0:0:0:
231,200,69727,70,0,P|222:243|228:287,1,90,2|8,0:3|0:0,0:0:0:0:
256,322,70201,2,0,P|296:342|344:342,1,90,2|2,0:3|0:3,0:0:0:0:
406,280,70832,1,2,0:3:0:0:
338,215,71148,2,0,P|321:237|314:271,1,45,2|8,0:3|1:2,0:0:0:0:
128,56,72253,38,0,P|138:100|126:143,1,90,2|8,0:3|0:0,0:0:0:0:
102,180,72727,2,0,P|91:230|106:275,1,90,2|2,0:3|0:3,0:0:0:0:
172,324,73358,1,2,0:3:0:0:
240,264,73674,1,2,0:3:0:0:
312,320,73990,2,0,P|332:268|322:223,1,90,2|2,0:3|0:3,0:0:0:0:
210,166,74779,6,0,P|251:173|301:153,1,90,2|2,1:3|0:3,0:0:0:0:
336,137,75253,2,0,P|373:115|424:117,1,90,8|2,0:0|0:3,0:0:0:0:
401,204,75885,2,0,P|418:276|393:343,1,135,2|8,0:3|0:0,0:0:0:0:
120,347,77306,53,2,0:3:0:0:
120,347,77622,2,0,P|172:354|210:347,1,90,8|2,0:0|0:3,0:0:0:0:
163,260,78253,2,0,P|115:250|57:266,1,90,8|2,0:0|1:3,0:0:0:0:
44,176,78885,2,0,P|116:140|208:184,1,180,8|8,0:0|0:0,0:0:0:0:
240,256,79832,102,0,P|316:296|393:256,1,180,2|8,1:3|0:0,0:0:0:0:
394,165,80780,1,2,0:3:0:0:
394,165,80938,2,0,P|346:179|314:217,1,90,8|8,0:2|0:0,0:0:0:0:
136,20,82359,6,0,P|123:69|136:124,1,90,2|8,1:3|0:0,0:0:0:0:
156,144,82832,2,0,P|164:188|156:240,1,90,2|2,0:3|0:3,0:0:0:0:
174,323,83464,2,0,P|258:379|362:315,1,225,2|2,1:3|0:3,0:0:0:0:
379,241,84569,1,8,0:0:0:0:
359,153,84885,6,0,P|311:141|263:157,1,90,2|8,1:3|0:0,0:0:0:0:
239,181,85359,2,0,P|197:189|153:177,1,90,8|8,0:0|0:0,0:0:0:0:
111,97,85990,1,8,1:2:0:0:
331,52,86780,38,0,P|415:63|437:145,1,180,8|8,0:0|0:0,0:0:0:0:
256,192,87727,12,8,89148,0:0:0:0:
