osu file format v14

[General]
AudioFilename: optc.mp3
AudioLeadIn: 0
PreviewTime: 65780
Countdown: 0
SampleSet: Soft
StackLeniency: 0.7
Mode: 0
LetterboxInBreaks: 0
WidescreenStoryboard: 0

[Editor]
DistanceSpacing: 1.4
BeatDivisor: 4
GridSize: 4
TimelineZoom: 1.5

[Metadata]
Title:BLESS YoUr NAME
TitleUnicode:BLESS YoUr NAME
Artist:ChouCho
ArtistUnicode:ChouCho
Creator:Shad0w1and
Version:Hard
Source:ハイスクールD×D BorN
Tags:highschool high school dxd opening ちょうちょ m1223961117 DreaM117er
BeatmapID:675204
BeatmapSetID:300612

[Difficulty]
HPDrainRate:5
CircleSize:3.5
OverallDifficulty:6
ApproachRate:7
SliderMultiplier:1.2
SliderTickRate:1

[Events]
//Background and Video events
Video,0,"optc.flv"
0,0,"BG.jpg",0,0
//Break Periods
//Storyboard Layer 0 (Background)
//Storyboard Layer 1 (Fail)
//Storyboard Layer 2 (Pass)
//Storyboard Layer 3 (Foreground)
//Storyboard Sound Samples

[TimingPoints]
1517,315.789473684211,4,2,1,60,1,0
1517,-125,4,2,1,60,0,0
4043,-100,4,2,1,60,0,0
10990,-111.111111111111,4,2,1,60,0,0
11464,-100,4,2,1,5,0,0
11622,-100,4,2,1,60,0,0
67201,-100,4,2,1,60,0,1
76674,-100,4,2,2,60,0,1
77306,-100,4,2,1,60,0,1
77385,-100,4,2,2,60,0,1
78569,-100,4,2,1,60,0,1
78885,-100,4,2,2,60,0,1
79832,-100,4,2,1,60,0,1
87411,-100,4,2,1,60,0,0

[Colours]
Combo1 : 250,225,94
Combo2 : 231,34,43
Combo3 : 153,88,174
Combo4 : 245,44,145
Combo5 : 245,224,180
Combo6 : 72,72,108
Combo7 : 220,220,220
Combo8 : 101,69,51

[HitObjects]
196,87,1517,5,0,1:0:0:0:
80,40,1832,2,0,P|68:91|80:135,1,96
178,207,2464,1,0,0:0:0:0:
213,326,2780,1,0,1:0:0:0:
178,207,3095,2,0,P|229:202|274:207,1,96
343,310,3727,1,0,0:0:0:0:
484,206,4043,85,2,1:3:0:0:
484,206,4201,2,0,P|429:220|359:196,1,120,2|2,0:3|0:3,0:0:0:0:
351,127,4674,2,0,P|368:75|343:14,1,120,2|2,0:3|0:3,0:0:0:0:
286,78,5148,102,0,P|270:139|297:193,1,120,2|2,0:3|0:3,0:0:0:0:
343,250,5622,2,0,P|335:296|320:318,1,60,2|0,0:3|0:0,0:0:0:0:
256,340,5938,2,0,P|222:345|184:340,1,60,2|0,0:3|0:0,0:0:0:0:
136,296,6253,2,0,P|166:274|210:267,1,60,2|0,0:3|0:0,0:0:0:0:
264,260,6569,38,0,L|264:116,1,120,2|0,1:3|0:0,0:0:0:0:
216,76,7043,1,2,0:3:0:0:
344,168,7359,1,2,0:3:0:0:
200,224,7674,6,0,L|64:224,1,120,2|0,1:3|0:0,0:0:0:0:
56,148,8148,2,0,L|136:148,1,60
156,76,8464,2,0,L|240:76,1,60,2|0,0:3|0:0,0:0:0:0:
288,108,8780,2,0,P|286:66|293:35,1,60,2|0,0:3|0:0,0:0:0:0:
364,20,9095,54,0,P|376:84|361:150,1,120,2|0,1:3|0:0,0:0:0:0:
304,184,9569,1,2,0:3:0:0:
168,256,9885,1,2,0:3:0:0:
296,344,10201,1,2,1:3:0:0:
20,304,10990,2,0,B|24:256|-8:192|32:160|64:212,1,161.999995056153,0|0,0:0|0:0,0:0:0:0:
62,209,11622,70,0,P|121:215|181:208,1,120,2|2,1:3|0:3,0:0:0:0:
301,325,12253,2,0,L|336:257,1,60,2|0,0:3|0:0,0:0:0:0:
412,268,12569,2,0,L|444:208,1,60,2|0,0:3|1:0,0:0:0:0:
416,92,12885,86,0,P|383:141|360:196,1,120,2|2,0:3|0:3,0:0:0:0:
301,325,13517,2,0,L|389:325,1,60,2|0,0:3|0:0,0:0:0:0:
288,244,13832,2,0,L|228:244,1,60,2|0,0:3|0:0,0:0:0:0:
143,256,14148,70,0,P|192:319|245:323,1,120,2|2,1:3|0:3,0:0:0:0:
380,232,14780,2,0,L|340:156,1,60,2|0,0:3|0:0,0:0:0:0:
260,190,15095,2,0,L|289:245,1,60,2|0,0:3|1:0,0:0:0:0:
173,194,15411,22,0,L|141:134,1,60,2|0,0:3|0:0,0:0:0:0:
52,158,15727,2,0,L|84:209,1,60,2|0,0:3|0:0,0:0:0:0:
0,266,16043,2,0,L|64:298,1,60,2|0,0:3|0:0,0:0:0:0:
137,274,16359,1,2,0:3:0:0:
173,194,16517,1,0,0:0:0:0:
173,194,16674,22,0,P|187:123|231:92,1,120,2|2,1:3|0:3,0:0:0:0:
372,176,17306,2,0,P|316:194|260:175,1,120,2|2,0:3|0:3,0:0:0:0:
222,95,17780,1,0,1:0:0:0:
222,95,17938,6,0,L|296:81,1,60,2|0,0:3|0:0,0:0:0:0:
260,175,18253,2,0,L|192:188,1,60,2|2,0:3|0:3,0:0:0:0:
139,128,18569,2,0,L|139:48,2,60,2|2|2,0:3|0:3|0:3,0:0:0:0:
93,199,19043,1,0,0:0:0:0:
182,206,19201,69,2,0:3:0:0:
182,206,19359,1,0,0:0:0:0:
102,58,19674,1,2,0:3:0:0:
102,58,19832,1,0,0:0:0:0:
257,126,20148,1,2,0:3:0:0:
257,126,20306,1,0,0:0:0:0:
92,158,20622,1,2,0:3:0:0:
92,158,20780,1,0,0:0:0:0:
207,36,21095,1,2,0:3:0:0:
207,36,21253,2,0,P|267:22|328:43,1,120
377,126,21727,70,0,L|237:126,1,120,2|0,0:3|0:0,0:0:0:0:
261,210,22201,2,0,L|129:210,1,120,0|2,0:0|0:3,0:0:0:0:
83,51,22832,2,0,P|55:99|83:163,1,120,2|0,0:3|0:0,0:0:0:0:
67,240,23306,1,0,0:0:0:0:
67,240,23464,2,0,P|67:308|31:356,2,120
141,210,24253,22,0,P|197:202|265:218,1,120,2|0,0:3|0:0,0:0:0:0:
392,317,24885,2,0,P|329:326|272:313,1,120,2|0,0:3|0:0,0:0:0:0:
141,210,25517,2,0,B|157:274|157:274|141:354,1,120,2|0,0:3|0:0,0:0:0:0:
6,218,26148,2,0,B|-6:158|-6:158|14:86,1,120,2|0,0:3|0:0,0:0:0:0:
172,48,26780,102,0,P|236:32|300:68,1,120,2|0,0:3|0:0,0:0:0:0:
336,116,27253,2,0,P|280:132|208:96,1,120
140,124,27727,1,0,0:0:0:0:
140,124,27885,102,0,P|130:198|140:260,1,120,2|0,0:3|0:0,0:0:0:0:
208,292,28359,2,0,L|208:360,2,60
268,136,28990,70,0,L|216:100,1,60
264,220,29306,2,0,P|328:236|400:220,1,120,2|0,0:3|0:0,0:0:0:0:
464,220,29780,1,0,0:0:0:0:
336,116,30095,1,0,0:0:0:0:
328,284,30411,6,0,B|312:300|312:300|296:284|296:284|280:300|280:300|264:284|264:284|248:300|248:300|232:284|232:284|216:300|216:300|200:284,1,180,2|0,0:3|0:0,0:0:0:0:
200,284,31043,1,2,0:3:0:0:
20,112,31359,2,0,P|56:108|92:76,1,60,0|2,0:0|0:3,0:0:0:0:
144,51,31674,1,0,0:0:0:0:
144,52,31832,22,0,P|128:112|152:192,1,120,2|8,0:3|0:0,0:0:0:0:
224,160,32306,2,0,L|288:160,1,60,0|0,0:0|0:3,0:0:0:0:
252,240,32622,2,0,L|188:240,1,60,0|8,0:0|0:0,0:0:0:0:
316,300,32938,69,2,0:3:0:0:
480,264,33253,1,0,0:0:0:0:
368,140,33569,2,0,L|296:140,1,60,2|0,0:3|0:0,0:0:0:0:
184,76,33885,2,0,L|270:76,1,60,0|8,0:0|0:0,0:0:0:0:
312,28,34201,54,0,P|328:88|300:148,1,120,2|0,0:3|0:0,0:0:0:0:
228,164,34674,1,8,0:0:0:0:
160,212,34832,2,0,P|144:268|164:328,1,120,2|0,0:3|0:0,0:0:0:0:
244,348,35306,2,0,L|244:264,1,60,8|0,0:0|0:0,0:0:0:0:
328,296,35622,2,0,L|328:228,1,60,2|0,0:3|0:0,0:0:0:0:
340,152,35938,70,0,P|283:136|212:152,1,120,8|2,0:0|0:3,0:0:0:0:
148,236,36411,2,0,P|204:252|268:236,1,120,0|0,0:0|0:0,0:0:0:0:
364,220,36885,38,0,L|336:352,1,120,2|8,0:3|0:0,0:0:0:0:
237,356,37359,2,0,L|262:238,1,120,2|0,0:3|0:0,0:0:0:0:
160,252,37832,2,0,L|132:382,1,120,8|0,0:0|0:0,0:0:0:0:
47,343,38306,101,2,0:3:0:0:
24,255,38464,1,8,0:0:0:0:
82,186,38622,1,0,0:0:0:0:
172,172,38780,2,0,P|232:192|296:168,1,120,2|8,0:3|0:0,0:0:0:0:
383,17,39411,102,0,L|403:149,1,120,2|8,3:3|0:0,0:0:0:0:
500,224,39885,2,0,L|476:92,1,120,2|0,0:3|0:0,0:0:0:0:
314,102,40359,2,0,L|338:238,1,120,8|2,0:0|0:3,0:0:0:0:
260,260,40832,53,8,0:0:0:0:
260,260,40990,2,0,P|226:248|188:240,1,60
148,308,41306,2,0,P|180:320|208:324,1,60,8|2,0:0|0:3,0:0:0:0:
288,340,41622,1,2,0:3:0:0:
288,340,41780,1,2,0:3:0:0:
288,340,41938,102,0,B|368:344|392:272|392:272|352:248,1,180,2|0,1:3|0:0,0:0:0:0:
108,44,42885,1,8,0:0:0:0:
16,172,43201,86,0,P|108:200|192:172,1,180,2|2,1:3|0:3,0:0:0:0:
248,104,43832,1,0,0:0:0:0:
408,240,44148,2,0,L|344:240,1,60,8|0,0:0|0:0,0:0:0:0:
336,144,44464,22,0,B|456:144|456:144|511:104,2,180,2|2|8,1:3|0:3|0:0,0:0:0:0:
232,12,45727,1,2,1:3:0:0:
4,260,46359,2,0,L|84:260,1,60,2|0,0:3|0:0,0:0:0:0:
168,184,46674,2,0,L|108:184,1,60,8|0,0:0|0:0,0:0:0:0:
104,336,46990,6,0,L|244:336,1,120,2|0,3:3|0:0,0:0:0:0:
284,276,47464,1,2,0:3:0:0:
512,238,47938,85,8,0:0:0:0:
512,156,48095,1,0,0:0:0:0:
438,197,48253,2,0,L|318:197,1,120,2|0,0:3|0:0,0:0:0:0:
224,276,48727,2,0,L|300:276,1,60,2|0,0:3|0:0,0:0:0:0:
192,116,49201,2,0,L|132:116,1,60,8|0,0:0|0:0,0:0:0:0:
64,176,49517,6,0,P|49:233|65:289,1,120,2|0,3:3|0:0,0:0:0:0:
136,352,49990,2,0,P|156:296|139:233,1,120,2|0,0:3|0:0,0:0:0:0:
142,238,50464,1,8,0:0:0:0:
32,60,50938,86,0,L|116:60,2,60,8|0|2,0:0|0:0|0:3,0:0:0:0:
0,140,51411,2,0,L|76:140,1,60,2|0,0:3|0:0,0:0:0:0:
88,220,51727,2,0,L|4:220,1,60,8|0,0:0|0:0,0:0:0:0:
0,300,52043,38,0,B|57:309|57:309|124:300,1,120,2|0,1:3|0:0,0:0:0:0:
204,288,52517,2,0,L|204:212,1,60,0|8,0:0|0:0,0:0:0:0:
76,120,52990,1,0,0:0:0:0:
207,8,53306,54,0,P|195:66|208:128,1,120,2|0,1:3|0:0,0:0:0:0:
140,180,53780,2,0,L|140:256,1,60,0|8,0:0|0:0,0:0:0:0:
292,308,54253,1,0,0:0:0:0:
385,168,54569,6,0,P|326:149|269:172,1,120,2|0,1:3|0:0,0:0:0:0:
140,240,55043,2,0,P|201:261|259:234,1,120
196,176,55517,1,8,1:2:0:0:
68,96,55832,6,0,L|68:164,2,60,2|0|8,0:3|0:0|0:0,0:0:0:0:
252,48,56464,2,0,P|296:40|348:48,2,90,0|0|0,0:0|0:0|0:0,0:0:0:0:
184,100,57095,6,0,P|172:168|184:224,1,120,2|0,0:3|0:0,0:0:0:0:
252,264,57569,2,0,L|252:335,1,60,0|8,0:0|0:0,0:0:0:0:
448,168,58043,2,0,P|388:196|328:160,1,120,2|8,0:3|0:0,0:0:0:0:
284,120,58517,2,0,P|332:96|400:120,1,120
341,176,58990,2,0,L|341:252,1,60,8|0,0:0|0:0,0:0:0:0:
264,196,59306,2,0,L|192:180,1,60,8|0,0:0|0:0,0:0:0:0:
136,132,59622,86,0,P|120:180|156:256,1,120,8|8,0:0|0:0,0:0:0:0:
212,296,60095,2,0,P|225:238|204:182,1,120
81,195,60569,2,0,B|46:167|46:167|55:136|46:73,2,120,8|8|8,0:0|0:0|0:0,0:0:0:0:
212,296,61517,2,0,L|212:356,2,60,8|0|8,0:0|0:0|0:0,0:0:0:0:
432,268,62148,70,0,L|464:344,1,60,8|0,0:0|0:0,0:0:0:0:
288,340,62622,2,0,L|300:276,1,60,8|0,0:0|0:0,0:0:0:0:
160,188,63095,2,0,L|228:188,1,60,8|0,0:0|0:0,0:0:0:0:
376,120,63569,2,0,L|308:120,1,60,8|0,0:0|0:0,0:0:0:0:
276,280,64043,2,0,L|360:280,1,60,8|0,0:0|0:0,0:0:0:0:
352,200,64359,2,0,L|284:200,1,60,8|0,0:0|0:0,0:0:0:0:
256,116,64674,102,0,L|256:86,2,30,8|0|0,0:0|0:0|0:0,0:0:0:0:
168,260,65148,2,0,L|172:312,2,30,8|0|0,0:0|0:0|0:0,0:0:0:0:
80,116,65622,2,0,L|75:86,2,30,8|0|0,0:0|0:0|0:0,0:0:0:0:
56,196,65938,2,0,P|56:272|96:320,1,120,8|0,0:0|0:0,0:0:0:0:
156,344,66411,1,0,0:0:0:0:
156,344,66569,1,0,0:0:0:0:
424,36,67201,54,0,B|436:104|436:104|424:156,1,120,2|8,1:3|0:0,0:0:0:0:
352,224,67674,2,0,B|340:156|340:156|352:104,1,120,0|0,0:0|0:0,0:0:0:0:
424,153,68148,1,8,0:0:0:0:
464,224,68306,6,0,P|424:288|372:300,1,120,2|0,0:0|0:0,0:0:0:0:
352,224,68780,1,8,0:0:0:0:
304,292,68938,2,0,L|175:292,1,120
112,252,69411,1,8,0:0:0:0:
258,53,69727,102,0,P|270:118|241:184,1,120,2|8,0:3|0:0,0:0:0:0:
177,224,70201,2,0,P|165:164|186:108,1,120
253,167,70674,1,8,0:0:0:0:
259,255,70832,2,0,P|315:273|381:255,1,120,2|0,0:0|0:0,0:0:0:0:
425,188,71306,53,8,1:2:0:0:
357,342,71622,1,2,0:3:0:0:
328,175,71938,1,8,0:0:0:0:
259,327,72253,2,0,P|188:302|151:255,1,120,2|8,0:3|0:0,0:0:0:0:
123,117,72727,2,0,P|175:141|215:193,1,120
158,269,73201,1,8,0:0:0:0:
82,327,73359,6,0,P|128:363|205:356,1,120,2|0,0:0|0:0,0:0:0:0:
249,306,73832,1,8,0:0:0:0:
248,219,73990,2,0,B|222:177|177:165|177:165|152:115,1,120
128,68,74464,1,8,0:0:0:0:
255,27,74780,6,0,P|312:15|379:22,1,120,2|0,1:3|0:0,0:0:0:0:
459,28,75253,1,8,0:0:0:0:
459,28,75569,2,0,L|459:92,1,60,2|0,0:3|0:0,0:0:0:0:
441,172,75885,2,0,P|373:177|314:204,1,120,10|0,1:2|0:0,0:0:0:0:
137,243,76359,38,0,P|203:246|255:222,1,120,8|10,0:0|0:0,0:0:0:0:
263,140,76832,1,0,0:0:0:0:
198,82,76990,1,10,0:0:0:0:
114,92,77148,1,2,0:0:0:0:
68,160,77306,102,0,B|68:224|68:224|112:284,1,120,8|8,1:2|0:0,0:0:0:0:
252,348,77938,2,0,B|252:280|252:280|220:228,1,120,2|8,0:0|0:0,0:0:0:0:
68,160,78569,70,0,L|68:284,1,120,2|8,1:3|0:0,0:0:0:0:
252,348,79201,2,0,L|252:228,1,120,2|8,0:0|0:0,0:0:0:0:
332,63,79832,37,2,1:3:0:0:
332,63,79990,1,8,0:0:0:0:
168,60,80306,1,2,0:3:0:0:
168,60,80464,1,8,0:0:0:0:
248,208,80780,1,2,0:3:0:0:
248,208,80938,1,8,0:2:0:0:
80,188,81253,2,0,L|36:188,2,30,8|0|0,0:0|0:0|0:0,0:0:0:0:
120,352,81727,2,0,L|92:364,2,30,8|0|0,0:0|0:0|0:0,0:0:0:0:
216,352,82043,2,0,L|240:372,3,30,8|0|0|0,0:0|0:0|0:0|0:0,0:0:0:0:
220,328,82359,6,0,L|296:228,1,120,2|8,1:3|0:0,0:0:0:0:
304,84,82832,2,0,L|232:104,1,60,0|2,0:0|0:3,0:0:0:0:
176,196,83148,2,0,L|250:176,1,60,0|8,0:0|0:0,0:0:0:0:
348,172,83464,6,0,P|372:240|348:292,1,120,2|0,0:2|0:0,0:0:0:0:
280,316,83938,1,8,0:0:0:0:
204,284,84095,1,0,0:0:0:0:
128,316,84253,1,2,0:3:0:0:
52,284,84411,1,0,0:0:0:0:
48,200,84569,2,0,L|120:184,1,60,8|0,0:0|0:0,0:0:0:0:
160,252,84885,86,0,P|216:264|280:252,1,120,2|8,1:3|0:0,0:0:0:0:
324,184,85359,2,0,P|388:192|444:224,2,120,8|8|10,0:0|0:0|0:0,0:0:0:0:
92,308,86780,1,8,0:0:0:0:
172,288,86938,1,0,0:0:0:0:
392,164,87411,6,0,L|368:220,1,60,8|2,0:0|0:3,0:0:0:0:
224,308,87885,2,0,L|256:240,1,60,8|2,0:0|0:3,0:0:0:0:
228,88,88359,1,8,0:0:0:0:
116,196,88674,37,8,0:0:0:0:
82,125,88832,1,8,0:0:0:0:
20,172,88990,1,8,0:0:0:0:
51,243,89148,1,8,0:0:0:0:
