osu file format v14

[General]
AudioFilename: ChouCho - Authentic Symphony (Asterisk DnB Remix).mp3
AudioLeadIn: 0
PreviewTime: -1
Countdown: 0
SampleSet: Soft
StackLeniency: 0.7
Mode: 0
LetterboxInBreaks: 1
WidescreenStoryboard: 0

[Editor]
Bookmarks: 131818
DistanceSpacing: 2
BeatDivisor: 4
GridSize: 4
TimelineZoom: 6.900001

[Metadata]
Title:Authentic symphony(Asterisk DnB Remix)
TitleUnicode:Authentic symphony(Asterisk DnB Remix)
Artist:ChouCho
ArtistUnicode:ChouCho
Creator:YukiZura-
Version:Abandoned
Source:ましろ色シンフォニー the color of lovers
Tags:ましろ色シンフォニー the color of lovers
BeatmapID:1323357
BeatmapSetID:627863

[Difficulty]
HPDrainRate:5
CircleSize:4
OverallDifficulty:8
ApproachRate:9
SliderMultiplier:1.8
SliderTickRate:1

[Events]
//Background and Video events
0,0,"Cafe-Sourire-Wallpapers-4.jpg",0,0
//Break Periods
//Storyboard Layer 0 (Background)
//Storyboard Layer 1 (Fail)
//Storyboard Layer 2 (Pass)
//Storyboard Layer 3 (Foreground)
//Storyboard Sound Samples

[TimingPoints]
330,342.863333333334,4,2,1,20,1,0
9930,-111.111111111111,4,2,1,30,0,0
11301,-100,4,2,1,35,0,0
16787,-100,4,2,1,30,0,0
17473,-100,4,2,1,35,0,0
18158,-100,4,2,1,40,0,0
18844,-100,4,2,1,45,0,0
19358,-100,4,2,1,50,0,0
19701,-100,4,2,1,50,0,0
21930,-100,4,2,3,50,0,0
22101,-100,4,2,1,50,0,0
22273,-100,4,2,1,40,0,1
39073,-100,4,2,1,30,0,0
41473,-100,4,2,1,30,0,1
41959,-100,4,2,1,35,0,1
42159,-100,4,2,1,40,0,1
42502,-100,4,2,1,50,0,1
44216,-125,4,2,1,50,0,0
55016,-111.111111111111,4,2,1,50,0,0
60673,-111.111111111111,4,2,1,30,0,0
61445,-111.111111111111,4,2,1,35,0,0
62045,-111.111111111111,4,2,1,40,0,0
62731,-111.111111111111,4,2,1,45,0,0
63416,-111.111111111111,4,2,1,50,0,0
64788,-200,4,2,1,40,0,0
65131,-111.111111111111,4,2,1,50,0,0
66159,-117.647058823529,4,2,1,50,0,0
77131,-166.666666666667,4,2,1,50,0,0
82617,-117.647058823529,4,2,1,50,0,0
89474,-100,4,2,1,50,0,0
111417,-166.666666666667,4,2,1,50,0,0
115532,-111.111111111111,4,2,1,50,0,0
116560,-111.111111111111,4,2,3,50,0,0
116903,-100,4,2,1,50,0,1
133703,-100,4,2,1,40,0,0
136103,-100,4,2,1,30,0,1
136446,-100,4,2,1,30,0,1
136618,-100,4,2,1,35,0,1
136789,-100,4,2,1,40,0,1
137132,-100,4,2,1,50,0,1
138846,-125,4,2,1,50,0,0
152732,-111.111111111111,4,2,1,50,0,0
155304,-111.111111111111,4,2,1,30,0,0
156075,-111.111111111111,4,2,1,35,0,0
156847,-111.111111111111,4,2,1,40,0,0
157361,-111.111111111111,4,2,1,45,0,0
158047,-111.111111111111,4,2,1,50,0,0
159418,-200,4,2,1,50,0,0
159761,-111.111111111111,4,2,1,50,0,0
160790,-117.647058823529,4,2,1,50,0,0
171761,-166.666666666667,4,2,1,50,0,0
181361,-117.647058823529,4,2,1,50,0,0
184104,-100,4,2,1,50,0,0
206048,-166.666666666667,4,2,1,50,0,0
209476,-117.647058823529,4,2,1,50,0,0
211190,-117.647058823529,4,2,3,50,0,0
211533,-200,4,2,1,10,0,0
227991,-100,4,2,1,30,0,0
232105,-100,4,2,1,50,0,0
232791,-100,4,2,1,50,0,0
233134,-100,4,2,3,50,0,0
233305,-100,4,2,1,50,0,0
255420,-166.666666666667,4,2,1,50,0,0
259534,-111.111111111111,4,2,1,50,0,0
260563,-200,4,2,1,50,0,0
261934,-100,4,2,3,50,0,1
262277,-100,4,2,1,50,0,1
284220,-100,4,2,1,50,0,0

[Colours]
Combo1 : 128,0,255
Combo2 : 255,0,0
Combo3 : 255,0,255

[HitObjects]
116,168,330,6,0,P|128:128|180:84,1,90
236,180,672,1,8,0:0:0:0:
236,180,1187,5,0,0:0:0:0:
188,272,1358,2,0,P|232:280|308:256,1,90
70,241,1701,2,0,P|94:185|130:161,1,90
276,104,2044,1,8,0:0:0:0:
136,88,2301,5,0,0:0:0:0:
144,88,2387,1,0,0:0:0:0:
236,180,2558,1,0,0:0:0:0:
268,60,2730,1,8,0:0:0:0:
396,216,3072,6,0,P|384:256|332:300,1,90
276,204,3415,1,8,0:0:0:0:
276,204,3930,5,0,0:0:0:0:
324,112,4101,2,0,P|280:104|204:128,1,90
442,143,4444,2,0,P|418:199|382:223,1,90
276,204,4787,1,8,0:0:0:0:
300,304,5044,5,0,0:0:0:0:
304,312,5130,1,0,0:0:0:0:
176,252,5301,1,0,0:0:0:0:
300,188,5472,1,8,0:0:0:0:
176,252,5815,6,0,P|136:240|92:188,1,90
188,144,6158,1,8,0:0:0:0:
188,144,6672,5,0,0:0:0:0:
296,180,6844,2,0,P|300:136|268:64,1,90
268,312,7187,2,0,P|212:288|188:252,1,90
112,92,7530,1,8,0:0:0:0:
204,156,7787,5,0,0:0:0:0:
200,160,7872,1,0,0:0:0:0:
120,252,8044,1,0,0:0:0:0:
48,160,8215,1,0,0:0:0:0:
308,72,8558,6,0,P|372:52|420:60,1,90
372,148,8901,1,8,0:0:0:0:
257,196,9415,5,0,0:0:0:0:
299,286,9587,2,0,P|255:294|179:270,1,90
164,160,9930,2,0,P|200:116|244:96,1,80.9999975280763
314,142,10273,2,0,P|278:186|239:199,1,80.9999975280763
184,96,10615,5,0,0:0:0:0:
184,96,10701,1,0,0:0:0:0:
184,96,10787,1,0,0:0:0:0:
184,96,10873,1,0,0:0:0:0:
184,96,10958,1,0,0:0:0:0:
184,96,11044,1,0,0:0:0:0:
184,96,11130,1,0,0:0:0:0:
184,96,11215,1,0,0:0:0:0:
184,96,11301,6,0,P|232:88|296:104,1,90
232,192,11644,1,8,0:0:0:0:
344,272,12158,5,0,0:0:0:0:
388,356,12330,2,0,P|344:364|268:340,1,90
144,328,12673,2,0,P|168:272|204:248,1,90
368,144,13015,1,8,0:0:0:0:
152,40,13273,5,0,0:0:0:0:
160,40,13358,1,0,0:0:0:0:
224,248,13530,1,0,0:0:0:0:
319,56,13701,1,8,0:0:0:0:
136,200,14044,6,0,P|136:160|184:96,1,90
280,176,14387,1,8,0:0:0:0:
196,296,14901,5,0,0:0:0:0:
296,340,15073,2,0,P|304:296|280:220,1,90
84,284,15415,2,0,P|108:228|144:204,1,90
304,80,15758,1,8,0:0:0:0:
80,40,16015,5,0,0:0:0:0:
88,48,16101,1,0,0:0:0:0:
272,184,16273,1,8,0:0:0:0:
110,334,16444,2,0,P|87:293|89:235,1,90
120,184,16787,5,0,0:0:0:0:
144,152,16873,1,0,0:0:0:0:
176,128,16958,1,0,0:0:0:0:
216,112,17044,1,0,0:0:0:0:
256,104,17130,1,0,0:0:0:0:
304,104,17216,1,0,0:0:0:0:
344,120,17301,1,0,0:0:0:0:
376,152,17387,1,0,0:0:0:0:
407,184,17473,5,0,0:0:0:0:
424,232,17558,1,0,0:0:0:0:
416,280,17644,1,0,0:0:0:0:
384,312,17730,1,0,0:0:0:0:
336,320,17816,1,0,0:0:0:0:
296,312,17901,1,0,0:0:0:0:
264,280,17987,1,0,0:0:0:0:
256,240,18073,1,0,0:0:0:0:
256,192,18158,5,8,0:0:0:0:
280,152,18244,1,0,0:0:0:0:
320,128,18330,1,0,0:0:0:0:
368,128,18416,1,0,0:0:0:0:
416,152,18501,1,0,0:0:0:0:
440,192,18587,1,0,0:0:0:0:
448,240,18673,1,0,0:0:0:0:
432,288,18758,1,0,0:0:0:0:
384,312,18844,5,8,0:0:0:0:
336,328,18930,1,0,0:0:0:0:
276,336,19016,1,0,0:0:0:0:
224,316,19101,1,0,0:0:0:0:
180,276,19187,1,0,0:0:0:0:
156,224,19273,1,0,0:0:0:0:
144,168,19358,1,0,0:0:0:0:
152,112,19444,1,0,0:0:0:0:
188,64,19530,2,0,L|248:32,1,45
356,24,19701,5,8,0:0:0:0:
380,56,19787,1,0,0:0:0:0:
388,104,19873,2,0,L|379:181,1,45
396,280,20044,5,8,0:0:0:0:
352,288,20130,1,0,0:0:0:0:
312,268,20216,2,0,L|257:240,1,45
140,220,20387,5,8,0:0:0:0:
148,180,20473,1,0,0:0:0:0:
180,148,20558,2,0,L|228:124,1,45
356,80,20730,5,8,0:0:0:0:
348,112,20816,1,0,0:0:0:0:
340,144,20901,1,0,0:0:0:0:
240,256,21073,5,0,0:0:0:0:
96,64,21244,1,0,0:0:0:0:
336,80,21416,1,0,0:0:0:0:
424,208,21587,5,0,0:0:0:0:
392,256,21673,1,0,0:0:0:0:
352,296,21758,1,0,0:0:0:0:
296,320,21844,1,0,0:0:0:0:
216,344,21930,2,8,L|216:272,1,45
176,208,22101,2,0,L|152:256,1,45
48,344,22273,6,0,P|24:296|24:248,2,90
48,160,22787,1,0,0:0:0:0:
176,208,22958,1,0,0:0:0:0:
144,64,23130,1,0,0:0:0:0:
272,96,23301,1,0,0:0:0:0:
336,8,23473,5,0,0:0:0:0:
344,16,23558,1,0,0:0:0:0:
344,16,23644,1,0,0:0:0:0:
328,200,23816,2,0,P|384:144|392:120,1,90
272,96,24159,6,0,L|232:40|232:40,2,45
112,104,24501,1,0,0:0:0:0:
208,224,24673,1,0,0:0:0:0:
64,240,24844,2,0,L|32:280,2,45
32,88,25187,6,0,P|88:24|120:24,1,90
152,144,25530,1,0,0:0:0:0:
152,144,25616,1,0,0:0:0:0:
152,144,25701,1,0,0:0:0:0:
252,56,25873,2,0,P|276:104|276:152,1,90
208,224,26216,6,0,L|152:252,2,45
384,136,26559,1,0,0:0:0:0:
256,56,26730,1,0,0:0:0:0:
208,224,26901,2,0,L|276:188,2,45
112,120,27244,1,0,0:0:0:0:
256,56,27416,1,0,0:0:0:0:
384,136,27587,6,0,L|424:104,2,45
416,232,27930,2,0,P|376:232|312:184,1,90
304,88,28273,1,0,0:0:0:0:
304,88,28359,1,0,0:0:0:0:
304,88,28444,1,0,0:0:0:0:
216,208,28616,1,0,0:0:0:0:
72,160,28787,2,0,P|88:120|160:80,1,90
216,208,29130,5,0,0:0:0:0:
264,112,29301,1,0,0:0:0:0:
176,288,29473,2,0,P|224:296|288:272,1,90
312,184,29816,1,0,0:0:0:0:
392,272,29987,1,0,0:0:0:0:
360,88,30159,1,0,0:0:0:0:
216,160,30330,1,0,0:0:0:0:
216,160,30416,1,0,0:0:0:0:
216,160,30501,1,0,0:0:0:0:
360,88,30673,5,0,0:0:0:0:
336,256,30844,1,0,0:0:0:0:
168,256,31016,2,0,P|112:184|112:160,1,90
152,88,31359,1,0,0:0:0:0:
88,300,31530,1,0,0:0:0:0:
280,224,31701,1,0,0:0:0:0:
288,192,31787,1,0,0:0:0:0:
296,160,31873,2,0,P|312:104|352:72,1,90
192,144,32216,5,0,0:0:0:0:
292,28,32387,1,0,0:0:0:0:
408,152,32559,2,0,P|440:88|424:40,2,90
400,176,32987,1,0,0:0:0:0:
384,200,33073,1,0,0:0:0:0:
368,224,33159,1,0,0:0:0:0:
352,248,33244,1,0,0:0:0:0:
272,120,33416,5,0,0:0:0:0:
216,240,33587,1,0,0:0:0:0:
224,248,33673,1,0,0:0:0:0:
224,248,33759,1,0,0:0:0:0:
144,104,33930,1,0,0:0:0:0:
144,104,34016,1,0,0:0:0:0:
144,104,34102,1,0,0:0:0:0:
48,176,34273,6,0,P|80:208|144:216,1,90
144,104,34616,2,0,P|192:72|224:64,1,90
392,136,34959,1,0,0:0:0:0:
392,136,35044,1,0,0:0:0:0:
392,136,35130,1,0,0:0:0:0:
256,240,35302,1,0,0:0:0:0:
256,240,35387,1,0,0:0:0:0:
256,240,35473,1,0,0:0:0:0:
224,56,35644,5,0,0:0:0:0:
312,192,35816,1,0,0:0:0:0:
176,168,35987,1,0,0:0:0:0:
336,64,36159,1,0,0:0:0:0:
136,80,36330,1,0,0:0:0:0:
136,80,36416,1,0,0:0:0:0:
136,80,36502,1,0,0:0:0:0:
96,240,36673,1,0,0:0:0:0:
96,240,36759,1,0,0:0:0:0:
96,240,36844,1,0,0:0:0:0:
264,288,37016,5,0,0:0:0:0:
400,272,37187,2,0,P|384:216|344:184,1,90
256,184,37530,2,0,P|272:136|328:104,1,90
416,120,37873,1,0,0:0:0:0:
248,40,38044,1,0,0:0:0:0:
248,40,38130,1,0,0:0:0:0:
248,40,38216,1,0,0:0:0:0:
144,184,38387,2,0,P|160:136|152:88,1,90
72,240,38730,6,0,P|104:264|168:272,1,90
384,176,39073,1,0,0:0:0:0:
136,120,39416,1,0,0:0:0:0:
344,272,39759,1,0,0:0:0:0:
208,60,40102,1,0,0:0:0:0:
260,312,40445,1,0,0:0:0:0:
312,68,40787,1,0,0:0:0:0:
256,192,41130,1,0,0:0:0:0:
168,112,41473,5,0,0:0:0:0:
128,136,41559,1,0,0:0:0:0:
104,176,41645,1,0,0:0:0:0:
96,224,41730,1,0,0:0:0:0:
104,272,41816,2,0,L|128:260,4,15
244,332,41987,6,0,L|264:316,4,15
256,192,42159,6,0,L|232:204,10,15
392,248,42502,6,0,L|412:232,10,15
376,240,42845,1,0,0:0:0:0:
256,192,43016,2,0,P|272:160|336:120,1,90
408,88,43359,1,0,0:0:0:0:
224,56,43530,6,0,L|280:72,1,45
88,88,43702,2,0,L|32:112,1,45
214,174,43873,2,0,L|270:198,1,45
104,208,44045,2,0,L|32:248,1,45
328,80,44216,1,0,0:0:0:0:
408,248,44559,6,0,P|360:272|312:280,2,72
200,216,45073,1,0,0:0:0:0:
232,88,45245,1,0,0:0:0:0:
336,184,45416,1,0,0:0:0:0:
280,16,45587,6,0,P|304:40|320:104,2,72
184,160,46102,1,0,0:0:0:0:
224,184,46187,2,0,L|288:224,1,72
288,268,46445,2,0,L|184:292,1,72
96,152,46787,1,0,0:0:0:0:
304,184,46959,2,0,P|296:144|256:112,2,72
160,272,47473,5,0,0:0:0:0:
160,272,47559,1,0,0:0:0:0:
160,272,47645,1,0,0:0:0:0:
104,120,47816,1,0,0:0:0:0:
288,80,47988,6,0,P|256:104|240:152,1,72
239,223,48330,2,0,P|279:215|311:183,1,72
400,96,48673,1,0,0:0:0:0:
432,232,48845,1,0,0:0:0:0:
420,276,48930,2,0,L|348:316,1,72
324,276,49188,2,0,L|340:204,1,72
240,168,49530,1,0,0:0:0:0:
136,184,49702,6,0,P|136:144|224:64,1,144
320,160,50216,1,0,0:0:0:0:
216,260,50388,1,0,0:0:0:0:
348,280,50559,1,0,0:0:0:0:
424,168,50730,2,0,P|408:104|384:80,1,72
320,72,51073,2,0,P|352:32|384:16,1,72
320,160,51416,5,0,0:0:0:0:
152,180,51588,1,0,0:0:0:0:
128,140,51673,2,0,L|184:76,1,72
140,56,51930,2,0,L|60:72,1,72
92,248,52273,1,0,0:0:0:0:
256,344,52445,6,0,P|272:312|224:200,1,144
304,80,52959,1,0,0:0:0:0:
368,160,53130,2,0,P|392:136|408:88,1,72
352,248,53473,2,0,P|304:216|280:176,1,72
216,160,53816,2,0,P|248:128|296:120,1,72
256,296,54159,5,0,0:0:0:0:
368,160,54330,1,0,0:0:0:0:
360,112,54416,2,0,L|408:48,1,72
364,28,54673,2,0,L|284:60,1,72
304,248,55016,5,0,0:0:0:0:
152,216,55188,2,0,P|216:208|240:184,1,80.9999975280763
168,104,55530,1,0,0:0:0:0:
227,199,55702,2,0,P|256:168|264:104,1,80.9999975280763
136,88,56045,6,0,L|88:88,2,40.4999987640381
144,256,56388,1,0,0:0:0:0:
288,168,56559,1,0,0:0:0:0:
264,296,56731,2,0,B|368:288|352:288,1,80.9999975280763
448,200,57073,1,0,0:0:0:0:
432,156,57159,2,0,L|344:116,1,80.9999975280763
348,72,57416,2,0,L|428:24,1,80.9999975280763
256,32,57759,5,0,0:0:0:0:
288,168,57931,1,0,0:0:0:0:
120,160,58102,2,0,P|160:152|208:104,2,80.9999975280763
120,64,58616,1,0,0:0:0:0:
256,32,58788,2,0,P|288:56|312:112,1,80.9999975280763
216,224,59131,6,0,P|288:256|376:208,1,161.999995056153
288,136,59645,1,0,0:0:0:0:
360,48,59816,1,0,0:0:0:0:
312,36,59902,2,0,L|224:64,1,80.9999975280763
213,105,60159,2,0,L|301:141,1,80.9999975280763
320,272,60502,1,0,0:0:0:0:
152,340,60673,5,0,0:0:0:0:
132,328,60759,1,0,0:0:0:0:
120,308,60845,1,0,0:0:0:0:
120,284,60931,1,0,0:0:0:0:
128,264,61016,1,0,0:0:0:0:
144,248,61102,1,0,0:0:0:0:
164,232,61188,1,0,0:0:0:0:
180,216,61273,1,0,0:0:0:0:
184,192,61359,5,0,0:0:0:0:
168,172,61445,1,0,0:0:0:0:
144,160,61531,1,0,0:0:0:0:
116,152,61616,1,0,0:0:0:0:
96,132,61702,1,0,0:0:0:0:
104,104,61788,1,0,0:0:0:0:
124,84,61873,1,0,0:0:0:0:
152,76,61959,1,0,0:0:0:0:
232,24,62045,5,0,0:0:0:0:
264,32,62131,1,0,0:0:0:0:
292,52,62216,1,0,0:0:0:0:
312,76,62302,1,0,0:0:0:0:
324,104,62388,1,0,0:0:0:0:
328,136,62473,1,0,0:0:0:0:
320,168,62559,1,0,0:0:0:0:
304,196,62645,1,0,0:0:0:0:
360,252,62731,5,0,0:0:0:0:
332,284,62816,1,0,0:0:0:0:
296,304,62902,1,0,0:0:0:0:
256,304,62988,1,0,0:0:0:0:
216,292,63073,1,0,0:0:0:0:
184,264,63159,1,0,0:0:0:0:
164,228,63245,1,0,0:0:0:0:
164,188,63331,1,0,0:0:0:0:
128,104,63416,5,0,0:0:0:0:
172,88,63502,1,0,0:0:0:0:
220,92,63588,1,0,0:0:0:0:
264,116,63674,1,0,0:0:0:0:
292,156,63759,1,0,0:0:0:0:
304,204,63845,1,0,0:0:0:0:
284,252,63931,1,0,0:0:0:0:
248,284,64016,1,0,0:0:0:0:
200,300,64102,5,0,0:0:0:0:
156,276,64188,1,0,0:0:0:0:
112,252,64274,1,0,0:0:0:0:
64,264,64359,1,0,0:0:0:0:
28,300,64445,1,0,0:0:0:0:
16,348,64531,1,0,0:0:0:0:
48,384,64616,1,0,0:0:0:0:
92,372,64702,1,0,0:0:0:0:
180,244,64788,6,0,L|232:176|232:176,1,67.5
224,68,65131,6,0,L|260:124,1,40.4999987640381
304,168,65302,2,0,L|356:120,1,40.4999987640381
416,56,65474,5,0,0:0:0:0:
432,84,65559,1,0,0:0:0:0:
444,116,65645,1,0,0:0:0:0:
452,148,65731,1,0,0:0:0:0:
452,180,65816,1,0,0:0:0:0:
444,212,65902,1,0,0:0:0:0:
432,244,65988,1,0,0:0:0:0:
412,272,66074,1,0,0:0:0:0:
392,292,66159,6,0,P|316:280|288:284,1,76.5000014591217
164,340,66502,1,0,0:0:0:0:
232,248,66674,1,0,0:0:0:0:
120,204,66845,2,0,P|156:148|188:136,1,76.5000014591217
304,168,67188,5,0,0:0:0:0:
348,91,67359,2,0,P|375:117|392:152,2,76.5000014591217
216,176,67874,6,0,P|224:132|256:96,1,76.5000014591217
256,256,68216,2,0,P|288:228|312:184,1,76.5000014591217
200,328,68559,2,0,P|180:300|172:244,1,76.5000014591217
216,176,68902,6,0,P|188:144|140:128,2,76.5000014591217
84,252,69416,1,0,0:0:0:0:
68,112,69588,1,0,0:0:0:0:
184,212,69759,1,0,0:0:0:0:
220,72,69931,1,0,0:0:0:0:
328,116,70102,2,0,P|336:68|320:24,1,76.5000014591217
364,236,70445,5,0,0:0:0:0:
208,280,70616,2,0,P|160:276|112:240,1,76.5000014591217
184,212,70874,2,0,P|144:248|160:332,1,114.750002188683
364,112,71302,2,0,P|344:84|280:44,1,76.5000014591217
84,96,71645,6,0,P|96:128|110:167,1,76.5000014591217
144,280,71988,1,0,0:0:0:0:
192,144,72159,1,0,0:0:0:0:
212,228,72331,2,0,P|260:204|280:176,1,76.5000014591217
352,224,72674,2,0,P|360:172|344:132,2,76.5000014591217
192,144,73188,5,0,0:0:0:0:
136,56,73359,2,0,P|180:40|240:48,1,76.5000014591217
276,112,73702,2,0,P|304:68|308:36,1,76.5000014591217
404,120,74045,2,0,P|376:164|372:196,1,76.5000014591217
424,268,74388,2,0,P|352:284|276:224,1,153.000002918243
213,131,74902,5,0,0:0:0:0:
188,204,75074,2,0,P|212:136|220:104,1,76.5000014591217
364,200,75417,1,0,0:0:0:0:
312,60,75588,1,0,0:0:0:0:
213,131,75759,6,0,L|157:143,1,38.2500007295609
120,232,75931,1,0,0:0:0:0:
316,160,76102,1,0,0:0:0:0:
244,296,76274,1,0,0:0:0:0:
213,131,76445,1,0,0:0:0:0:
384,76,76617,1,0,0:0:0:0:
428,196,76788,5,0,0:0:0:0:
424,224,76874,1,0,0:0:0:0:
408,252,76959,1,0,0:0:0:0:
388,276,77045,1,0,0:0:0:0:
364,288,77131,6,0,P|320:296|240:276,1,107.999996704102
82,212,77817,2,0,P|134:224|188:216,1,107.999996704102
417,156,78502,2,0,P|365:168|312:160,1,107.999996704102
78,84,79188,2,0,P|130:96|184:88,1,107.999996704102
311,159,79874,2,0,L|312:44,1,107.999996704102
184,87,80560,2,0,L|183:194,1,107.999996704102
310,266,81245,2,0,L|311:151,1,107.999996704102
182,194,81931,2,0,L|182:302,1,107.999996704102
224,96,82617,5,0,0:0:0:0:
284,208,83302,1,0,0:0:0:0:
188,188,83988,1,0,0:0:0:0:
316,124,84674,1,0,0:0:0:0:
228,236,85360,5,0,0:0:0:0:
168,100,85702,1,0,0:0:0:0:
328,136,86045,1,0,0:0:0:0:
152,196,86388,1,0,0:0:0:0:
260,76,86731,5,0,0:0:0:0:
296,236,86902,1,0,0:0:0:0:
136,72,87074,1,0,0:0:0:0:
356,136,87245,1,0,0:0:0:0:
140,232,87417,1,0,0:0:0:0:
156,268,87503,1,0,0:0:0:0:
180,296,87588,1,0,0:0:0:0:
212,320,87674,1,0,0:0:0:0:
252,324,87760,2,0,L|292:304,3,38.2500007295609
248,204,88103,6,0,P|292:204|336:224,1,76.5000014591217
344,244,88360,1,0,0:0:0:0:
376,264,88445,1,0,0:0:0:0:
480,308,88617,1,0,0:0:0:0:
456,196,88788,5,0,0:0:0:0:
436,160,88874,1,0,0:0:0:0:
404,132,88960,1,0,0:0:0:0:
364,116,89045,1,0,0:0:0:0:
324,108,89131,1,0,0:0:0:0:
280,108,89217,1,0,0:0:0:0:
240,116,89303,1,0,0:0:0:0:
200,132,89388,1,0,0:0:0:0:
160,148,89474,6,0,P|128:116|116:48,1,90
64,216,89817,1,0,0:0:0:0:
114,74,89988,1,0,0:0:0:0:
156,228,90160,1,0,0:0:0:0:
240,328,90331,2,0,P|272:284|272:216,1,90
276,120,90674,6,0,L|324:108,1,45
208,184,90845,2,0,P|188:148|196:72,1,90
319,109,91188,5,0,0:0:0:0:
336,264,91360,1,0,0:0:0:0:
336,264,91445,1,0,0:0:0:0:
336,264,91531,1,0,0:0:0:0:
144,156,91703,1,0,0:0:0:0:
228,292,91874,2,0,P|164:272|128:232,1,90
52,288,92217,6,0,P|74:202|156:152,1,180
284,200,92731,1,0,0:0:0:0:
216,128,92903,2,0,P|240:84|240:20,1,90
88,56,93245,1,0,0:0:0:0:
148,192,93417,1,0,0:0:0:0:
340,96,93588,2,0,P|296:136|280:172,1,90
284,200,93845,1,0,0:0:0:0:
308,224,93931,1,0,0:0:0:0:
308,336,94103,6,0,P|264:328|220:284,2,90
384,220,94617,1,0,0:0:0:0:
266,154,94788,1,0,0:0:0:0:
104,196,94960,6,0,P|164:188|196:164,1,90
132,112,95303,2,0,P|168:64|220:48,1,90
266,154,95646,1,0,0:0:0:0:
340,56,95817,1,0,0:0:0:0:
252,240,95988,6,0,P|308:228|356:196,1,90
280,324,96331,2,0,P|196:308|180:292,1,90
152,132,96674,5,0,0:0:0:0:
220,244,96846,1,0,0:0:0:0:
252,240,96931,2,0,P|300:232|348:200,1,90
268,144,97188,2,0,L|252:52,1,90
152,132,97531,1,0,0:0:0:0:
208,312,97703,6,0,P|176:276|176:212,1,90
292,124,98046,1,0,0:0:0:0:
252,240,98217,1,0,0:0:0:0:
208,92,98388,2,0,P|244:52|292:36,1,90
400,144,98731,5,0,0:0:0:0:
376,172,98817,1,0,0:0:0:0:
352,200,98903,1,0,0:0:0:0:
252,240,99074,1,0,0:0:0:0:
292,124,99246,1,0,0:0:0:0:
208,36,99417,1,0,0:0:0:0:
128,132,99588,1,0,0:0:0:0:
112,164,99674,1,0,0:0:0:0:
104,196,99760,2,0,P|97:225|120:312,1,90
196,236,100103,6,0,P|244:204|264:164,1,90
336,136,100446,1,0,0:0:0:0:
348,280,100617,1,0,0:0:0:0:
196,236,100788,1,0,0:0:0:0:
268,88,100960,6,0,L|312:36,2,45
304,252,101303,1,0,0:0:0:0:
140,136,101474,1,0,0:0:0:0:
360,144,101646,1,0,0:0:0:0:
380,172,101731,1,0,0:0:0:0:
404,200,101817,2,0,P|416:256|404:296,1,90
240,192,102160,5,0,0:0:0:0:
140,292,102331,1,0,0:0:0:0:
104,292,102417,2,0,P|88:236|104:172,1,90
168,200,102674,2,0,P|140:148|80:124,1,90
256,132,103017,5,0,0:0:0:0:
344,199,103189,2,0,P|361:159|396:131,1,90
444,256,103531,1,0,0:0:0:0:
336,56,103703,1,0,0:0:0:0:
336,56,103789,1,0,0:0:0:0:
336,56,103874,1,0,0:0:0:0:
172,112,104046,6,0,L|176:44,1,45
264,188,104217,2,0,L|272:252,1,45
200,308,104389,1,0,0:0:0:0:
168,292,104474,1,0,0:0:0:0:
144,264,104560,1,0,0:0:0:0:
44,248,104731,2,0,P|68:192|104:164,1,90
232,64,105074,5,0,0:0:0:0:
232,64,105160,1,0,0:0:0:0:
232,64,105246,1,0,0:0:0:0:
288,228,105417,1,0,0:0:0:0:
172,192,105589,1,0,0:0:0:0:
268,88,105760,1,0,0:0:0:0:
92,156,105931,2,0,P|136:112|188:108,1,90
256,208,106274,5,0,0:0:0:0:
268,88,106446,2,0,P|320:88|384:196,1,180
256,208,106960,1,0,0:0:0:0:
240,320,107131,2,0,P|192:296|160:248,1,90
173,69,107474,6,0,P|184:124|168:180,2,90
64,96,107989,1,0,0:0:0:0:
256,128,108160,1,0,0:0:0:0:
72,212,108331,1,0,0:0:0:0:
292,32,108503,1,0,0:0:0:0:
284,220,108674,2,0,P|336:180|352:132,1,90
64,96,109017,5,0,0:0:0:0:
244,304,109189,2,0,P|288:316|348:276,1,90
264,96,109531,1,0,0:0:0:0:
144,252,109703,1,0,0:0:0:0:
400,80,109874,1,0,0:0:0:0:
188,96,110046,6,0,L|136:52,1,45
376,268,110217,2,0,L|408:300,1,45
144,252,110389,2,0,L|96:280,1,45
336,152,110560,1,0,0:0:0:0:
208,336,110731,1,0,0:0:0:0:
256,64,110903,1,0,0:0:0:0:
412,224,111074,5,0,0:0:0:0:
372,248,111160,1,0,0:0:0:0:
328,260,111246,1,0,0:0:0:0:
284,248,111332,1,0,0:0:0:0:
240,232,111417,6,0,L|116:216,1,107.999996704102
112,112,112103,2,0,L|236:88,1,107.999996704102
420,152,112789,2,0,L|304:168,1,107.999996704102
288,296,113474,2,0,L|408:276,1,107.999996704102
256,168,114160,5,0,0:0:0:0:
376,92,114503,1,0,0:0:0:0:
152,80,114846,5,0,0:0:0:0:
112,232,115017,1,0,0:0:0:0:
248,308,115189,1,0,0:0:0:0:
372,216,115360,1,0,0:0:0:0:
344,68,115532,5,0,0:0:0:0:
300,72,115617,1,0,0:0:0:0:
256,84,115703,1,0,0:0:0:0:
220,108,115789,1,0,0:0:0:0:
196,144,115874,1,0,0:0:0:0:
168,180,115960,1,0,0:0:0:0:
132,208,116046,1,0,0:0:0:0:
92,228,116132,1,0,0:0:0:0:
60,236,116217,6,0,L|36:256,7,20.2499993820191
28,232,116560,1,8,0:0:0:0:
276,288,116903,6,0,P|300:240|300:192,2,90
120,152,117417,5,0,0:0:0:0:
216,224,117589,1,0,0:0:0:0:
148,72,117760,1,0,0:0:0:0:
144,256,117932,1,0,0:0:0:0:
300,308,118103,5,0,0:0:0:0:
328,284,118189,1,0,0:0:0:0:
352,256,118274,1,0,0:0:0:0:
444,216,118446,2,0,P|388:160|364:152,1,90
224,144,118789,6,0,L|184:88|184:88,2,45
124,96,119132,1,0,0:0:0:0:
296,172,119303,1,0,0:0:0:0:
144,256,119475,2,0,L|112:296,2,45
207,112,119817,6,0,P|189:152|152:176,1,90
76,88,120160,1,0,0:0:0:0:
92,56,120246,1,0,0:0:0:0:
124,44,120332,1,0,0:0:0:0:
268,44,120503,2,0,P|292:92|292:140,1,90
188,252,120846,6,0,L|140:292,2,45
293,127,121189,1,0,0:0:0:0:
288,264,121360,1,0,0:0:0:0:
388,192,121532,2,0,L|460:176,2,45
232,100,121875,1,0,0:0:0:0:
340,288,122046,1,0,0:0:0:0:
380,96,122217,6,0,L|420:64,2,45
248,184,122560,2,0,P|208:184|144:136,1,90
244,64,122903,1,0,0:0:0:0:
276,52,122989,1,0,0:0:0:0:
312,60,123075,1,0,0:0:0:0:
248,184,123246,1,0,0:0:0:0:
84,152,123417,2,0,P|100:112|172:72,1,90
132,288,123760,5,0,0:0:0:0:
176,164,123932,1,0,0:0:0:0:
268,208,124103,2,0,P|276:160|252:96,1,90
392,268,124446,5,0,0:0:0:0:
380,180,124617,1,0,0:0:0:0:
360,96,124789,1,0,0:0:0:0:
268,208,124960,1,0,0:0:0:0:
260,172,125046,1,0,0:0:0:0:
252,136,125132,1,0,0:0:0:0:
113,189,125303,5,0,0:0:0:0:
240,100,125475,1,0,0:0:0:0:
168,256,125646,2,0,P|112:184|112:160,1,90
152,88,125989,5,0,0:0:0:0:
64,288,126160,1,0,0:0:0:0:
280,224,126332,1,0,0:0:0:0:
288,192,126417,1,0,0:0:0:0:
296,160,126503,2,0,P|312:104|352:72,1,90
416,200,126846,5,0,0:0:0:0:
328,320,127018,1,0,0:0:0:0:
168,248,127189,2,0,P|184:292|248:324,2,90
176,204,127618,1,0,0:0:0:0:
192,160,127703,1,0,0:0:0:0:
220,124,127789,1,0,0:0:0:0:
260,104,127875,1,0,0:0:0:0:
400,144,128046,5,0,0:0:0:0:
324,228,128218,1,0,0:0:0:0:
332,236,128303,1,0,0:0:0:0:
332,236,128389,1,0,0:0:0:0:
224,136,128560,1,0,0:0:0:0:
224,136,128646,1,0,0:0:0:0:
224,136,128732,1,0,0:0:0:0:
93,205,128903,6,0,P|136:216|167:247,1,90
212,324,129246,2,0,P|238:288|251:245,1,90
112,96,129589,1,0,0:0:0:0:
156,96,129675,1,0,0:0:0:0:
200,96,129760,1,0,0:0:0:0:
348,184,129932,1,0,0:0:0:0:
304,184,130018,1,0,0:0:0:0:
260,188,130103,1,0,0:0:0:0:
144,280,130275,5,0,0:0:0:0:
304,184,130446,1,0,0:0:0:0:
248,304,130618,1,0,0:0:0:0:
400,184,130789,1,0,0:0:0:0:
248,80,130960,1,0,0:0:0:0:
248,80,131046,1,0,0:0:0:0:
248,80,131132,1,0,0:0:0:0:
160,228,131303,1,0,0:0:0:0:
128,244,131389,1,0,0:0:0:0:
100,268,131475,1,0,0:0:0:0:
240,344,131646,5,0,0:0:0:0:
280,224,131818,2,0,P|264:168|224:136,1,90
320,292,132160,2,0,P|353:262|365:219,1,90
242,146,132503,1,0,0:0:0:0:
396,76,132675,1,0,0:0:0:0:
396,76,132760,1,0,0:0:0:0:
396,76,132846,1,0,0:0:0:0:
156,116,133018,6,0,P|152:160|167:202,1,90
92,260,133360,2,0,P|124:284|188:292,1,90
356,236,133703,5,0,0:0:0:0:
168,80,134046,5,0,0:0:0:0:
152,236,134389,5,0,0:0:0:0:
356,76,134732,5,0,0:0:0:0:
252,308,135075,5,0,0:0:0:0:
256,24,135418,5,0,0:0:0:0:
84,192,135761,5,0,0:0:0:0:
292,124,136103,5,0,0:0:0:0:
332,144,136189,1,0,0:0:0:0:
364,176,136275,1,0,0:0:0:0:
384,216,136361,1,0,0:0:0:0:
396,260,136446,6,0,L|428:252,3,22.5
312,344,136618,6,0,L|344:328,3,22.5
240,264,136789,6,0,L|216:272,10,15
144,336,137132,6,0,L|160:328,10,15
32,280,137475,1,0,0:0:0:0:
60,168,137646,2,0,P|76:136|140:96,1,90
264,160,137989,1,0,0:0:0:0:
372,92,138161,6,0,L|428:108,1,45
162,93,138332,2,0,L|102:105,1,45
256,224,138503,2,0,L|316:208,1,45
264,76,138675,1,0,0:0:0:0:
264,112,138761,1,0,0:0:0:0:
264,140,138846,1,0,0:0:0:0:
412,240,139189,6,0,P|416:296|440:336,2,72
400,92,139703,1,0,0:0:0:0:
348,188,139875,1,0,0:0:0:0:
264,76,140046,1,0,0:0:0:0:
350,270,140218,6,0,P|304:256|272:212,2,72
256,336,140732,1,0,0:0:0:0:
236,316,140818,2,0,P|204:288|192:232,1,72
216,192,141075,2,0,P|172:192|124:224,1,72
72,296,141418,1,0,0:0:0:0:
88,144,141589,2,0,P|80:104|68:56,2,72
224,76,142103,5,0,0:0:0:0:
252,80,142189,1,0,0:0:0:0:
280,88,142275,1,0,0:0:0:0:
212,248,142446,1,0,0:0:0:0:
352,124,142618,6,0,P|392:104|444:112,1,72
348,204,142961,2,0,P|388:196|420:164,1,72
272,160,143304,1,0,0:0:0:0:
212,248,143475,1,0,0:0:0:0:
184,264,143561,2,0,L|112:304,1,72
120,372,143818,2,0,P|72:356|44:312,1,72
156,140,144161,1,0,0:0:0:0:
68,168,144332,6,0,P|68:128|156:48,1,144
304,216,144846,1,0,0:0:0:0:
240,60,145018,1,0,0:0:0:0:
244,296,145189,1,0,0:0:0:0:
336,72,145361,2,0,P|320:8|296:-16,1,72
190,110,145704,2,0,P|222:70|254:54,1,72
280,144,146046,5,0,0:0:0:0:
176,292,146218,1,0,0:0:0:0:
200,248,146304,2,0,P|228:232|292:232,1,72
260,300,146561,2,0,P|295:295|326:278,1,72
404,164,146904,1,0,0:0:0:0:
480,224,147075,2,0,P|496:192|448:80,1,144
304,80,147589,5,0,0:0:0:0:
248,160,147761,2,0,P|224:136|208:88,1,72
236,240,148104,2,0,P|188:216|164:176,1,72
248,316,148446,2,0,P|281:302|304:275,1,72
248,160,148789,1,0,0:0:0:0:
112,216,148961,1,0,0:0:0:0:
84,184,149046,2,0,L|132:120,1,72
88,64,149304,2,0,P|144:56|184:80,1,72
323,143,149646,5,0,0:0:0:0:
248,160,149818,2,0,P|312:152|336:128,1,80.9999975280763
272,76,150161,1,0,0:0:0:0:
208,228,150332,2,0,P|237:197|245:133,1,80.9999975280763
136,88,150675,6,0,L|92:52,2,36
144,256,151018,1,0,0:0:0:0:
48,144,151189,1,0,0:0:0:0:
104,324,151361,2,0,P|172:328|204:312,1,72
392,232,151704,1,0,0:0:0:0:
408,192,151789,2,0,L|320:152,1,80.9999975280763
352,88,152047,2,0,P|296:96|264:124,1,72
192,236,152389,5,0,0:0:0:0:
334,158,152561,1,0,0:0:0:0:
184,320,152732,2,0,P|224:312|272:264,2,80.9999975280763
72,176,153247,1,0,0:0:0:0:
180,36,153418,2,0,P|212:60|236:116,1,80.9999975280763
156,176,153761,6,0,P|228:208|316:160,1,161.999995056153
320,304,154275,1,0,0:0:0:0:
440,168,154447,1,0,0:0:0:0:
452,124,154532,2,0,P|432:88|388:48,1,80.9999975280763
368,124,154789,2,0,P|312:92|272:80,1,80.9999975280763
356,248,155132,1,0,0:0:0:0:
236,344,155304,5,0,0:0:0:0:
200,352,155389,1,0,0:0:0:0:
168,352,155475,1,0,0:0:0:0:
136,340,155561,1,0,0:0:0:0:
116,316,155647,1,0,0:0:0:0:
104,284,155732,1,0,0:0:0:0:
104,252,155818,1,0,0:0:0:0:
124,220,155904,1,0,0:0:0:0:
148,200,155989,5,0,0:0:0:0:
172,192,156075,1,0,0:0:0:0:
204,192,156161,1,0,0:0:0:0:
236,192,156247,1,0,0:0:0:0:
268,184,156332,1,0,0:0:0:0:
296,172,156418,1,0,0:0:0:0:
324,144,156504,1,0,0:0:0:0:
340,116,156589,1,0,0:0:0:0:
352,32,156675,5,0,0:0:0:0:
312,40,156761,1,0,0:0:0:0:
284,52,156847,1,0,0:0:0:0:
260,76,156932,1,0,0:0:0:0:
232,96,157018,1,0,0:0:0:0:
204,104,157104,1,0,0:0:0:0:
172,104,157189,1,0,0:0:0:0:
140,100,157275,1,0,0:0:0:0:
88,48,157361,5,0,0:0:0:0:
56,76,157447,1,0,0:0:0:0:
40,112,157532,1,0,0:0:0:0:
44,152,157618,1,0,0:0:0:0:
64,184,157704,1,0,0:0:0:0:
96,212,157789,1,0,0:0:0:0:
136,220,157875,1,0,0:0:0:0:
176,208,157961,1,0,0:0:0:0:
136,128,158047,5,0,0:0:0:0:
172,96,158132,1,0,0:0:0:0:
220,108,158218,1,0,0:0:0:0:
256,144,158304,1,0,0:0:0:0:
268,192,158389,1,0,0:0:0:0:
244,236,158475,1,0,0:0:0:0:
220,280,158561,1,0,0:0:0:0:
236,328,158647,1,0,0:0:0:0:
268,364,158732,5,0,0:0:0:0:
316,384,158818,1,0,0:0:0:0:
364,372,158904,1,0,0:0:0:0:
404,344,158990,1,0,0:0:0:0:
428,300,159075,1,0,0:0:0:0:
432,252,159161,1,0,0:0:0:0:
416,208,159247,1,0,0:0:0:0:
384,180,159332,1,0,0:0:0:0:
344,172,159418,6,0,L|300:232,1,67.5
236,328,159761,6,0,L|188:280,1,40.4999987640381
76,256,159932,2,0,L|60:192,1,40.4999987640381
160,81,160104,5,0,0:0:0:0:
188,65,160190,1,0,0:0:0:0:
220,53,160275,1,0,0:0:0:0:
252,45,160361,1,0,0:0:0:0:
284,45,160447,1,0,0:0:0:0:
316,53,160532,1,0,0:0:0:0:
348,65,160618,1,0,0:0:0:0:
376,85,160704,1,0,0:0:0:0:
396,105,160790,6,0,P|396:184|388:209,1,76.5000014591217
244,248,161132,1,0,0:0:0:0:
296,156,161304,1,0,0:0:0:0:
164,232,161475,2,0,P|200:176|232:164,1,76.5000014591217
288,284,161818,5,0,0:0:0:0:
364,176,161990,2,0,P|391:202|408:237,2,76.5000014591217
248,120,162504,6,0,P|240:76|208:40,1,76.5000014591217
160,112,162847,2,0,P|128:140|104:184,1,76.5000014591217
224,260,163190,2,0,P|200:232|196:176,1,76.5000014591217
276,148,163532,6,0,P|248:116|200:100,2,76.5000014591217
128,268,164047,1,0,0:0:0:0:
217,102,164218,1,0,0:0:0:0:
172,312,164390,1,0,0:0:0:0:
172,76,164561,1,0,0:0:0:0:
292,300,164732,2,0,P|300:252|284:208,1,76.5000014591217
217,102,165075,5,0,0:0:0:0:
212,260,165247,2,0,P|160:272|112:248,1,76.5000014591217
276,135,165590,1,0,0:0:0:0:
168,192,165761,1,0,0:0:0:0:
352,172,165932,2,0,P|360:136|328:72,1,76.5000014591217
84,96,166275,6,0,P|96:128|110:167,1,76.5000014591217
144,280,166618,1,0,0:0:0:0:
192,144,166790,1,0,0:0:0:0:
208,232,166961,2,0,P|256:208|276:180,1,76.5000014591217
348,224,167304,2,0,P|356:172|340:132,2,76.5000014591217
192,144,167818,5,0,0:0:0:0:
136,56,167990,2,0,P|180:40|240:48,1,76.5000014591217
276,112,168333,2,0,P|304:68|308:36,1,76.5000014591217
404,120,168675,2,0,P|376:164|372:196,1,76.5000014591217
424,268,169018,2,0,P|352:284|276:224,1,153.000002918243
213,131,169533,5,0,0:0:0:0:
116,264,169704,2,0,P|128:192|148:164,1,76.5000014591217
287,244,170047,1,0,0:0:0:0:
404,120,170218,1,0,0:0:0:0:
213,131,170390,6,0,L|160:92,1,38.2500007295609
76,164,170561,1,0,0:0:0:0:
287,244,170733,1,0,0:0:0:0:
212,40,170904,1,0,0:0:0:0:
120,288,171075,1,0,0:0:0:0:
352,44,171247,1,0,0:0:0:0:
116,80,171418,6,0,L|68:52,1,38.2500007295609
352,176,171590,2,0,L|402:204,1,38.2500007295609
172,248,171761,6,0,P|120:260|67:252,1,107.999996704102
316,212,172447,2,0,P|369:220|421:208,1,107.999996704102
172,132,173133,2,0,P|120:144|67:136,1,107.999996704102
316,72,173818,2,0,P|368:84|422:76,1,107.999996704102
172,24,174504,2,0,L|172:137,1,107.999996704102
315,179,175190,2,0,L|316:72,1,107.999996704102
172,132,175876,2,0,L|173:247,1,107.999996704102
315,287,176561,2,0,L|315:179,1,107.999996704102
372,56,177247,5,0,0:0:0:0:
148,136,177933,1,0,0:0:0:0:
432,120,178618,1,0,0:0:0:0:
116,52,179304,1,0,0:0:0:0:
360,188,179990,5,0,0:0:0:0:
192,104,180333,1,0,0:0:0:0:
408,80,180676,1,0,0:0:0:0:
140,212,181018,1,0,0:0:0:0:
448,152,181361,5,0,0:0:0:0:
76,248,181533,1,0,0:0:0:0:
340,40,181704,1,0,0:0:0:0:
104,368,181876,1,0,0:0:0:0:
228,104,182047,1,0,0:0:0:0:
224,148,182133,1,0,0:0:0:0:
248,188,182218,1,0,0:0:0:0:
292,204,182304,1,0,0:0:0:0:
336,192,182390,2,0,L|372:144,3,38.2500007295609
340,40,182733,6,0,P|384:40|428:60,1,76.5000014591217
444,88,182990,1,0,0:0:0:0:
462,131,183076,1,0,0:0:0:0:
480,300,183247,5,0,0:0:0:0:
336,192,183419,2,0,L|304:232,1,38.2500007295609
168,308,183590,2,0,L|204:255,1,38.2500007295609
228,68,183761,2,0,L|196:108,1,38.2500007295609
20,212,183933,2,0,L|56:160,1,38.2500007295609
136,384,184104,2,0,P|104:352|92:284,1,90
184,164,184447,5,0,0:0:0:0:
168,308,184619,1,0,0:0:0:0:
277,249,184790,1,0,0:0:0:0:
112,120,184961,2,0,P|156:88|224:88,1,90
277,249,185304,6,0,L|325:237,1,45
385,297,185476,2,0,P|405:257|407:213,1,90
280,140,185819,5,0,0:0:0:0:
404,76,185990,1,0,0:0:0:0:
404,76,186076,1,0,0:0:0:0:
404,76,186161,1,0,0:0:0:0:
232,28,186333,1,0,0:0:0:0:
284,232,186504,2,0,P|220:212|184:172,1,90
100,228,186847,2,0,P|122:142|204:92,1,180
284,232,187361,5,0,0:0:0:0:
194,93,187533,2,0,P|256:84|304:96,1,90
192,268,187876,1,0,0:0:0:0:
352,108,188047,1,0,0:0:0:0:
156,192,188219,2,0,P|112:232|104:268,1,90
176,292,188476,1,0,0:0:0:0:
192,268,188561,1,0,0:0:0:0:
148,108,188733,6,0,P|192:116|236:160,2,90
312,32,189247,1,0,0:0:0:0:
226,143,189419,1,0,0:0:0:0:
291,212,189590,6,0,P|252:233|208:236,1,90
226,143,189933,2,0,P|262:95|314:79,1,90
348,224,190276,1,0,0:0:0:0:
412,76,190447,1,0,0:0:0:0:
336,312,190619,6,0,P|392:300|436:260,1,90
500,256,190962,2,0,P|464:212|412:196,1,90
336,312,191304,5,0,0:0:0:0:
248,220,191476,1,0,0:0:0:0:
216,212,191562,2,0,P|168:220|128:256,1,90
200,288,191819,2,0,L|156:210,1,90
152,132,192162,1,0,0:0:0:0:
150,351,192333,6,0,P|192:367|236:360,1,90
292,124,192676,1,0,0:0:0:0:
200,288,192847,1,0,0:0:0:0:
208,92,193019,2,0,P|244:52|292:36,1,90
400,144,193362,5,0,0:0:0:0:
376,172,193447,1,0,0:0:0:0:
352,200,193533,1,0,0:0:0:0:
232,240,193704,1,0,0:0:0:0:
292,124,193876,1,0,0:0:0:0:
208,36,194047,1,0,0:0:0:0:
128,132,194219,1,0,0:0:0:0:
112,164,194304,1,0,0:0:0:0:
104,196,194390,2,0,P|97:225|120:312,1,90
196,236,194733,6,0,P|244:204|264:164,1,90
260,48,195076,1,0,0:0:0:0:
180,152,195247,1,0,0:0:0:0:
372,88,195419,1,0,0:0:0:0:
156,60,195590,6,0,L|88:28,2,45
304,272,195933,1,0,0:0:0:0:
372,88,196104,1,0,0:0:0:0:
152,144,196276,1,0,0:0:0:0:
132,172,196362,1,0,0:0:0:0:
112,204,196447,6,0,P|100:260|112:300,1,90
204,256,196790,1,0,0:0:0:0:
236,352,196962,1,0,0:0:0:0:
257,345,197047,2,0,P|297:297|305:261,1,90
412,252,197304,2,0,P|384:200|324:176,1,90
204,256,197647,5,0,0:0:0:0:
264,168,197819,2,0,P|281:128|316:100,1,90
412,252,198162,1,0,0:0:0:0:
260,80,198333,1,0,0:0:0:0:
260,80,198419,1,0,0:0:0:0:
260,80,198505,1,0,0:0:0:0:
124,164,198676,6,0,L|100:92,1,45
264,192,198847,2,0,L|292:256,1,45
224,336,199019,1,0,0:0:0:0:
188,312,199105,1,0,0:0:0:0:
168,272,199190,1,0,0:0:0:0:
44,248,199362,2,0,P|68:192|104:164,1,90
232,64,199705,5,0,0:0:0:0:
232,64,199790,1,0,0:0:0:0:
232,64,199876,1,0,0:0:0:0:
376,204,200047,1,0,0:0:0:0:
168,272,200219,1,0,0:0:0:0:
232,144,200390,1,0,0:0:0:0:
92,240,200562,2,0,P|136:196|188:192,1,90
236,336,200905,5,0,0:0:0:0:
280,208,201076,2,0,P|340:252|372:364,1,180
156,352,201590,1,0,0:0:0:0:
280,208,201762,2,0,P|324:168|384:152,1,90
440,104,202105,6,0,P|451:159|435:215,2,90
216,80,202619,1,0,0:0:0:0:
368,148,202790,1,0,0:0:0:0:
164,232,202962,1,0,0:0:0:0:
292,32,203133,1,0,0:0:0:0:
304,296,203305,2,0,P|356:256|372:208,1,90
92,76,203647,5,0,0:0:0:0:
264,364,203819,2,0,P|308:376|368:336,1,90
360,68,204162,1,0,0:0:0:0:
136,328,204333,1,0,0:0:0:0:
452,100,204505,1,0,0:0:0:0:
140,72,204676,6,0,L|80:32,1,45
400,300,204847,2,0,L|428:336,1,45
48,236,205019,2,0,L|4:204,1,45
364,148,205190,1,0,0:0:0:0:
136,328,205362,1,0,0:0:0:0:
249,69,205533,1,0,0:0:0:0:
412,224,205705,5,0,0:0:0:0:
344,252,205790,1,0,0:0:0:0:
272,256,205876,1,0,0:0:0:0:
200,240,205962,1,0,0:0:0:0:
140,192,206048,6,0,P|128:160|152:80,1,107.999996704102
143,90,206733,2,0,L|267:66,1,107.999996704102
420,152,207419,2,0,L|304:168,1,107.999996704102
168,304,208105,2,0,L|288:284,1,107.999996704102
364,104,208790,5,0,0:0:0:0:
212,216,209133,1,0,0:0:0:0:
284,64,209476,5,0,0:0:0:0:
340,216,209648,1,0,0:0:0:0:
192,40,209819,1,0,0:0:0:0:
264,284,209990,1,0,0:0:0:0:
112,132,210162,5,0,0:0:0:0:
88,172,210248,1,0,0:0:0:0:
84,216,210333,1,0,0:0:0:0:
96,260,210419,1,0,0:0:0:0:
128,292,210505,1,0,0:0:0:0:
172,308,210590,1,0,0:0:0:0:
220,308,210676,1,0,0:0:0:0:
264,288,210762,1,0,0:0:0:0:
296,248,210848,6,0,L|316:220,7,19.1250003647804
196,200,211190,1,8,0:0:0:0:
340,80,211533,6,0,B|404:120|404:120|440:48|440:48|380:-4|380:-4|272:-12|204:28|216:76|260:280|280:132|332:100|300:184|412:172|372:256,1,652.5
292,236,214276,6,0,B|244:228|208:204|208:204|156:136|160:88|176:32|176:32|76:72|76:72|76:184|124:272|176:296|232:308,1,675
326,318,217019,6,0,B|382:302|406:270|390:250|410:226|402:210|398:186|370:166|350:166|350:166|286:142|258:94|246:30|314:-2|390:14|418:46|426:106|370:142|286:242,1,675
232,176,219762,6,0,B|204:200|204:240|208:268|224:284|244:296|244:296|152:332|136:340|136:340|108:268|80:176|144:48|284:60|312:148,1,675
256,192,222505,12,0,227991,0:0:0:0:
256,188,228676,5,0,0:0:0:0:
256,188,229362,5,0,0:0:0:0:
256,188,230048,5,0,0:0:0:0:
256,188,230734,5,0,0:0:0:0:
296,116,231077,1,0,0:0:0:0:
376,80,231419,1,0,0:0:0:0:
456,108,231762,1,0,0:0:0:0:
456,200,232105,5,0,0:0:0:0:
296,116,232277,1,0,0:0:0:0:
464,288,232448,1,0,0:0:0:0:
272,208,232619,1,0,0:0:0:0:
252,308,232791,5,0,0:0:0:0:
220,292,232877,1,0,0:0:0:0:
192,272,232962,1,0,0:0:0:0:
164,252,233048,1,0,0:0:0:0:
72,208,233134,2,8,L|84:136,1,45
172,72,233305,2,0,L|208:120,1,45
272,208,233477,6,0,P|312:168|304:100,1,90
264,28,233819,5,0,0:0:0:0:
164,168,233991,1,0,0:0:0:0:
304,116,234162,1,0,0:0:0:0:
372,192,234334,6,0,P|404:148|404:80,1,90
143,97,234677,2,0,L|191:85,1,45
272,60,234848,2,0,P|270:104|249:143,1,90
364,60,235191,5,0,0:0:0:0:
143,97,235362,1,0,0:0:0:0:
112,116,235448,1,0,0:0:0:0:
84,140,235534,1,0,0:0:0:0:
224,208,235705,1,0,0:0:0:0:
232,304,235877,2,0,P|168:284|132:244,1,90
196,128,236219,6,0,P|278:138|308:224,1,180
392,120,236734,5,0,0:0:0:0:
196,128,236905,2,0,P|192:80|220:20,1,90
392,120,237248,1,0,0:0:0:0:
304,268,237419,1,0,0:0:0:0:
196,128,237591,2,0,P|152:168|136:204,1,90
232,212,237848,1,0,0:0:0:0:
260,236,237934,1,0,0:0:0:0:
260,344,238105,6,0,P|216:336|172:292,2,90
376,240,238620,1,0,0:0:0:0:
266,154,238791,1,0,0:0:0:0:
104,196,238962,6,0,P|164:188|196:164,1,90
132,112,239305,2,0,P|168:64|220:48,1,90
288,232,239648,1,0,0:0:0:0:
132,112,239820,1,0,0:0:0:0:
76,268,239991,6,0,P|132:268|176:212,1,90
300,328,240334,2,0,P|244:328|200:272,1,90
404,184,240677,5,0,0:0:0:0:
292,84,240848,1,0,0:0:0:0:
256,84,240934,2,0,P|196:104|164:160,1,90
248,164,241191,2,0,L|204:86,1,90
60,60,241534,1,0,0:0:0:0:
87,145,241705,6,0,P|73:105|55:45,1,90
248,164,242048,1,0,0:0:0:0:
112,276,242220,1,0,0:0:0:0:
168,136,242391,2,0,P|204:96|252:80,1,90
384,172,242734,5,0,0:0:0:0:
384,172,242820,1,0,0:0:0:0:
384,172,242905,1,0,0:0:0:0:
252,240,243077,1,0,0:0:0:0:
316,52,243248,1,0,0:0:0:0:
340,316,243420,1,0,0:0:0:0:
188,132,243591,5,0,0:0:0:0:
172,164,243677,1,0,0:0:0:0:
164,196,243762,2,0,P|157:225|180:312,1,90
172,364,244105,2,0,P|224:344|244:304,1,90
336,136,244448,5,0,0:0:0:0:
412,284,244620,1,0,0:0:0:0:
252,240,244791,1,0,0:0:0:0:
268,88,244962,6,0,L|312:36,2,45
336,232,245305,1,0,0:0:0:0:
136,64,245477,1,0,0:0:0:0:
374,141,245648,5,0,0:0:0:0:
404,160,245734,1,0,0:0:0:0:
420,192,245820,2,0,P|424:252|408:288,1,90
264,204,246163,1,0,0:0:0:0:
140,292,246334,1,0,0:0:0:0:
104,292,246420,2,0,P|88:236|104:172,1,90
168,200,246677,2,0,P|140:148|80:124,1,90
256,132,247020,5,0,0:0:0:0:
344,199,247191,2,0,P|361:159|396:131,1,90
444,256,247534,1,0,0:0:0:0:
336,56,247705,1,0,0:0:0:0:
336,56,247791,1,0,0:0:0:0:
336,56,247877,1,0,0:0:0:0:
312,296,248048,6,0,L|296:228,1,45
216,68,248220,2,0,L|212:132,1,45
200,308,248391,1,0,0:0:0:0:
168,292,248477,1,0,0:0:0:0:
144,264,248563,1,0,0:0:0:0:
44,248,248734,2,0,P|68:192|104:164,1,90
232,64,249077,5,0,0:0:0:0:
232,64,249163,1,0,0:0:0:0:
232,64,249248,1,0,0:0:0:0:
360,224,249420,1,0,0:0:0:0:
156,192,249591,1,0,0:0:0:0:
344,60,249763,1,0,0:0:0:0:
76,160,249934,2,0,P|120:116|172:112,1,90
224,304,250277,5,0,0:0:0:0:
332,132,250448,2,0,P|384:132|448:240,1,180
256,208,250963,5,0,0:0:0:0:
216,344,251134,2,0,P|168:320|136:272,1,90
173,69,251477,6,0,P|184:124|168:180,2,90
64,116,251991,1,0,0:0:0:0:
332,132,252163,1,0,0:0:0:0:
44,260,252334,1,0,0:0:0:0:
320,24,252505,1,0,0:0:0:0:
272,288,252677,2,0,P|324:248|340:200,1,90
88,48,253020,5,0,0:0:0:0:
232,356,253191,2,0,P|276:368|336:328,1,90
224,40,253534,1,0,0:0:0:0:
100,312,253706,1,0,0:0:0:0:
384,56,253877,1,0,0:0:0:0:
144,128,254048,6,0,L|60:128,1,45
380,172,254220,2,0,L|432:172,1,45
184,288,254391,2,0,L|128:292,1,45
336,152,254563,1,0,0:0:0:0:
232,356,254734,1,0,0:0:0:0:
196,64,254906,1,0,0:0:0:0:
412,224,255077,5,0,0:0:0:0:
368,244,255163,1,0,0:0:0:0:
320,252,255248,1,0,0:0:0:0:
272,236,255334,1,0,0:0:0:0:
236,220,255420,6,0,P|208:204|120:212,1,107.999996704102
268,136,256106,2,0,P|284:108|276:20,1,107.999996704102
332,192,256791,2,0,P|360:208|448:200,1,107.999996704102
312,272,257477,2,0,P|296:300|304:388,1,107.999996704102
216,256,258163,5,0,0:0:0:0:
292,160,258506,1,0,0:0:0:0:
236,72,258848,5,0,0:0:0:0:
128,256,259020,1,0,0:0:0:0:
88,56,259191,1,0,0:0:0:0:
288,244,259363,1,0,0:0:0:0:
344,68,259534,5,0,0:0:0:0:
308,76,259620,1,0,0:0:0:0:
276,92,259706,1,0,0:0:0:0:
248,116,259791,1,0,0:0:0:0:
232,148,259877,1,0,0:0:0:0:
212,180,259963,1,0,0:0:0:0:
188,204,260048,1,0,0:0:0:0:
156,220,260134,1,0,0:0:0:0:
120,228,260220,6,0,L|92:208,7,20.2499993820191
168,328,260563,2,0,L|184:344,3,22.5
24,336,260906,1,0,0:0:0:0:
104,112,261934,6,8,L|164:56,1,45
308,220,262277,6,0,P|308:172|284:124,2,90
84,232,262791,1,0,0:0:0:0:
208,196,262963,1,0,0:0:0:0:
168,316,263134,1,0,0:0:0:0:
312,324,263306,1,0,0:0:0:0:
400,100,263477,5,0,0:0:0:0:
408,108,263563,1,0,0:0:0:0:
408,108,263649,1,0,0:0:0:0:
232,104,263820,2,0,P|288:48|296:24,1,90
208,24,264163,6,0,L|124:32|124:32,2,45
108,152,264506,1,0,0:0:0:0:
228,212,264677,1,0,0:0:0:0:
104,280,264849,2,0,L|72:320,2,45
64,88,265191,6,0,P|116:72|176:104,1,90
228,212,265534,1,0,0:0:0:0:
248,176,265620,1,0,0:0:0:0:
264,136,265706,1,0,0:0:0:0:
348,68,265877,2,0,P|372:116|372:164,1,90
280,296,266220,6,0,L|232:336,2,45
432,244,266563,1,0,0:0:0:0:
264,136,266734,1,0,0:0:0:0:
384,340,266906,2,0,L|456:324,2,45
400,136,267249,1,0,0:0:0:0:
280,296,267420,1,0,0:0:0:0:
264,136,267591,6,0,L|304:104,2,45
288,216,267934,2,0,P|248:216|184:168,1,90
276,40,268277,1,0,0:0:0:0:
280,48,268363,1,0,0:0:0:0:
280,48,268449,1,0,0:0:0:0:
136,112,268620,1,0,0:0:0:0:
48,104,268791,2,0,P|64:64|136:24,1,90
216,208,269134,5,0,0:0:0:0:
264,112,269306,1,0,0:0:0:0:
128,204,269477,2,0,P|140:256|184:292,1,90
312,184,269820,1,0,0:0:0:0:
392,272,269992,1,0,0:0:0:0:
360,88,270163,1,0,0:0:0:0:
216,160,270334,1,0,0:0:0:0:
216,160,270420,1,0,0:0:0:0:
216,160,270506,1,0,0:0:0:0:
88,76,270677,5,0,0:0:0:0:
88,260,270849,1,0,0:0:0:0:
312,184,271020,2,0,P|292:224|232:244,1,90
152,88,271363,1,0,0:0:0:0:
64,288,271534,1,0,0:0:0:0:
312,184,271706,1,0,0:0:0:0:
320,152,271792,1,0,0:0:0:0:
328,120,271877,2,0,P|344:64|384:32,1,90
432,220,272220,5,0,0:0:0:0:
284,292,272392,1,0,0:0:0:0:
204,152,272563,2,0,P|236:88|220:40,2,90
144,84,272992,1,0,0:0:0:0:
112,116,273077,1,0,0:0:0:0:
104,160,273163,1,0,0:0:0:0:
120,204,273249,1,0,0:0:0:0:
320,112,273420,5,0,0:0:0:0:
292,272,273592,1,0,0:0:0:0:
300,280,273677,1,0,0:0:0:0:
300,280,273763,1,0,0:0:0:0:
200,160,273934,1,0,0:0:0:0:
200,160,274020,1,0,0:0:0:0:
200,160,274106,1,0,0:0:0:0:
64,272,274277,6,0,P|96:304|160:312,1,90
180,380,274620,2,0,P|212:332|212:300,1,90
288,152,274963,1,0,0:0:0:0:
328,128,275049,1,0,0:0:0:0:
372,124,275134,1,0,0:0:0:0:
396,212,275306,1,0,0:0:0:0:
360,236,275392,1,0,0:0:0:0:
316,248,275477,1,0,0:0:0:0:
240,84,275649,5,0,0:0:0:0:
148,228,275820,1,0,0:0:0:0:
148,88,275992,1,0,0:0:0:0:
240,288,276163,1,0,0:0:0:0:
80,328,276334,1,0,0:0:0:0:
80,328,276420,1,0,0:0:0:0:
80,328,276506,1,0,0:0:0:0:
56,172,276677,1,0,0:0:0:0:
56,172,276763,1,0,0:0:0:0:
56,172,276849,1,0,0:0:0:0:
240,84,277020,5,0,0:0:0:0:
324,92,277192,2,0,P|308:36|268:4,1,90
197,7,277535,2,0,P|164:37|152:80,1,90
240,192,277877,1,0,0:0:0:0:
240,84,278049,1,0,0:0:0:0:
240,84,278135,1,0,0:0:0:0:
240,84,278220,1,0,0:0:0:0:
196,260,278392,6,0,P|244:276|296:244,1,90
368,308,278735,2,0,L|368:200,1,90
328,72,279077,5,0,0:0:0:0:
156,136,279420,1,0,0:0:0:0:
236,304,279763,1,0,0:0:0:0:
404,240,280106,1,0,0:0:0:0:
272,64,280449,1,0,0:0:0:0:
184,272,280792,1,0,0:0:0:0:
412,184,281135,1,0,0:0:0:0:
148,96,281477,5,0,0:0:0:0:
88,136,281563,1,0,0:0:0:0:
72,208,281649,1,0,0:0:0:0:
92,280,281735,1,0,0:0:0:0:
156,316,281820,2,0,L|188:308,3,22.5
248,200,281992,6,0,L|280:184,3,22.5
312,316,282163,6,0,L|288:324,10,15
392,224,282506,6,0,L|408:216,10,15
408,200,282849,1,0,0:0:0:0:
368,72,283020,2,0,L|284:120,1,90
180,252,283363,1,0,0:0:0:0:
132,112,283535,6,0,L|72:56,1,45
264,232,283706,2,0,L|296:280,1,45
232,52,283877,2,0,L|260:8,1,45
92,268,284049,2,0,L|56:296,1,45
224,156,284220,6,0,P|272:148|320:172,1,90
264,232,284563,1,0,0:0:0:0:
388,252,285077,5,0,0:0:0:0:
344,324,285249,2,0,P|388:336|460:300,1,90
420,144,285592,2,0,P|396:88|360:64,1,90
312,156,285935,1,0,0:0:0:0:
232,264,286192,5,0,0:0:0:0:
224,268,286278,1,0,0:0:0:0:
124,200,286449,1,0,0:0:0:0:
216,112,286620,1,0,0:0:0:0:
60,288,286963,6,0,P|72:328|124:372,1,90
140,292,287306,1,0,0:0:0:0:
232,200,287820,5,0,0:0:0:0:
272,128,287992,2,0,P|228:120|152:152,1,90
380,216,288335,2,0,P|424:208|500:240,1,90
420,288,288678,1,0,0:0:0:0:
288,316,288935,5,0,0:0:0:0:
292,324,289020,1,0,0:0:0:0:
176,252,289192,1,0,0:0:0:0:
304,196,289363,1,0,0:0:0:0:
176,252,289706,6,0,P|136:240|92:188,1,90
192,152,290049,1,0,0:0:0:0:
188,132,290563,5,0,0:0:0:0:
280,180,290735,2,0,P|288:136|264:60,1,90
249,298,291078,2,0,P|193:274|169:238,1,90
112,92,291420,1,0,0:0:0:0:
204,156,291678,5,0,0:0:0:0:
200,160,291763,1,0,0:0:0:0:
124,248,291935,1,0,0:0:0:0:
48,152,292106,1,0,0:0:0:0:
308,72,292449,6,0,P|372:52|420:60,1,90
376,148,292792,1,0,0:0:0:0:
264,212,293306,5,0,0:0:0:0:
312,296,293478,2,0,P|268:304|192:280,1,90
168,188,293821,2,0,P|208:148|264:124,1,90
328,152,294163,2,0,P|302:188|264:211,1,90
144,20,294506,5,0,0:0:0:0:
160,36,294592,1,0,0:0:0:0:
176,52,294678,1,0,0:0:0:0:
192,68,294763,1,0,0:0:0:0:
208,84,294849,1,0,0:0:0:0:
224,100,294935,1,0,0:0:0:0:
240,116,295021,1,0,0:0:0:0:
252,132,295106,1,0,0:0:0:0:
268,148,295192,6,0,P|308:208|308:256,1,90
220,224,295535,1,0,0:0:0:0:
116,184,296049,5,0,0:0:0:0:
44,136,296221,2,0,P|36:180|60:256,1,90
116,348,296563,2,0,P|140:292|176:268,1,90
304,320,296906,1,0,0:0:0:0:
232,128,297163,5,0,0:0:0:0:
240,128,297249,1,0,0:0:0:0:
260,252,297421,1,0,0:0:0:0:
368,172,297592,1,0,0:0:0:0:
152,148,297935,6,0,P|152:108|200:44,1,90
68,92,298278,1,0,0:0:0:0:
300,228,298792,5,0,0:0:0:0:
214,204,298963,2,0,P|214:244|166:308,1,90
112,312,299306,2,0,P|113:268|135:229,1,90
292,104,299649,1,0,0:0:0:0:
104,152,299906,5,0,0:0:0:0:
112,160,299992,1,0,0:0:0:0:
191,287,300163,1,0,0:0:0:0:
268,168,300335,2,0,P|300:208|376:224,1,90
392,96,300678,5,0,0:0:0:0:
384,60,300763,1,0,0:0:0:0:
356,36,300849,1,0,0:0:0:0:
320,28,300935,1,0,0:0:0:0:
284,28,301021,1,0,0:0:0:0:
248,48,301106,1,0,0:0:0:0:
228,84,301192,1,0,0:0:0:0:
224,124,301278,1,0,0:0:0:0:
236,160,301364,5,0,0:0:0:0:
260,188,301449,1,0,0:0:0:0:
292,204,301535,2,0,L|328:260,1,45
392,264,301706,5,0,0:0:0:0:
384,308,301792,1,0,0:0:0:0:
348,336,301878,1,0,0:0:0:0:
312,332,301964,1,0,0:0:0:0:
280,316,302049,2,0,L|228:280,1,45
128,284,302221,5,0,0:0:0:0:
104,252,302306,1,0,0:0:0:0:
104,212,302392,2,0,L|128:164,1,45
268,76,302564,5,0,0:0:0:0:
260,84,302649,2,0,L|224:128,1,45
304,236,302821,1,0,0:0:0:0:
312,236,302906,2,0,L|364:184,1,45
444,128,303078,5,0,0:0:0:0:
436,92,303164,1,0,0:0:0:0:
412,64,303249,1,0,0:0:0:0:
380,48,303335,1,0,0:0:0:0:
344,60,303421,6,0,L|304:124,1,45
236,296,303592,2,0,L|220:228,1,45
132,56,303764,2,0,L|166:119,1,45
340,216,303935,2,0,L|280:184,1,45
80,212,304106,2,0,L|140:168,1,45
284,48,304278,2,0,L|250:100,1,45
124,328,304449,2,0,L|156:280,1,45
284,160,304621,5,0,0:0:0:0:
276,192,304706,1,0,0:0:0:0:
268,224,304792,1,0,0:0:0:0:
56,308,304964,5,0,0:0:0:0:
28,72,305135,1,0,0:0:0:0:
284,48,305306,1,0,0:0:0:0:
424,208,305478,5,0,0:0:0:0:
392,256,305564,1,0,0:0:0:0:
352,296,305649,1,0,0:0:0:0:
296,320,305735,1,0,0:0:0:0:
208,344,305821,2,0,L|208:272,1,45
152,208,305992,2,0,L|128:256,1,45
56,308,306164,1,4,0:0:0:0:
