osu file format v9

[General]
AudioFilename: Authentic symphony.mp3
AudioLeadIn: 0
PreviewTime: 59298
Countdown: 0
SampleSet: Soft
StackLeniency: 0.7
Mode: 0
LetterboxInBreaks: 0

[Editor]
DistanceSpacing: 1.6
BeatDivisor: 4
GridSize: 8

[Metadata]
Title:Authentic symphony
Artist:ChouCho
Creator:S i R i R u
Version:Easy
Source:Mashiro Iro Symphony -The color of lovers-
Tags:palette opening osuplayer111 siriru patchouli suzully inaba-tan

[Difficulty]
HPDrainRate:2
CircleSize:3
OverallDifficulty:2
ApproachRate:3
SliderMultiplier:0.6
SliderTickRate:1

[Events]
//Background and Video events
0,0,"BG RuRu.jpg"
//Break Periods
2,47998,51844
2,87770,97101
2,131655,135501
//Storyboard Layer 0 (Background)
//Storyboard Layer 1 (Fail)
//Storyboard Layer 2 (Pass)
//Storyboard Layer 3 (Foreground)
Sprite,Foreground,Centre,"SB\BG Effect1.jpg",320,240 F,0,14541,15570,0,1 S,0,14541,20370,1.047829,1.046395 M,0,14541,37856,174,239,417,239 F,0,15570,36827,1 S,0,20370,70084,1.046395,1.034163 F,0,36827,37856,1,0 M,0,37856,70427,417,239,289,240 F,0,37856,98541,0 M,0,70427,95152,289,240,188,240 M,0,95152,95162,188,240 M,0,95162,95172,188,240 M,0,95172,95182,188,240 M,0,95182,95192,188,240 M,0,95192,95202,188,240 M,0,95202,95212,188,240 M,0,95212,95222,188,240 M,0,95222,95232,188,240 M,0,95232,98541,188,240,175,240 F,0,98541,99570,0,0.9497509 M,0,98541,120484,175,240,416,240 F,0,99570,120484,0.9497509,1 F,0,120484,121170,1,0
Sprite,Foreground,Centre,"SB\Black Effect.png",320,240 S,0,60141,,1.621779 F,0,60141,60484,0,0.3377223 M,0,60141,69134,320,240 F,0,60484,60827,0.3377223,0.6754446 F,0,60827,62884,0.6754446,0.9093335 F,0,62884,87570,0.9093335,0.8804271 M,0,69134,69144,320,240 M,0,69144,69154,320,240 M,0,69154,69164,320,240 M,0,69164,69174,320,240 M,0,69174,69184,320,240 F,0,87570,88941,0.8804271,0 F,0,88941,143456,0 F,0,143456,143798,0 F,0,143798,171227,0 F,0,171227,172256,0 F,0,172256,172598,0
Sprite,Foreground,Centre,"SB\Black Effect.png",320,240 M,0,14884,,460,237 S,0,14884,,1.239146 R,0,14884,,-1.57153 F,0,14884,16256,0,0.8575088 F,0,16256,36827,0.8575088,0.8677579 F,0,36827,37856,0.8677579,0 F,0,37856,98541,0 F,0,98541,99570,0,1 F,0,99570,120484,1,0.8096852 F,0,120484,120998,0.8096852,0 F,0,120998,121341,0
Sprite,Foreground,Centre,"SB\BG Effect2.jpg",320,240 F,0,143112,143798,0,1 S,0,143798,,1.608114 F,0,143798,144484,1 F,0,144484,171227,1,0.987331 F,0,171227,171912,0.987331,0
Sprite,Foreground,Centre,"dot.png",320,240 S,0,142676,,0.1821739 C,0,142676,,255,255,255 M,0,142676,150676,334,490,334,310 R,0,142676,150676,8.319425,11.80072 F,0,149076,150676,1,0
Sprite,Foreground,Centre,"dot.png",320,240 S,0,142976,,0.1449063 C,0,142976,,255,255,255 M,0,142976,150976,188,490,188,310 R,0,142976,150976,3.543063,6.751339 F,0,149376,150976,1,0
Sprite,Foreground,Centre,"dot.png",320,240 S,0,143276,,0.3175516 C,0,143276,,255,255,255 M,0,143276,151276,137,490,137,310 R,0,143276,151276,11.64456,2.802755 F,0,149676,151276,1,0
Sprite,Foreground,Centre,"dot.png",320,240 S,0,143576,,0.8771944 C,0,143576,,255,255,255 M,0,143576,151576,305,490,305,310 R,0,143576,151576,11.23536,11.27205 F,0,149976,151576,1,0
Sprite,Foreground,Centre,"dot.png",320,240 S,0,143876,,0.1991928 C,0,143876,,255,255,255 M,0,143876,151876,496,490,496,310 R,0,143876,151876,7.426389,7.338649 F,0,150276,151876,1,0
Sprite,Foreground,Centre,"dot.png",320,240 S,0,144176,,0.7405614 C,0,144176,,255,255,255 M,0,144176,152176,425,490,425,310 R,0,144176,152176,3.322705,2.099056 F,0,150576,152176,1,0
Sprite,Foreground,Centre,"dot.png",320,240 S,0,144476,,0.9018857 C,0,144476,,255,255,255 M,0,144476,152476,81,490,81,310 R,0,144476,152476,7.408011,12.35484 F,0,150876,152476,1,0
Sprite,Foreground,Centre,"dot.png",320,240 S,0,144776,,0.2199238 C,0,144776,,255,255,255 M,0,144776,152776,44,490,44,310 R,0,144776,152776,4.010782,8.7654 F,0,151176,152776,1,0
Sprite,Foreground,Centre,"dot.png",320,240 S,0,145076,,0.4923076 C,0,145076,,255,255,255 M,0,145076,153076,38,490,38,310 R,0,145076,153076,9.524989,4.728019 F,0,151476,153076,1,0
Sprite,Foreground,Centre,"dot.png",320,240 S,0,145376,,0.3004801 C,0,145376,,255,255,255 M,0,145376,153376,120,490,120,310 R,0,145376,153376,4.295438,3.616306 F,0,151776,153376,1,0
Sprite,Foreground,Centre,"dot.png",320,240 S,0,145676,,0.7535961 C,0,145676,,255,255,255 M,0,145676,153676,363,490,363,310 R,0,145676,153676,4.824596,3.994733 F,0,152076,153676,1,0
Sprite,Foreground,Centre,"dot.png",320,240 S,0,145976,,0.5199185 C,0,145976,,255,255,255 M,0,145976,153976,61,490,61,310 R,0,145976,153976,3.459924,7.230487 F,0,152376,153976,1,0
Sprite,Foreground,Centre,"dot.png",320,240 S,0,146276,,0.2200126 C,0,146276,,255,255,255 M,0,146276,154276,405,490,405,310 R,0,146276,154276,4.760169,9.395023 F,0,152676,154276,1,0
Sprite,Foreground,Centre,"dot.png",320,240 S,0,146576,,0.4116421 C,0,146576,,255,255,255 M,0,146576,154576,535,490,535,310 R,0,146576,154576,5.443412,9.094063 F,0,152976,154576,1,0
Sprite,Foreground,Centre,"dot.png",320,240 S,0,146876,,0.7144898 C,0,146876,,255,255,255 M,0,146876,154876,413,490,413,310 R,0,146876,154876,1.20409,9.586821 F,0,153276,154876,1,0
Sprite,Foreground,Centre,"dot.png",320,240 S,0,147176,,0.6530224 C,0,147176,,255,255,255 M,0,147176,155176,289,490,289,310 R,0,147176,155176,10.51152,4.623228 F,0,153576,155176,1,0
Sprite,Foreground,Centre,"dot.png",320,240 S,0,147476,,0.6776063 C,0,147476,,255,255,255 M,0,147476,155476,356,490,356,310 R,0,147476,155476,8.920167,2.610228 F,0,153876,155476,1,0
Sprite,Foreground,Centre,"dot.png",320,240 S,0,147776,,0.5341361 C,0,147776,,255,255,255 M,0,147776,155776,452,490,452,310 R,0,147776,155776,12.05534,4.693284 F,0,154176,155776,1,0
Sprite,Foreground,Centre,"dot.png",320,240 S,0,148076,,0.6024303 C,0,148076,,255,255,255 M,0,148076,156076,92,490,92,310 R,0,148076,156076,9.726152,7.699566 F,0,154476,156076,1,0
Sprite,Foreground,Centre,"dot.png",320,240 S,0,148376,,0.8744732 C,0,148376,,255,255,255 M,0,148376,156376,418,490,418,310 R,0,148376,156376,2.709419,10.07373 F,0,154776,156376,1,0
Sprite,Foreground,Centre,"dot.png",320,240 S,0,148676,,0.8316887 C,0,148676,,255,255,255 M,0,148676,156676,182,490,182,310 R,0,148676,156676,9.091051,10.07814 F,0,155076,156676,1,0
Sprite,Foreground,Centre,"dot.png",320,240 S,0,148976,,0.3787032 C,0,148976,,255,255,255 M,0,148976,156976,96,490,96,310 R,0,148976,156976,5.17081,6.300219 F,0,155376,156976,1,0
Sprite,Foreground,Centre,"dot.png",320,240 S,0,149276,,0.6838593 C,0,149276,,255,255,255 M,0,149276,157276,225,490,225,310 R,0,149276,157276,8.641393,12.25234 F,0,155676,157276,1,0
Sprite,Foreground,Centre,"dot.png",320,240 S,0,149576,,0.1055479 C,0,149576,,255,255,255 M,0,149576,157576,315,490,315,310 R,0,149576,157576,5.884085,7.031394 F,0,155976,157576,1,0
Sprite,Foreground,Centre,"dot.png",320,240 S,0,149876,,0.6728395 C,0,149876,,255,255,255 M,0,149876,157876,199,490,199,310 R,0,149876,157876,11.89808,2.705764 F,0,156276,157876,1,0
Sprite,Foreground,Centre,"dot.png",320,240 S,0,150176,,0.6191081 C,0,150176,,255,255,255 M,0,150176,158176,638,490,638,310 R,0,150176,158176,1.876588,9.303729 F,0,156576,158176,1,0
Sprite,Foreground,Centre,"dot.png",320,240 S,0,150476,,0.8106187 C,0,150476,,255,255,255 M,0,150476,158476,402,490,402,310 R,0,150476,158476,11.0719,6.776951 F,0,156876,158476,1,0
Sprite,Foreground,Centre,"dot.png",320,240 S,0,150776,,0.2628455 C,0,150776,,255,255,255 M,0,150776,158776,7,490,7,310 R,0,150776,158776,10.88204,9.495627 F,0,157176,158776,1,0
Sprite,Foreground,Centre,"dot.png",320,240 S,0,151076,,0.132263 C,0,151076,,255,255,255 M,0,151076,159076,28,490,28,310 R,0,151076,159076,4.59644,5.156751 F,0,157476,159076,1,0
Sprite,Foreground,Centre,"dot.png",320,240 S,0,151376,,0.6749806 C,0,151376,,255,255,255 M,0,151376,159376,624,490,624,310 R,0,151376,159376,8.956421,9.87433 F,0,157776,159376,1,0
Sprite,Foreground,Centre,"dot.png",320,240 S,0,151676,,0.8004013 C,0,151676,,255,255,255 M,0,151676,159676,426,490,426,310 R,0,151676,159676,2.677332,9.51529 F,0,158076,159676,1,0
Sprite,Foreground,Centre,"dot.png",320,240 S,0,151976,,0.9072493 C,0,151976,,255,255,255 M,0,151976,159976,473,490,473,310 R,0,151976,159976,11.6177,5.188776 F,0,158376,159976,1,0
Sprite,Foreground,Centre,"dot.png",320,240 S,0,152276,,0.126257 C,0,152276,,255,255,255 M,0,152276,160276,315,490,315,310 R,0,152276,160276,12.51399,2.482253 F,0,158676,160276,1,0
Sprite,Foreground,Centre,"dot.png",320,240 S,0,152576,,0.8772805 C,0,152576,,255,255,255 M,0,152576,160576,4,490,4,310 R,0,152576,160576,4.149291,10.36757 F,0,158976,160576,1,0
Sprite,Foreground,Centre,"dot.png",320,240 S,0,152876,,0.2418283 C,0,152876,,255,255,255 M,0,152876,160876,251,490,251,310 R,0,152876,160876,5.473238,6.784081 F,0,159276,160876,1,0
Sprite,Foreground,Centre,"dot.png",320,240 S,0,153176,,0.6043769 C,0,153176,,255,255,255 M,0,153176,161176,407,490,407,310 R,0,153176,161176,9.140594,4.519341 F,0,159576,161176,1,0
Sprite,Foreground,Centre,"dot.png",320,240 S,0,153476,,0.2524194 C,0,153476,,255,255,255 M,0,153476,161476,318,490,318,310 R,0,153476,161476,10.76739,4.433774 F,0,159876,161476,1,0
Sprite,Foreground,Centre,"dot.png",320,240 S,0,153776,,0.2192315 C,0,153776,,255,255,255 M,0,153776,161776,6,490,6,310 R,0,153776,161776,9.914828,9.86084 F,0,160176,161776,1,0
Sprite,Foreground,Centre,"dot.png",320,240 S,0,154076,,0.5420279 C,0,154076,,255,255,255 M,0,154076,162076,281,490,281,310 R,0,154076,162076,7.024854,12.52058 F,0,160476,162076,1,0
Sprite,Foreground,Centre,"dot.png",320,240 S,0,154376,,0.3905204 C,0,154376,,255,255,255 M,0,154376,162376,629,490,629,310 R,0,154376,162376,12.75873,5.883637 F,0,160776,162376,1,0
Sprite,Foreground,Centre,"dot.png",320,240 S,0,154676,,0.7887349 C,0,154676,,255,255,255 M,0,154676,162676,315,490,315,310 R,0,154676,162676,11.55338,7.843682 F,0,161076,162676,1,0
Sprite,Foreground,Centre,"dot.png",320,240 S,0,154976,,0.425926 C,0,154976,,255,255,255 M,0,154976,162976,407,490,407,310 R,0,154976,162976,2.708134,7.104672 F,0,161376,162976,1,0
Sprite,Foreground,Centre,"dot.png",320,240 S,0,155276,,0.3153857 C,0,155276,,255,255,255 M,0,155276,163276,20,490,20,310 R,0,155276,163276,2.106901,12.75507 F,0,161676,163276,1,0
Sprite,Foreground,Centre,"dot.png",320,240 S,0,155576,,0.8469751 C,0,155576,,255,255,255 M,0,155576,163576,413,490,413,310 R,0,155576,163576,9.385594,7.976465 F,0,161976,163576,1,0
Sprite,Foreground,Centre,"dot.png",320,240 S,0,155876,,0.3250032 C,0,155876,,255,255,255 M,0,155876,163876,124,490,124,310 R,0,155876,163876,9.793637,1.81693 F,0,162276,163876,1,0
Sprite,Foreground,Centre,"dot.png",320,240 S,0,156176,,0.8789522 C,0,156176,,255,255,255 M,0,156176,164176,506,490,506,310 R,0,156176,164176,7.011872,12.84258 F,0,162576,164176,1,0
Sprite,Foreground,Centre,"dot.png",320,240 S,0,156476,,0.9530724 C,0,156476,,255,255,255 M,0,156476,164476,565,490,565,310 R,0,156476,164476,11.15409,5.882429 F,0,162876,164476,1,0
Sprite,Foreground,Centre,"dot.png",320,240 S,0,156776,,0.3105501 C,0,156776,,255,255,255 M,0,156776,164776,68,490,68,310 R,0,156776,164776,4.041162,8.020312 F,0,163176,164776,1,0
Sprite,Foreground,Centre,"dot.png",320,240 S,0,157076,,0.9531686 C,0,157076,,255,255,255 M,0,157076,165076,107,490,107,310 R,0,157076,165076,11.95372,12.38434 F,0,163476,165076,1,0
Sprite,Foreground,Centre,"dot.png",320,240 S,0,157376,,0.370868 C,0,157376,,255,255,255 M,0,157376,165376,84,490,84,310 R,0,157376,165376,12.7353,2.274795 F,0,163776,165376,1,0
Sprite,Foreground,Centre,"dot.png",320,240 S,0,157676,,0.8333868 C,0,157676,,255,255,255 M,0,157676,165676,622,490,622,310 R,0,157676,165676,1.743182,4.392066 F,0,164076,165676,1,0
Sprite,Foreground,Centre,"dot.png",320,240 S,0,157976,,0.6626792 C,0,157976,,255,255,255 M,0,157976,165976,24,490,24,310 R,0,157976,165976,6.411692,12.97836 F,0,164376,165976,1,0
Sprite,Foreground,Centre,"dot.png",320,240 S,0,158276,,0.4001393 C,0,158276,,255,255,255 M,0,158276,166276,59,490,59,310 R,0,158276,166276,12.87022,2.984423 F,0,164676,166276,1,0
Sprite,Foreground,Centre,"dot.png",320,240 S,0,158576,,0.7432247 C,0,158576,,255,255,255 M,0,158576,166576,501,490,501,310 R,0,158576,166576,3.299425,10.02492 F,0,164976,166576,1,0
Sprite,Foreground,Centre,"dot.png",320,240 S,0,158876,,0.3522779 C,0,158876,,255,255,255 M,0,158876,166876,291,490,291,310 R,0,158876,166876,7.483982,11.75303 F,0,165276,166876,1,0
Sprite,Foreground,Centre,"dot.png",320,240 S,0,159176,,0.8864873 C,0,159176,,255,255,255 M,0,159176,167176,25,490,25,310 R,0,159176,167176,3.638262,5.145049 F,0,165576,167176,1,0
Sprite,Foreground,Centre,"dot.png",320,240 S,0,159476,,0.895974 C,0,159476,,255,255,255 M,0,159476,167476,496,490,496,310 R,0,159476,167476,8.761227,1.762226 F,0,165876,167476,1,0
Sprite,Foreground,Centre,"dot.png",320,240 S,0,159776,,0.349997 C,0,159776,,255,255,255 M,0,159776,167776,133,490,133,310 R,0,159776,167776,2.616507,9.768281 F,0,166176,167776,1,0
Sprite,Foreground,Centre,"dot.png",320,240 S,0,160076,,0.9956322 C,0,160076,,255,255,255 M,0,160076,168076,200,490,200,310 R,0,160076,168076,4.557073,11.74693 F,0,166476,168076,1,0
Sprite,Foreground,Centre,"dot.png",320,240 S,0,160376,,0.9541567 C,0,160376,,255,255,255 M,0,160376,168376,215,490,215,310 R,0,160376,168376,5.304898,7.684847 F,0,166776,168376,1,0
Sprite,Foreground,Centre,"dot.png",320,240 S,0,160676,,0.4738684 C,0,160676,,255,255,255 M,0,160676,168676,221,490,221,310 R,0,160676,168676,7.377159,9.335444 F,0,167076,168676,1,0
Sprite,Foreground,Centre,"dot.png",320,240 S,0,160976,,0.3989983 C,0,160976,,255,255,255 M,0,160976,168976,214,490,214,310 R,0,160976,168976,12.9342,7.82099 F,0,167376,168976,1,0
Sprite,Foreground,Centre,"dot.png",320,240 S,0,161276,,0.915351 C,0,161276,,255,255,255 M,0,161276,169276,267,490,267,310 R,0,161276,169276,6.169823,4.469939 F,0,167676,169276,1,0
Sprite,Foreground,Centre,"dot.png",320,240 S,0,161576,,0.379604 C,0,161576,,255,255,255 M,0,161576,169576,23,490,23,310 R,0,161576,169576,6.425773,3.676328 F,0,167976,169576,1,0
Sprite,Foreground,Centre,"dot.png",320,240 S,0,161876,,0.8095996 C,0,161876,,255,255,255 M,0,161876,169876,213,490,213,310 R,0,161876,169876,12.65908,5.206554 F,0,168276,169876,1,0
Sprite,Foreground,Centre,"ddot.png",320,240 S,0,142676,,0.4858692 C,0,142676,,255,255,255 M,0,142676,152676,213,490,213,310 R,0,142676,152676,5.845824,9.39899 F,0,150676,152676,1,0
Sprite,Foreground,Centre,"ddot.png",320,240 S,0,142976,,0.9055472 C,0,142976,,255,255,255 M,0,142976,152976,314,490,314,310 R,0,142976,152976,8.77884,12.30223 F,0,150976,152976,1,0
Sprite,Foreground,Centre,"ddot.png",320,240 S,0,143276,,0.6495673 C,0,143276,,255,255,255 M,0,143276,153276,622,490,622,310 R,0,143276,153276,2.898362,8.734666 F,0,151276,153276,1,0
Sprite,Foreground,Centre,"ddot.png",320,240 S,0,143576,,0.5010833 C,0,143576,,255,255,255 M,0,143576,153576,227,490,227,310 R,0,143576,153576,9.748569,5.282742 F,0,151576,153576,1,0
Sprite,Foreground,Centre,"ddot.png",320,240 S,0,143876,,0.1633034 C,0,143876,,255,255,255 M,0,143876,153876,586,490,586,310 R,0,143876,153876,11.54966,1.078384 F,0,151876,153876,1,0
Sprite,Foreground,Centre,"ddot.png",320,240 S,0,144176,,0.3473956 C,0,144176,,255,255,255 M,0,144176,154176,33,490,33,310 R,0,144176,154176,8.215388,3.82917 F,0,152176,154176,1,0
Sprite,Foreground,Centre,"ddot.png",320,240 S,0,144476,,0.2567424 C,0,144476,,255,255,255 M,0,144476,154476,193,490,193,310 R,0,144476,154476,6.642165,1.573697 F,0,152476,154476,1,0
Sprite,Foreground,Centre,"ddot.png",320,240 S,0,144776,,0.1432052 C,0,144776,,255,255,255 M,0,144776,154776,495,490,495,310 R,0,144776,154776,1.52252,11.18537 F,0,152776,154776,1,0
Sprite,Foreground,Centre,"ddot.png",320,240 S,0,145076,,0.7584683 C,0,145076,,255,255,255 M,0,145076,155076,505,490,505,310 R,0,145076,155076,11.04073,12.99539 F,0,153076,155076,1,0
Sprite,Foreground,Centre,"ddot.png",320,240 S,0,145376,,0.1951747 C,0,145376,,255,255,255 M,0,145376,155376,543,490,543,310 R,0,145376,155376,4.720337,11.22541 F,0,153376,155376,1,0
Sprite,Foreground,Centre,"ddot.png",320,240 S,0,145676,,0.4843687 C,0,145676,,255,255,255 M,0,145676,155676,392,490,392,310 R,0,145676,155676,7.531673,7.283485 F,0,153676,155676,1,0
Sprite,Foreground,Centre,"ddot.png",320,240 S,0,145976,,0.194413 C,0,145976,,255,255,255 M,0,145976,155976,137,490,137,310 R,0,145976,155976,6.5011,1.713539 F,0,153976,155976,1,0
Sprite,Foreground,Centre,"ddot.png",320,240 S,0,146276,,0.8305283 C,0,146276,,255,255,255 M,0,146276,156276,188,490,188,310 R,0,146276,156276,2.603188,10.43022 F,0,154276,156276,1,0
Sprite,Foreground,Centre,"ddot.png",320,240 S,0,146576,,0.6586698 C,0,146576,,255,255,255 M,0,146576,156576,60,490,60,310 R,0,146576,156576,11.22931,8.558537 F,0,154576,156576,1,0
Sprite,Foreground,Centre,"ddot.png",320,240 S,0,146876,,0.4866412 C,0,146876,,255,255,255 M,0,146876,156876,578,490,578,310 R,0,146876,156876,7.817538,7.389941 F,0,154876,156876,1,0
Sprite,Foreground,Centre,"ddot.png",320,240 S,0,147176,,0.6600881 C,0,147176,,255,255,255 M,0,147176,157176,228,490,228,310 R,0,147176,157176,2.622164,6.713043 F,0,155176,157176,1,0
Sprite,Foreground,Centre,"ddot.png",320,240 S,0,147476,,0.1140363 C,0,147476,,255,255,255 M,0,147476,157476,402,490,402,310 R,0,147476,157476,5.444343,2.042395 F,0,155476,157476,1,0
Sprite,Foreground,Centre,"ddot.png",320,240 S,0,147776,,0.5048724 C,0,147776,,255,255,255 M,0,147776,157776,73,490,73,310 R,0,147776,157776,3.581931,12.49608 F,0,155776,157776,1,0
Sprite,Foreground,Centre,"SB\Ring.png",320,240 M,0,25684,,320,240 F,0,25684,25855,0.8735943,1 S,0,25684,25855,0.3782205,0.6446975 F,0,25855,26541,1,0 S,0,25855,28255,0.6446975,1.334804 F,0,26541,26884,0 F,0,26884,27227,0 F,0,27227,28255,0
Sprite,Foreground,Centre,"ddot.png",320,240 S,0,148076,,0.5996714 C,0,148076,,255,255,255 M,0,148076,158076,326,490,326,310 R,0,148076,158076,11.19743,5.774854 F,0,156076,158076,1,0
Sprite,Foreground,Centre,"ddot.png",320,240 S,0,148376,,0.7988617 C,0,148376,,255,255,255 M,0,148376,158376,135,490,135,310 R,0,148376,158376,3.822373,8.0006 F,0,156376,158376,1,0
Sprite,Foreground,Centre,"ddot.png",320,240 S,0,148676,,0.3012041 C,0,148676,,255,255,255 M,0,148676,158676,321,490,321,310 R,0,148676,158676,8.40405,7.781137 F,0,156676,158676,1,0
Sprite,Foreground,Centre,"ddot.png",320,240 S,0,148976,,0.5075698 C,0,148976,,255,255,255 M,0,148976,158976,100,490,100,310 R,0,148976,158976,10.91679,1.551171 F,0,156976,158976,1,0
Sprite,Foreground,Centre,"ddot.png",320,240 S,0,149276,,0.6620767 C,0,149276,,255,255,255 M,0,149276,159276,639,490,639,310 R,0,149276,159276,3.962255,9.454309 F,0,157276,159276,1,0
Sprite,Foreground,Centre,"ddot.png",320,240 S,0,149576,,0.2423001 C,0,149576,,255,255,255 M,0,149576,159576,289,490,289,310 R,0,149576,159576,6.83202,9.817124 F,0,157576,159576,1,0
Sprite,Foreground,Centre,"ddot.png",320,240 S,0,149876,,0.7416387 C,0,149876,,255,255,255 M,0,149876,159876,295,490,295,310 R,0,149876,159876,5.310308,9.028923 F,0,157876,159876,1,0
Sprite,Foreground,Centre,"ddot.png",320,240 S,0,150176,,0.7233295 C,0,150176,,255,255,255 M,0,150176,160176,281,490,281,310 R,0,150176,160176,5.5185,7.546001 F,0,158176,160176,1,0
Sprite,Foreground,Centre,"ddot.png",320,240 S,0,150476,,0.3120789 C,0,150476,,255,255,255 M,0,150476,160476,222,490,222,310 R,0,150476,160476,8.137355,5.868038 F,0,158476,160476,1,0
Sprite,Foreground,Centre,"ddot.png",320,240 S,0,150776,,0.2480597 C,0,150776,,255,255,255 M,0,150776,160776,623,490,623,310 R,0,150776,160776,5.177702,10.90374 F,0,158776,160776,1,0
Sprite,Foreground,Centre,"ddot.png",320,240 S,0,151076,,0.4286777 C,0,151076,,255,255,255 M,0,151076,161076,125,490,125,310 R,0,151076,161076,6.169652,5.096944 F,0,159076,161076,1,0
Sprite,Foreground,Centre,"ddot.png",320,240 S,0,151376,,0.8257842 C,0,151376,,255,255,255 M,0,151376,161376,588,490,588,310 R,0,151376,161376,7.495561,4.166317 F,0,159376,161376,1,0
Sprite,Foreground,Centre,"ddot.png",320,240 S,0,151676,,0.2241679 C,0,151676,,255,255,255 M,0,151676,161676,297,490,297,310 R,0,151676,161676,6.072357,7.979649 F,0,159676,161676,1,0
Sprite,Foreground,Centre,"ddot.png",320,240 S,0,151976,,0.4459637 C,0,151976,,255,255,255 M,0,151976,161976,310,490,310,310 R,0,151976,161976,1.912524,10.23501 F,0,159976,161976,1,0
Sprite,Foreground,Centre,"ddot.png",320,240 S,0,152276,,0.2620307 C,0,152276,,255,255,255 M,0,152276,162276,323,490,323,310 R,0,152276,162276,3.132617,5.425405 F,0,160276,162276,1,0
Sprite,Foreground,Centre,"ddot.png",320,240 S,0,152576,,0.7073178 C,0,152576,,255,255,255 M,0,152576,162576,330,490,330,310 R,0,152576,162576,4.700418,3.299347 F,0,160576,162576,1,0
Sprite,Foreground,Centre,"ddot.png",320,240 S,0,152876,,0.895511 C,0,152876,,255,255,255 M,0,152876,162876,325,490,325,310 R,0,152876,162876,10.90128,2.978064 F,0,160876,162876,1,0
Sprite,Foreground,Centre,"ddot.png",320,240 S,0,153176,,0.9512952 C,0,153176,,255,255,255 M,0,153176,163176,440,490,440,310 R,0,153176,163176,3.091135,7.110768 F,0,161176,163176,1,0
Sprite,Foreground,Centre,"ddot.png",320,240 S,0,153476,,0.1317417 C,0,153476,,255,255,255 M,0,153476,163476,253,490,253,310 R,0,153476,163476,11.93426,1.809399 F,0,161476,163476,1,0
Sprite,Foreground,Centre,"ddot.png",320,240 S,0,153776,,0.9154041 C,0,153776,,255,255,255 M,0,153776,163776,117,490,117,310 R,0,153776,163776,5.937443,7.663337 F,0,161776,163776,1,0
Sprite,Foreground,Centre,"ddot.png",320,240 S,0,154076,,0.6112334 C,0,154076,,255,255,255 M,0,154076,164076,566,490,566,310 R,0,154076,164076,4.883031,11.03895 F,0,162076,164076,1,0
Sprite,Foreground,Centre,"ddot.png",320,240 S,0,154376,,0.5404056 C,0,154376,,255,255,255 M,0,154376,164376,380,490,380,310 R,0,154376,164376,6.600988,5.512292 F,0,162376,164376,1,0
Sprite,Foreground,Centre,"ddot.png",320,240 S,0,154676,,0.9216848 C,0,154676,,255,255,255 M,0,154676,164676,559,490,559,310 R,0,154676,164676,7.27372,7.643686 F,0,162676,164676,1,0
Sprite,Foreground,Centre,"ddot.png",320,240 S,0,154976,,0.6772576 C,0,154976,,255,255,255 M,0,154976,164976,61,490,61,310 R,0,154976,164976,6.775321,4.942 F,0,162976,164976,1,0
Sprite,Foreground,Centre,"ddot.png",320,240 S,0,155276,,0.3601287 C,0,155276,,255,255,255 M,0,155276,165276,403,490,403,310 R,0,155276,165276,11.22557,2.815497 F,0,163276,165276,1,0
Sprite,Foreground,Centre,"ddot.png",320,240 S,0,155576,,0.3851168 C,0,155576,,255,255,255 M,0,155576,165576,445,490,445,310 R,0,155576,165576,11.24617,6.015628 F,0,163576,165576,1,0
Sprite,Foreground,Centre,"ddot.png",320,240 S,0,155876,,0.5834301 C,0,155876,,255,255,255 M,0,155876,165876,472,490,472,310 R,0,155876,165876,1.959793,6.496627 F,0,163876,165876,1,0
Sprite,Foreground,Centre,"ddot.png",320,240 S,0,156176,,0.3045844 C,0,156176,,255,255,255 M,0,156176,166176,638,490,638,310 R,0,156176,166176,2.140126,3.824949 F,0,164176,166176,1,0
Sprite,Foreground,Centre,"ddot.png",320,240 S,0,156476,,0.8526383 C,0,156476,,255,255,255 M,0,156476,166476,513,490,513,310 R,0,156476,166476,4.91383,5.238419 F,0,164476,166476,1,0
Sprite,Foreground,Centre,"ddot.png",320,240 S,0,156776,,0.8441143 C,0,156776,,255,255,255 M,0,156776,166776,71,490,71,310 R,0,156776,166776,10.47875,1.647241 F,0,164776,166776,1,0
Sprite,Foreground,Centre,"ddot.png",320,240 S,0,157076,,0.768598 C,0,157076,,255,255,255 M,0,157076,167076,624,490,624,310 R,0,157076,167076,3.638304,10.71618 F,0,165076,167076,1,0
Sprite,Foreground,Centre,"ddot.png",320,240 S,0,157376,,0.8693966 C,0,157376,,255,255,255 M,0,157376,167376,452,490,452,310 R,0,157376,167376,3.207425,9.939675 F,0,165376,167376,1,0
Sprite,Foreground,Centre,"ddot.png",320,240 S,0,157676,,0.1462595 C,0,157676,,255,255,255 M,0,157676,167676,525,490,525,310 R,0,157676,167676,3.95167,1.560576 F,0,165676,167676,1,0
Sprite,Foreground,Centre,"ddot.png",320,240 S,0,157976,,0.9708497 C,0,157976,,255,255,255 M,0,157976,167976,296,490,296,310 R,0,157976,167976,1.763733,12.06336 F,0,165976,167976,1,0
Sprite,Foreground,Centre,"ddot.png",320,240 S,0,158276,,0.2077757 C,0,158276,,255,255,255 M,0,158276,168276,502,490,502,310 R,0,158276,168276,2.625894,9.98347 F,0,166276,168276,1,0
Sprite,Foreground,Centre,"ddot.png",320,240 S,0,158576,,0.6567867 C,0,158576,,255,255,255 M,0,158576,168576,200,490,200,310 R,0,158576,168576,7.943992,3.857871 F,0,166576,168576,1,0
Sprite,Foreground,Centre,"ddot.png",320,240 S,0,158876,,0.9722567 C,0,158876,,255,255,255 M,0,158876,168876,71,490,71,310 R,0,158876,168876,12.81648,10.05528 F,0,166876,168876,1,0
Sprite,Foreground,Centre,"ddot.png",320,240 S,0,159176,,0.7815602 C,0,159176,,255,255,255 M,0,159176,169176,583,490,583,310 R,0,159176,169176,3.094682,5.362724 F,0,167176,169176,1,0
Sprite,Foreground,Centre,"ddot.png",320,240 S,0,159476,,0.4594075 C,0,159476,,255,255,255 M,0,159476,169476,200,490,200,310 R,0,159476,169476,9.771371,2.777947 F,0,167476,169476,1,0
Sprite,Foreground,Centre,"ddot.png",320,240 S,0,159776,,0.9399402 C,0,159776,,255,255,255 M,0,159776,169776,404,490,404,310 R,0,159776,169776,2.106324,10.85805 F,0,167776,169776,1,0
Sprite,Foreground,Centre,"ddot.png",320,240 S,0,160076,,0.9571595 C,0,160076,,255,255,255 M,0,160076,170076,305,490,305,310 R,0,160076,170076,4.595923,7.99962 F,0,168076,170076,1,0
Sprite,Foreground,Centre,"ddot.png",320,240 S,0,160376,,0.30146 C,0,160376,,255,255,255 M,0,160376,170376,542,490,542,310 R,0,160376,170376,8.813018,12.59051 F,0,168376,170376,1,0
Sprite,Foreground,Centre,"ddot.png",320,240 S,0,160676,,0.3382209 C,0,160676,,255,255,255 M,0,160676,170676,636,490,636,310 R,0,160676,170676,7.894118,1.753337 F,0,168676,170676,1,0
Sprite,Foreground,Centre,"ddot.png",320,240 S,0,160976,,0.4180246 C,0,160976,,255,255,255 M,0,160976,170976,106,490,106,310 R,0,160976,170976,3.093818,1.041873 F,0,168976,170976,1,0
Sprite,Foreground,Centre,"ddot.png",320,240 S,0,161276,,0.7268316 C,0,161276,,255,255,255 M,0,161276,171276,441,490,441,310 R,0,161276,171276,3.884903,11.11896 F,0,169276,171276,1,0
Sprite,Foreground,Centre,"ddot.png",320,240 S,0,161576,,0.8951482 C,0,161576,,255,255,255 M,0,161576,171576,145,490,145,310 R,0,161576,171576,7.762183,12.08593 F,0,169576,171576,1,0
Sprite,Foreground,Centre,"ddot.png",320,240 S,0,161876,,0.1877225 C,0,161876,,255,255,255 M,0,161876,171876,302,490,302,310 R,0,161876,171876,5.294526,5.139024 F,0,169876,171876,1,0
Sprite,Foreground,Centre,"dot.png",320,240 S,0,59276,,0.1853944 C,0,59276,,255,255,255 M,0,59276,67276,56,490,56,300 R,0,59276,67276,12.73275,5.571545 F,0,65676,67276,1,0
Sprite,Foreground,Centre,"dot.png",320,240 S,0,59576,,0.6988767 C,0,59576,,255,255,255 M,0,59576,67576,143,490,143,300 R,0,59576,67576,12.0671,2.647038 F,0,65976,67576,1,0
Sprite,Foreground,Centre,"dot.png",320,240 S,0,59876,,0.8185329 C,0,59876,,255,255,255 M,0,59876,67876,352,490,352,300 R,0,59876,67876,8.078871,8.998891 F,0,66276,67876,1,0
Sprite,Foreground,Centre,"dot.png",320,240 S,0,60176,,0.248765 C,0,60176,,255,255,255 M,0,60176,68176,272,490,272,300 R,0,60176,68176,12.42406,10.38858 F,0,66576,68176,1,0
Sprite,Foreground,Centre,"dot.png",320,240 S,0,60476,,0.9229836 C,0,60476,,255,255,255 M,0,60476,68476,418,490,418,300 R,0,60476,68476,11.16648,3.683263 F,0,66876,68476,1,0
Sprite,Foreground,Centre,"dot.png",320,240 S,0,60776,,0.6362427 C,0,60776,,255,255,255 M,0,60776,68776,639,490,639,300 R,0,60776,68776,11.52665,8.808173 F,0,67176,68776,1,0
Sprite,Foreground,Centre,"dot.png",320,240 S,0,61076,,0.3221653 C,0,61076,,255,255,255 M,0,61076,69076,138,490,138,300 R,0,61076,69076,4.341704,7.06207 F,0,67476,69076,1,0
Sprite,Foreground,Centre,"dot.png",320,240 S,0,61376,,0.4708661 C,0,61376,,255,255,255 M,0,61376,69376,354,490,354,300 R,0,61376,69376,7.226465,3.37293 F,0,67776,69376,1,0
Sprite,Foreground,Centre,"dot.png",320,240 S,0,61676,,0.2233713 C,0,61676,,255,255,255 M,0,61676,69676,481,490,481,300 R,0,61676,69676,10.81884,10.1487 F,0,68076,69676,1,0
Sprite,Foreground,Centre,"dot.png",320,240 S,0,61976,,0.5551459 C,0,61976,,255,255,255 M,0,61976,69976,82,490,82,300 R,0,61976,69976,10.25591,3.219598 F,0,68376,69976,1,0
Sprite,Foreground,Centre,"dot.png",320,240 S,0,62276,,0.6393221 C,0,62276,,255,255,255 M,0,62276,70276,329,490,329,300 R,0,62276,70276,2.533448,10.43639 F,0,68676,70276,1,0
Sprite,Foreground,Centre,"dot.png",320,240 S,0,62576,,0.2554881 C,0,62576,,255,255,255 M,0,62576,70576,589,490,589,300 R,0,62576,70576,12.98645,10.07077 F,0,68976,70576,1,0
Sprite,Foreground,Centre,"dot.png",320,240 S,0,62876,,0.1002358 C,0,62876,,255,255,255 M,0,62876,70876,131,490,131,300 R,0,62876,70876,5.739021,2.476738 F,0,69276,70876,1,0
Sprite,Foreground,Centre,"dot.png",320,240 S,0,63176,,0.199088 C,0,63176,,255,255,255 M,0,63176,71176,560,490,560,300 R,0,63176,71176,8.841188,8.423202 F,0,69576,71176,1,0
Sprite,Foreground,Centre,"dot.png",320,240 S,0,63476,,0.9367585 C,0,63476,,255,255,255 M,0,63476,71476,85,490,85,300 R,0,63476,71476,9.952127,12.90708 F,0,69876,71476,1,0
Sprite,Foreground,Centre,"dot.png",320,240 S,0,63776,,0.8015643 C,0,63776,,255,255,255 M,0,63776,71776,131,490,131,300 R,0,63776,71776,2.025615,10.72551 F,0,70176,71776,1,0
Sprite,Foreground,Centre,"dot.png",320,240 S,0,64076,,0.510177 C,0,64076,,255,255,255 M,0,64076,72076,74,490,74,300 R,0,64076,72076,13.13248,2.96501 F,0,70476,72076,1,0
Sprite,Foreground,Centre,"dot.png",320,240 S,0,64376,,0.3096997 C,0,64376,,255,255,255 M,0,64376,72376,350,490,350,300 R,0,64376,72376,13.85375,7.7208 F,0,70776,72376,1,0
Sprite,Foreground,Centre,"dot.png",320,240 S,0,64676,,0.7501224 C,0,64676,,255,255,255 M,0,64676,72676,258,490,258,300 R,0,64676,72676,6.869611,13.01163 F,0,71076,72676,1,0
Sprite,Foreground,Centre,"dot.png",320,240 S,0,64976,,0.2192184 C,0,64976,,255,255,255 M,0,64976,72976,423,490,423,300 R,0,64976,72976,9.202376,13.4028 F,0,71376,72976,1,0
Sprite,Foreground,Centre,"dot.png",320,240 S,0,65276,,0.4988076 C,0,65276,,255,255,255 M,0,65276,73276,584,490,584,300 R,0,65276,73276,9.045447,6.286146 F,0,71676,73276,1,0
Sprite,Foreground,Centre,"dot.png",320,240 S,0,65576,,0.1820247 C,0,65576,,255,255,255 M,0,65576,73576,96,490,96,300 R,0,65576,73576,9.40801,6.072165 F,0,71976,73576,1,0
Sprite,Foreground,Centre,"dot.png",320,240 S,0,65876,,0.7018305 C,0,65876,,255,255,255 M,0,65876,73876,276,490,276,300 R,0,65876,73876,14.0859,2.484209 F,0,72276,73876,1,0
Sprite,Foreground,Centre,"dot.png",320,240 S,0,66176,,0.284076 C,0,66176,,255,255,255 M,0,66176,74176,163,490,163,300 R,0,66176,74176,5.222157,11.22984 F,0,72576,74176,1,0
Sprite,Foreground,Centre,"dot.png",320,240 S,0,66476,,0.104731 C,0,66476,,255,255,255 M,0,66476,74476,380,490,380,300 R,0,66476,74476,10.9519,1.139776 F,0,72876,74476,1,0
Sprite,Foreground,Centre,"dot.png",320,240 S,0,66776,,0.3416876 C,0,66776,,255,255,255 M,0,66776,74776,312,490,312,300 R,0,66776,74776,11.88958,1.3553 F,0,73176,74776,1,0
Sprite,Foreground,Centre,"dot.png",320,240 S,0,67076,,0.238186 C,0,67076,,255,255,255 M,0,67076,75076,100,490,100,300 R,0,67076,75076,3.728515,4.357193 F,0,73476,75076,1,0
Sprite,Foreground,Centre,"dot.png",320,240 S,0,67376,,0.3869013 C,0,67376,,255,255,255 M,0,67376,75376,183,490,183,300 R,0,67376,75376,8.44683,2.463398 F,0,73776,75376,1,0
Sprite,Foreground,Centre,"dot.png",320,240 S,0,67676,,0.1047455 C,0,67676,,255,255,255 M,0,67676,75676,74,490,74,300 R,0,67676,75676,3.484398,10.8907 F,0,74076,75676,1,0
Sprite,Foreground,Centre,"dot.png",320,240 S,0,67976,,0.5024532 C,0,67976,,255,255,255 M,0,67976,75976,627,490,627,300 R,0,67976,75976,10.16028,3.173295 F,0,74376,75976,1,0
Sprite,Foreground,Centre,"dot.png",320,240 S,0,68276,,0.2298132 C,0,68276,,255,255,255 M,0,68276,76276,382,490,382,300 R,0,68276,76276,5.9164,5.739196 F,0,74676,76276,1,0
Sprite,Foreground,Centre,"dot.png",320,240 S,0,68576,,0.482104 C,0,68576,,255,255,255 M,0,68576,76576,155,490,155,300 R,0,68576,76576,8.942378,3.713189 F,0,74976,76576,1,0
Sprite,Foreground,Centre,"dot.png",320,240 S,0,68876,,0.6952181 C,0,68876,,255,255,255 M,0,68876,76876,583,490,583,300 R,0,68876,76876,9.036547,2.313387 F,0,75276,76876,1,0
Sprite,Foreground,Centre,"dot.png",320,240 S,0,69176,,0.2933089 C,0,69176,,255,255,255 M,0,69176,77176,407,490,407,300 R,0,69176,77176,10.33239,4.81859 F,0,75576,77176,1,0
Sprite,Foreground,Centre,"dot.png",320,240 S,0,69476,,0.9406361 C,0,69476,,255,255,255 M,0,69476,77476,299,490,299,300 R,0,69476,77476,12.90477,12.57261 F,0,75876,77476,1,0
Sprite,Foreground,Centre,"dot.png",320,240 S,0,69776,,0.9412846 C,0,69776,,255,255,255 M,0,69776,77776,32,490,32,300 R,0,69776,77776,3.664382,8.644275 F,0,76176,77776,1,0
Sprite,Foreground,Centre,"dot.png",320,240 S,0,70076,,0.7682877 C,0,70076,,255,255,255 M,0,70076,78076,372,490,372,300 R,0,70076,78076,8.63498,1.612309 F,0,76476,78076,1,0
Sprite,Foreground,Centre,"dot.png",320,240 S,0,70376,,0.7431299 C,0,70376,,255,255,255 M,0,70376,78376,6,490,6,300 R,0,70376,78376,2.466353,8.755862 F,0,76776,78376,1,0
Sprite,Foreground,Centre,"dot.png",320,240 S,0,70676,,0.18974 C,0,70676,,255,255,255 M,0,70676,78676,116,490,116,300 R,0,70676,78676,1.445611,4.429403 F,0,77076,78676,1,0
Sprite,Foreground,Centre,"dot.png",320,240 S,0,70976,,0.5704293 C,0,70976,,255,255,255 M,0,70976,78976,185,490,185,300 R,0,70976,78976,14.49479,2.898001 F,0,77376,78976,1,0
Sprite,Foreground,Centre,"dot.png",320,240 S,0,71276,,0.1759339 C,0,71276,,255,255,255 M,0,71276,79276,324,490,324,300 R,0,71276,79276,5.791796,8.634155 F,0,77676,79276,1,0
Sprite,Foreground,Centre,"dot.png",320,240 S,0,71576,,0.8560137 C,0,71576,,255,255,255 M,0,71576,79576,63,490,63,300 R,0,71576,79576,13.16802,7.638597 F,0,77976,79576,1,0
Sprite,Foreground,Centre,"dot.png",320,240 S,0,71876,,0.1072024 C,0,71876,,255,255,255 M,0,71876,79876,337,490,337,300 R,0,71876,79876,10.83724,2.062955 F,0,78276,79876,1,0
Sprite,Foreground,Centre,"dot.png",320,240 S,0,72176,,0.3300618 C,0,72176,,255,255,255 M,0,72176,80176,153,490,153,300 R,0,72176,80176,11.22111,13.29664 F,0,78576,80176,1,0
Sprite,Foreground,Centre,"dot.png",320,240 S,0,72476,,0.6372383 C,0,72476,,255,255,255 M,0,72476,80476,202,490,202,300 R,0,72476,80476,2.96436,10.08641 F,0,78876,80476,1,0
Sprite,Foreground,Centre,"dot.png",320,240 S,0,72776,,0.93957 C,0,72776,,255,255,255 M,0,72776,80776,195,490,195,300 R,0,72776,80776,12.73846,5.208624 F,0,79176,80776,1,0
Sprite,Foreground,Centre,"dot.png",320,240 S,0,73076,,0.4929666 C,0,73076,,255,255,255 M,0,73076,81076,332,490,332,300 R,0,73076,81076,3.17936,1.637652 F,0,79476,81076,1,0
Sprite,Foreground,Centre,"dot.png",320,240 S,0,73376,,0.1916701 C,0,73376,,255,255,255 M,0,73376,81376,548,490,548,300 R,0,73376,81376,8.360422,8.460257 F,0,79776,81376,1,0
Sprite,Foreground,Centre,"dot.png",320,240 S,0,73676,,0.5971778 C,0,73676,,255,255,255 M,0,73676,81676,9,490,9,300 R,0,73676,81676,4.087601,9.658681 F,0,80076,81676,1,0
Sprite,Foreground,Centre,"dot.png",320,240 S,0,73976,,0.457087 C,0,73976,,255,255,255 M,0,73976,81976,365,490,365,300 R,0,73976,81976,1.598992,11.65794 F,0,80376,81976,1,0
Sprite,Foreground,Centre,"dot.png",320,240 S,0,74276,,0.2891153 C,0,74276,,255,255,255 M,0,74276,82276,493,490,493,300 R,0,74276,82276,10.43,10.27434 F,0,80676,82276,1,0
Sprite,Foreground,Centre,"dot.png",320,240 S,0,74576,,0.3545058 C,0,74576,,255,255,255 M,0,74576,82576,555,490,555,300 R,0,74576,82576,1.087575,3.218853 F,0,80976,82576,1,0
Sprite,Foreground,Centre,"dot.png",320,240 S,0,74876,,0.8415442 C,0,74876,,255,255,255 M,0,74876,82876,540,490,540,300 R,0,74876,82876,6.843277,4.759079 F,0,81276,82876,1,0
Sprite,Foreground,Centre,"dot.png",320,240 S,0,75176,,0.6267938 C,0,75176,,255,255,255 M,0,75176,83176,342,490,342,300 R,0,75176,83176,7.038963,8.578526 F,0,81576,83176,1,0
Sprite,Foreground,Centre,"dot.png",320,240 S,0,75476,,0.7794964 C,0,75476,,255,255,255 M,0,75476,83476,321,490,321,300 R,0,75476,83476,5.922038,9.361588 F,0,81876,83476,1,0
Sprite,Foreground,Centre,"dot.png",320,240 S,0,75776,,0.4167291 C,0,75776,,255,255,255 M,0,75776,83776,622,490,622,300 R,0,75776,83776,12.69304,6.188547 F,0,82176,83776,1,0
Sprite,Foreground,Centre,"dot.png",320,240 S,0,76076,,0.2780961 C,0,76076,,255,255,255 M,0,76076,84076,482,490,482,300 R,0,76076,84076,12.59644,13.51253 F,0,82476,84076,1,0
Sprite,Foreground,Centre,"dot.png",320,240 S,0,76376,,0.2239499 C,0,76376,,255,255,255 M,0,76376,84376,464,490,464,300 R,0,76376,84376,7.898671,10.11369 F,0,82776,84376,1,0
Sprite,Foreground,Centre,"dot.png",320,240 S,0,76676,,0.5540161 C,0,76676,,255,255,255 M,0,76676,84676,467,490,467,300 R,0,76676,84676,7.665735,2.803486 F,0,83076,84676,1,0
Sprite,Foreground,Centre,"dot.png",320,240 S,0,76976,,0.5008307 C,0,76976,,255,255,255 M,0,76976,84976,381,490,381,300 R,0,76976,84976,2.326132,10.46876 F,0,83376,84976,1,0
Sprite,Foreground,Centre,"dot.png",320,240 S,0,77276,,0.7102878 C,0,77276,,255,255,255 M,0,77276,85276,39,490,39,300 R,0,77276,85276,10.00301,3.020916 F,0,83676,85276,1,0
Sprite,Foreground,Centre,"dot.png",320,240 S,0,77576,,0.6635066 C,0,77576,,255,255,255 M,0,77576,85576,340,490,340,300 R,0,77576,85576,4.551584,6.27724 F,0,83976,85576,1,0
Sprite,Foreground,Centre,"dot.png",320,240 S,0,77876,,0.1939117 C,0,77876,,255,255,255 M,0,77876,85876,215,490,215,300 R,0,77876,85876,4.187286,3.214693 F,0,84276,85876,1,0
Sprite,Foreground,Centre,"dot.png",320,240 S,0,78176,,0.3095114 C,0,78176,,255,255,255 M,0,78176,86176,638,490,638,300 R,0,78176,86176,12.87247,4.895312 F,0,84576,86176,1,0
Sprite,Foreground,Centre,"dot.png",320,240 S,0,78476,,0.4883683 C,0,78476,,255,255,255 M,0,78476,86476,542,490,542,300 R,0,78476,86476,11.53047,12.22488 F,0,84876,86476,1,0
Sprite,Foreground,Centre,"ddot.png",320,240 S,0,59276,,0.1319791 C,0,59276,,255,255,255 M,0,59276,69276,472,490,472,300 R,0,59276,69276,14.05263,11.25891 F,0,67276,69276,1,0
Sprite,Foreground,Centre,"ddot.png",320,240 S,0,59576,,0.8222249 C,0,59576,,255,255,255 M,0,59576,69576,306,490,306,300 R,0,59576,69576,4.033714,6.7084 F,0,67576,69576,1,0
Sprite,Foreground,Centre,"ddot.png",320,240 S,0,59876,,0.5396386 C,0,59876,,255,255,255 M,0,59876,69876,449,490,449,300 R,0,59876,69876,9.660227,12.62269 F,0,67876,69876,1,0
Sprite,Foreground,Centre,"ddot.png",320,240 S,0,60176,,0.7091612 C,0,60176,,255,255,255 M,0,60176,70176,232,490,232,300 R,0,60176,70176,9.345287,14.97144 F,0,68176,70176,1,0
Sprite,Foreground,Centre,"ddot.png",320,240 S,0,60476,,0.2927111 C,0,60476,,255,255,255 M,0,60476,70476,253,490,253,300 R,0,60476,70476,11.08659,2.107137 F,0,68476,70476,1,0
Sprite,Foreground,Centre,"ddot.png",320,240 S,0,60776,,0.2704163 C,0,60776,,255,255,255 M,0,60776,70776,81,490,81,300 R,0,60776,70776,9.950306,5.78275 F,0,68776,70776,1,0
Sprite,Foreground,Centre,"ddot.png",320,240 S,0,61076,,0.8845415 C,0,61076,,255,255,255 M,0,61076,71076,412,490,412,300 R,0,61076,71076,4.605719,5.010701 F,0,69076,71076,1,0
Sprite,Foreground,Centre,"ddot.png",320,240 S,0,61376,,0.6115385 C,0,61376,,255,255,255 M,0,61376,71376,158,490,158,300 R,0,61376,71376,6.699383,14.71606 F,0,69376,71376,1,0
Sprite,Foreground,Centre,"ddot.png",320,240 S,0,61676,,0.838899 C,0,61676,,255,255,255 M,0,61676,71676,600,490,600,300 R,0,61676,71676,7.292012,5.649636 F,0,69676,71676,1,0
Sprite,Foreground,Centre,"ddot.png",320,240 S,0,61976,,0.5423276 C,0,61976,,255,255,255 M,0,61976,71976,388,490,388,300 R,0,61976,71976,10.18553,1.620401 F,0,69976,71976,1,0
Sprite,Foreground,Centre,"ddot.png",320,240 S,0,62276,,0.9567359 C,0,62276,,255,255,255 M,0,62276,72276,266,490,266,300 R,0,62276,72276,8.404143,6.194422 F,0,70276,72276,1,0
Sprite,Foreground,Centre,"ddot.png",320,240 S,0,62576,,0.5255168 C,0,62576,,255,255,255 M,0,62576,72576,239,490,239,300 R,0,62576,72576,7.032479,5.440257 F,0,70576,72576,1,0
Sprite,Foreground,Centre,"ddot.png",320,240 S,0,62876,,0.7312027 C,0,62876,,255,255,255 M,0,62876,72876,176,490,176,300 R,0,62876,72876,3.95236,14.62616 F,0,70876,72876,1,0
Sprite,Foreground,Centre,"ddot.png",320,240 S,0,63176,,0.6853956 C,0,63176,,255,255,255 M,0,63176,73176,275,490,275,300 R,0,63176,73176,7.240433,3.404314 F,0,71176,73176,1,0
Sprite,Foreground,Centre,"ddot.png",320,240 S,0,63476,,0.9915113 C,0,63476,,255,255,255 M,0,63476,73476,385,490,385,300 R,0,63476,73476,10.71932,13.06824 F,0,71476,73476,1,0
Sprite,Foreground,Centre,"ddot.png",320,240 S,0,63776,,0.167094 C,0,63776,,255,255,255 M,0,63776,73776,477,490,477,300 R,0,63776,73776,9.726568,11.58675 F,0,71776,73776,1,0
Sprite,Foreground,Centre,"ddot.png",320,240 S,0,64076,,0.4426391 C,0,64076,,255,255,255 M,0,64076,74076,110,490,110,300 R,0,64076,74076,2.271603,2.911254 F,0,72076,74076,1,0
Sprite,Foreground,Centre,"ddot.png",320,240 S,0,64376,,0.1879756 C,0,64376,,255,255,255 M,0,64376,74376,144,490,144,300 R,0,64376,74376,5.430668,12.30037 F,0,72376,74376,1,0
Sprite,Foreground,Centre,"ddot.png",320,240 S,0,64676,,0.8455771 C,0,64676,,255,255,255 M,0,64676,74676,158,490,158,300 R,0,64676,74676,5.458211,4.226358 F,0,72676,74676,1,0
Sprite,Foreground,Centre,"ddot.png",320,240 S,0,64976,,0.5188528 C,0,64976,,255,255,255 M,0,64976,74976,56,490,56,300 R,0,64976,74976,13.38694,6.392406 F,0,72976,74976,1,0
Sprite,Foreground,Centre,"ddot.png",320,240 S,0,65276,,0.3457422 C,0,65276,,255,255,255 M,0,65276,75276,354,490,354,300 R,0,65276,75276,14.908,8.652593 F,0,73276,75276,1,0
Sprite,Foreground,Centre,"ddot.png",320,240 S,0,65576,,0.5212027 C,0,65576,,255,255,255 M,0,65576,75576,257,490,257,300 R,0,65576,75576,5.553615,4.808922 F,0,73576,75576,1,0
Sprite,Foreground,Centre,"ddot.png",320,240 S,0,65876,,0.4379988 C,0,65876,,255,255,255 M,0,65876,75876,337,490,337,300 R,0,65876,75876,10.70507,11.90132 F,0,73876,75876,1,0
Sprite,Foreground,Centre,"ddot.png",320,240 S,0,66176,,0.101961 C,0,66176,,255,255,255 M,0,66176,76176,465,490,465,300 R,0,66176,76176,13.81762,6.172198 F,0,74176,76176,1,0
Sprite,Foreground,Centre,"ddot.png",320,240 S,0,66476,,0.7857282 C,0,66476,,255,255,255 M,0,66476,76476,561,490,561,300 R,0,66476,76476,8.599469,10.33043 F,0,74476,76476,1,0
Sprite,Foreground,Centre,"ddot.png",320,240 S,0,66776,,0.9244788 C,0,66776,,255,255,255 M,0,66776,76776,505,490,505,300 R,0,66776,76776,3.753746,8.08113 F,0,74776,76776,1,0
Sprite,Foreground,Centre,"ddot.png",320,240 S,0,67076,,0.421311 C,0,67076,,255,255,255 M,0,67076,77076,350,490,350,300 R,0,67076,77076,11.61452,1.845136 F,0,75076,77076,1,0
Sprite,Foreground,Centre,"ddot.png",320,240 S,0,67376,,0.3396433 C,0,67376,,255,255,255 M,0,67376,77376,69,490,69,300 R,0,67376,77376,2.000806,6.152153 F,0,75376,77376,1,0
Sprite,Foreground,Centre,"ddot.png",320,240 S,0,67676,,0.502726 C,0,67676,,255,255,255 M,0,67676,77676,295,490,295,300 R,0,67676,77676,14.97687,12.01015 F,0,75676,77676,1,0
Sprite,Foreground,Centre,"ddot.png",320,240 S,0,67976,,0.9131896 C,0,67976,,255,255,255 M,0,67976,77976,464,490,464,300 R,0,67976,77976,11.05038,4.71653 F,0,75976,77976,1,0
Sprite,Foreground,Centre,"ddot.png",320,240 S,0,68276,,0.4309872 C,0,68276,,255,255,255 M,0,68276,78276,538,490,538,300 R,0,68276,78276,10.9405,5.963949 F,0,76276,78276,1,0
Sprite,Foreground,Centre,"ddot.png",320,240 S,0,68576,,0.4906941 C,0,68576,,255,255,255 M,0,68576,78576,146,490,146,300 R,0,68576,78576,9.292377,5.214666 F,0,76576,78576,1,0
Sprite,Foreground,Centre,"ddot.png",320,240 S,0,68876,,0.7611187 C,0,68876,,255,255,255 M,0,68876,78876,424,490,424,300 R,0,68876,78876,12.59347,10.49786 F,0,76876,78876,1,0
Sprite,Foreground,Centre,"ddot.png",320,240 S,0,69176,,0.1289174 C,0,69176,,255,255,255 M,0,69176,79176,332,490,332,300 R,0,69176,79176,8.873528,1.870941 F,0,77176,79176,1,0
Sprite,Foreground,Centre,"ddot.png",320,240 S,0,69476,,0.3068877 C,0,69476,,255,255,255 M,0,69476,79476,243,490,243,300 R,0,69476,79476,13.68572,14.85991 F,0,77476,79476,1,0
Sprite,Foreground,Centre,"ddot.png",320,240 S,0,69776,,0.7929968 C,0,69776,,255,255,255 M,0,69776,79776,606,490,606,300 R,0,69776,79776,6.565297,10.74777 F,0,77776,79776,1,0
Sprite,Foreground,Centre,"ddot.png",320,240 S,0,70076,,0.1497681 C,0,70076,,255,255,255 M,0,70076,80076,632,490,632,300 R,0,70076,80076,1.562171,4.14108 F,0,78076,80076,1,0
Sprite,Foreground,Centre,"ddot.png",320,240 S,0,70376,,0.2711386 C,0,70376,,255,255,255 M,0,70376,80376,453,490,453,300 R,0,70376,80376,14.4121,11.93859 F,0,78376,80376,1,0
Sprite,Foreground,Centre,"ddot.png",320,240 S,0,70676,,0.2901442 C,0,70676,,255,255,255 M,0,70676,80676,180,490,180,300 R,0,70676,80676,9.904611,9.394141 F,0,78676,80676,1,0
Sprite,Foreground,Centre,"ddot.png",320,240 S,0,70976,,0.8923253 C,0,70976,,255,255,255 M,0,70976,80976,569,490,569,300 R,0,70976,80976,3.001664,13.11242 F,0,78976,80976,1,0
Sprite,Foreground,Centre,"ddot.png",320,240 S,0,71276,,0.6165947 C,0,71276,,255,255,255 M,0,71276,81276,471,490,471,300 R,0,71276,81276,9.26818,4.810589 F,0,79276,81276,1,0
Sprite,Foreground,Centre,"ddot.png",320,240 S,0,71576,,0.2782768 C,0,71576,,255,255,255 M,0,71576,81576,474,490,474,300 R,0,71576,81576,1.554911,7.972075 F,0,79576,81576,1,0
Sprite,Foreground,Centre,"ddot.png",320,240 S,0,71876,,0.204525 C,0,71876,,255,255,255 M,0,71876,81876,438,490,438,300 R,0,71876,81876,6.767164,5.703183 F,0,79876,81876,1,0
Sprite,Foreground,Centre,"ddot.png",320,240 S,0,72176,,0.2359468 C,0,72176,,255,255,255 M,0,72176,82176,19,490,19,300 R,0,72176,82176,2.938268,14.78494 F,0,80176,82176,1,0
Sprite,Foreground,Centre,"ddot.png",320,240 S,0,72476,,0.2987648 C,0,72476,,255,255,255 M,0,72476,82476,146,490,146,300 R,0,72476,82476,10.04106,9.309803 F,0,80476,82476,1,0
Sprite,Foreground,Centre,"ddot.png",320,240 S,0,72776,,0.9044988 C,0,72776,,255,255,255 M,0,72776,82776,229,490,229,300 R,0,72776,82776,9.066076,6.675087 F,0,80776,82776,1,0
Sprite,Foreground,Centre,"ddot.png",320,240 S,0,73076,,0.5116188 C,0,73076,,255,255,255 M,0,73076,83076,139,490,139,300 R,0,73076,83076,14.94462,4.362676 F,0,81076,83076,1,0
Sprite,Foreground,Centre,"ddot.png",320,240 S,0,73376,,0.6047948 C,0,73376,,255,255,255 M,0,73376,83376,536,490,536,300 R,0,73376,83376,3.678394,13.8286 F,0,81376,83376,1,0
Sprite,Foreground,Centre,"ddot.png",320,240 S,0,73676,,0.8293749 C,0,73676,,255,255,255 M,0,73676,83676,436,490,436,300 R,0,73676,83676,4.927279,3.202924 F,0,81676,83676,1,0
Sprite,Foreground,Centre,"ddot.png",320,240 S,0,73976,,0.1477213 C,0,73976,,255,255,255 M,0,73976,83976,153,490,153,300 R,0,73976,83976,9.969957,2.812617 F,0,81976,83976,1,0
Sprite,Foreground,Centre,"ddot.png",320,240 S,0,74276,,0.927879 C,0,74276,,255,255,255 M,0,74276,84276,386,490,386,300 R,0,74276,84276,13.38257,5.515247 F,0,82276,84276,1,0
Sprite,Foreground,Centre,"ddot.png",320,240 S,0,74576,,0.826537 C,0,74576,,255,255,255 M,0,74576,84576,371,490,371,300 R,0,74576,84576,6.663213,10.77695 F,0,82576,84576,1,0
Sprite,Foreground,Centre,"ddot.png",320,240 S,0,74876,,0.904586 C,0,74876,,255,255,255 M,0,74876,84876,104,490,104,300 R,0,74876,84876,8.825792,9.286201 F,0,82876,84876,1,0
Sprite,Foreground,Centre,"ddot.png",320,240 S,0,75176,,0.78004 C,0,75176,,255,255,255 M,0,75176,85176,584,490,584,300 R,0,75176,85176,5.732756,4.586425 F,0,83176,85176,1,0
Sprite,Foreground,Centre,"ddot.png",320,240 S,0,75476,,0.6281778 C,0,75476,,255,255,255 M,0,75476,85476,134,490,134,300 R,0,75476,85476,4.866493,13.13939 F,0,83476,85476,1,0
Sprite,Foreground,Centre,"ddot.png",320,240 S,0,75776,,0.7297851 C,0,75776,,255,255,255 M,0,75776,85776,470,490,470,300 R,0,75776,85776,10.10419,6.799914 F,0,83776,85776,1,0
Sprite,Foreground,Centre,"ddot.png",320,240 S,0,76076,,0.5291948 C,0,76076,,255,255,255 M,0,76076,86076,386,490,386,300 R,0,76076,86076,3.770172,12.5763 F,0,84076,86076,1,0
Sprite,Foreground,Centre,"ddot.png",320,240 S,0,76376,,0.9738415 C,0,76376,,255,255,255 M,0,76376,86376,183,490,183,300 R,0,76376,86376,5.081683,9.254746 F,0,84376,86376,1,0
Sprite,Foreground,Centre,"ddot.png",320,240 S,0,76676,,0.2755554 C,0,76676,,255,255,255 M,0,76676,86676,590,490,590,300 R,0,76676,86676,11.70836,12.90707 F,0,84676,86676,1,0
Sprite,Foreground,Centre,"ddot.png",320,240 S,0,76976,,0.8417107 C,0,76976,,255,255,255 M,0,76976,86976,186,490,186,300 R,0,76976,86976,10.82069,7.945964 F,0,84976,86976,1,0
Sprite,Foreground,Centre,"ddot.png",320,240 S,0,77276,,0.760231 C,0,77276,,255,255,255 M,0,77276,87276,193,490,193,300 R,0,77276,87276,11.85142,8.267857 F,0,85276,87276,1,0
Sprite,Foreground,Centre,"ddot.png",320,240 S,0,77576,,0.9906197 C,0,77576,,255,255,255 M,0,77576,87576,574,490,574,300 R,0,77576,87576,14.21982,10.46397 F,0,85576,87576,1,0
Sprite,Foreground,Centre,"ddot.png",320,240 S,0,77876,,0.7548136 C,0,77876,,255,255,255 M,0,77876,87876,144,490,144,300 R,0,77876,87876,11.14553,9.218812 F,0,85876,87876,1,0
Sprite,Foreground,Centre,"ddot.png",320,240 S,0,78176,,0.9154296 C,0,78176,,255,255,255 M,0,78176,88176,496,490,496,300 R,0,78176,88176,4.777663,9.350725 F,0,86176,88176,1,0
Sprite,Foreground,Centre,"ddot.png",320,240 S,0,78476,,0.9897508 C,0,78476,,255,255,255 M,0,78476,88476,217,490,217,300 R,0,78476,88476,9.919398,1.558207 F,0,86476,88476,1,0
Sprite,Foreground,Centre,"snow2.png",320,240 S,0,98541,,0.7345307 C,0,98541,,255,255,255 M,0,98541,108541,640,452,400,452 R,0,98541,108541,4.989484,8.076484 F,0,106541,108541,1,0
Sprite,Foreground,Centre,"snow2.png",320,240 S,0,98891,,0.6754076 C,0,98891,,255,255,255 M,0,98891,108891,640,254,400,254 R,0,98891,108891,2.78993,3.45286 F,0,106891,108891,1,0
Sprite,Foreground,Centre,"snow2.png",320,240 S,0,99241,,0.2796086 C,0,99241,,255,255,255 M,0,99241,109241,640,172,400,172 R,0,99241,109241,1.567324,9.203825 F,0,107241,109241,1,0
Sprite,Foreground,Centre,"snow2.png",320,240 S,0,99591,,0.1282306 C,0,99591,,255,255,255 M,0,99591,109591,640,282,400,282 R,0,99591,109591,2.770772,1.03482 F,0,107591,109591,1,0
Sprite,Foreground,Centre,"snow2.png",320,240 S,0,99941,,0.8108465 C,0,99941,,255,255,255 M,0,99941,109941,640,450,400,450 R,0,99941,109941,3.241171,8.996703 F,0,107941,109941,1,0
Sprite,Foreground,Centre,"snow2.png",320,240 S,0,100291,,0.1143008 C,0,100291,,255,255,255 M,0,100291,110291,640,274,400,274 R,0,100291,110291,1.649422,7.010306 F,0,108291,110291,1,0
Sprite,Foreground,Centre,"snow2.png",320,240 S,0,100641,,0.4223345 C,0,100641,,255,255,255 M,0,100641,110641,640,443,400,443 R,0,100641,110641,1.833045,6.535911 F,0,108641,110641,1,0
Sprite,Foreground,Centre,"snow2.png",320,240 S,0,100991,,0.8794845 C,0,100991,,255,255,255 M,0,100991,110991,640,207,400,207 R,0,100991,110991,4.556189,4.609907 F,0,108991,110991,1,0
Sprite,Foreground,Centre,"snow2.png",320,240 S,0,101341,,0.3517971 C,0,101341,,255,255,255 M,0,101341,111341,640,228,400,228 R,0,101341,111341,6.949195,7.398015 F,0,109341,111341,1,0
Sprite,Foreground,Centre,"snow2.png",320,240 S,0,101691,,0.5531707 C,0,101691,,255,255,255 M,0,101691,111691,640,193,400,193 R,0,101691,111691,6.335554,4.721631 F,0,109691,111691,1,0
Sprite,Foreground,Centre,"snow2.png",320,240 S,0,102041,,0.3623984 C,0,102041,,255,255,255 M,0,102041,112041,640,188,400,188 R,0,102041,112041,1.91831,8.549666 F,0,110041,112041,1,0
Sprite,Foreground,Centre,"snow2.png",320,240 S,0,102391,,0.8430395 C,0,102391,,255,255,255 M,0,102391,112391,640,333,400,333 R,0,102391,112391,8.476898,5.975565 F,0,110391,112391,1,0
Sprite,Foreground,Centre,"snow2.png",320,240 S,0,102741,,0.6456704 C,0,102741,,255,255,255 M,0,102741,112741,640,264,400,264 R,0,102741,112741,2.500171,5.457904 F,0,110741,112741,1,0
Sprite,Foreground,Centre,"snow2.png",320,240 S,0,103091,,0.7279953 C,0,103091,,255,255,255 M,0,103091,113091,640,28,400,28 R,0,103091,113091,7.597199,3.726818 F,0,111091,113091,1,0
Sprite,Foreground,Centre,"snow2.png",320,240 S,0,103441,,0.109639 C,0,103441,,255,255,255 M,0,103441,113441,640,38,400,38 R,0,103441,113441,4.031783,7.376368 F,0,111441,113441,1,0
Sprite,Foreground,Centre,"snow2.png",320,240 S,0,103791,,0.9823892 C,0,103791,,255,255,255 M,0,103791,113791,640,479,400,479 R,0,103791,113791,4.744788,3.396933 F,0,111791,113791,1,0
Sprite,Foreground,Centre,"snow2.png",320,240 S,0,104141,,0.1479206 C,0,104141,,255,255,255 M,0,104141,114141,640,473,400,473 R,0,104141,114141,7.477075,2.5774 F,0,112141,114141,1,0
Sprite,Foreground,Centre,"snow2.png",320,240 S,0,104491,,0.1389254 C,0,104491,,255,255,255 M,0,104491,114491,640,395,400,395 R,0,104491,114491,4.722606,2.768872 F,0,112491,114491,1,0
Sprite,Foreground,Centre,"snow2.png",320,240 S,0,104841,,0.777229 C,0,104841,,255,255,255 M,0,104841,114841,640,104,400,104 R,0,104841,114841,5.399485,7.834564 F,0,112841,114841,1,0
Sprite,Foreground,Centre,"snow2.png",320,240 S,0,105191,,0.2698065 C,0,105191,,255,255,255 M,0,105191,115191,640,103,400,103 R,0,105191,115191,3.953367,4.287409 F,0,113191,115191,1,0
Sprite,Foreground,Centre,"snow2.png",320,240 S,0,105541,,0.7905952 C,0,105541,,255,255,255 M,0,105541,115541,640,22,400,22 R,0,105541,115541,4.230377,3.563601 F,0,113541,115541,1,0
Sprite,Foreground,Centre,"snow2.png",320,240 S,0,105891,,0.5759825 C,0,105891,,255,255,255 M,0,105891,115891,640,371,400,371 R,0,105891,115891,3.071844,6.70436 F,0,113891,115891,1,0
Sprite,Foreground,Centre,"snow2.png",320,240 S,0,106241,,0.2825169 C,0,106241,,255,255,255 M,0,106241,116241,640,175,400,175 R,0,106241,116241,1.74321,3.338267 F,0,114241,116241,1,0
Sprite,Foreground,Centre,"snow2.png",320,240 S,0,106591,,0.5581306 C,0,106591,,255,255,255 M,0,106591,116591,640,45,400,45 R,0,106591,116591,2.264589,6.616961 F,0,114591,116591,1,0
Sprite,Foreground,Centre,"snow2.png",320,240 S,0,106941,,0.4316263 C,0,106941,,255,255,255 M,0,106941,116941,640,456,400,456 R,0,106941,116941,2.111058,1.204878 F,0,114941,116941,1,0
Sprite,Foreground,Centre,"snow2.png",320,240 S,0,107291,,0.7584265 C,0,107291,,255,255,255 M,0,107291,117291,640,351,400,351 R,0,107291,117291,8.086672,1.455859 F,0,115291,117291,1,0
Sprite,Foreground,Centre,"snow2.png",320,240 S,0,107641,,0.9735446 C,0,107641,,255,255,255 M,0,107641,117641,640,323,400,323 R,0,107641,117641,7.546014,6.73621 F,0,115641,117641,1,0
Sprite,Foreground,Centre,"snow2.png",320,240 S,0,107991,,0.3392835 C,0,107991,,255,255,255 M,0,107991,117991,640,101,400,101 R,0,107991,117991,1.847128,8.675227 F,0,115991,117991,1,0
Sprite,Foreground,Centre,"snow2.png",320,240 S,0,108341,,0.3689847 C,0,108341,,255,255,255 M,0,108341,118341,640,146,400,146 R,0,108341,118341,6.733605,7.309916 F,0,116341,118341,1,0
Sprite,Foreground,Centre,"snow2.png",320,240 S,0,108691,,0.4288759 C,0,108691,,255,255,255 M,0,108691,118691,640,284,400,284 R,0,108691,118691,7.955559,2.436968 F,0,116691,118691,1,0
Sprite,Foreground,Centre,"snow2.png",320,240 S,0,109041,,0.53268 C,0,109041,,255,255,255 M,0,109041,119041,640,471,400,471 R,0,109041,119041,6.610172,1.072048 F,0,117041,119041,1,0
Sprite,Foreground,Centre,"snow2.png",320,240 S,0,109391,,0.9240819 C,0,109391,,255,255,255 M,0,109391,119391,640,102,400,102 R,0,109391,119391,6.774488,2.663404 F,0,117391,119391,1,0
Sprite,Foreground,Centre,"snow2.png",320,240 S,0,109741,,0.539987 C,0,109741,,255,255,255 M,0,109741,119741,640,414,400,414 R,0,109741,119741,5.406613,3.897207 F,0,117741,119741,1,0
Sprite,Foreground,Centre,"snow2.png",320,240 S,0,110091,,0.2323515 C,0,110091,,255,255,255 M,0,110091,120091,640,409,400,409 R,0,110091,120091,3.574128,1.890558 F,0,118091,120091,1,0
Sprite,Foreground,Centre,"snow2.png",320,240 S,0,110441,,0.2189028 C,0,110441,,255,255,255 M,0,110441,120441,640,22,400,22 R,0,110441,120441,5.363512,8.607882 F,0,118441,120441,1,0
Sprite,Foreground,Centre,"snow2.png",320,240 S,0,110791,,0.4843081 C,0,110791,,255,255,255 M,0,110791,120791,640,112,400,112 R,0,110791,120791,5.378762,4.023145 F,0,118791,120791,1,0
Sprite,Foreground,Centre,"snow2.png",320,240 S,0,111141,,0.9345472 C,0,111141,,255,255,255 M,0,111141,121141,640,172,400,172 R,0,111141,121141,2.860429,6.301033 F,0,119141,121141,1,0
Sprite,Foreground,Centre,"snow2.png",320,240 S,0,111491,,0.808978 C,0,111491,,255,255,255 M,0,111491,121491,640,454,400,454 R,0,111491,121491,9.498284,8.191561 F,0,119491,121491,1,0
Sprite,Foreground,Centre,"snow2.png",320,240 S,0,111841,,0.6363802 C,0,111841,,255,255,255 M,0,111841,121841,640,107,400,107 R,0,111841,121841,4.521058,8.482741 F,0,119841,121841,1,0
Sprite,Foreground,Centre,"snow2.png",320,240 S,0,112191,,0.3331737 C,0,112191,,255,255,255 M,0,112191,122191,640,89,400,89 R,0,112191,122191,5.41004,2.481687 F,0,120191,122191,1,0
Sprite,Foreground,Centre,"snow2.png",320,240 S,0,112541,,0.9399905 C,0,112541,,255,255,255 M,0,112541,122541,640,167,400,167 R,0,112541,122541,2.121567,1.7792 F,0,120541,122541,1,0
Sprite,Foreground,Centre,"snow2.png",320,240 S,0,14884,,0.9920586 C,0,14884,,255,255,255 M,0,14884,24884,640,477,400,477 R,0,14884,24884,9.62505,8.248418 F,0,22884,24884,1,0
Sprite,Foreground,Centre,"snow2.png",320,240 S,0,15234,,0.5822558 C,0,15234,,255,255,255 M,0,15234,25234,640,6,400,6 R,0,15234,25234,7.043024,4.959879 F,0,23234,25234,1,0
Sprite,Foreground,Centre,"snow2.png",320,240 S,0,15584,,0.8488646 C,0,15584,,255,255,255 M,0,15584,25584,640,469,400,469 R,0,15584,25584,3.821218,9.987086 F,0,23584,25584,1,0
Sprite,Foreground,Centre,"snow2.png",320,240 S,0,15934,,0.2857932 C,0,15934,,255,255,255 M,0,15934,25934,640,178,400,178 R,0,15934,25934,4.698783,6.764656 F,0,23934,25934,1,0
Sprite,Foreground,Centre,"snow2.png",320,240 S,0,16284,,0.4577671 C,0,16284,,255,255,255 M,0,16284,26284,640,10,400,10 R,0,16284,26284,1.779497,1.527327 F,0,24284,26284,1,0
Sprite,Foreground,Centre,"snow2.png",320,240 S,0,16634,,0.9254065 C,0,16634,,255,255,255 M,0,16634,26634,640,141,400,141 R,0,16634,26634,8.141251,2.337544 F,0,24634,26634,1,0
Sprite,Foreground,Centre,"snow2.png",320,240 S,0,16984,,0.4896812 C,0,16984,,255,255,255 M,0,16984,26984,640,238,400,238 R,0,16984,26984,3.191553,3.818488 F,0,24984,26984,1,0
Sprite,Foreground,Centre,"snow2.png",320,240 S,0,17334,,0.6337519 C,0,17334,,255,255,255 M,0,17334,27334,640,48,400,48 R,0,17334,27334,3.821982,5.53137 F,0,25334,27334,1,0
Sprite,Foreground,Centre,"snow2.png",320,240 S,0,17684,,0.6854628 C,0,17684,,255,255,255 M,0,17684,27684,640,48,400,48 R,0,17684,27684,9.543941,6.412791 F,0,25684,27684,1,0
Sprite,Foreground,Centre,"snow2.png",320,240 S,0,18034,,0.1222825 C,0,18034,,255,255,255 M,0,18034,28034,640,204,400,204 R,0,18034,28034,5.748877,9.396358 F,0,26034,28034,1,0
Sprite,Foreground,Centre,"snow2.png",320,240 S,0,18384,,0.9311929 C,0,18384,,255,255,255 M,0,18384,28384,640,118,400,118 R,0,18384,28384,2.22281,1.925204 F,0,26384,28384,1,0
Sprite,Foreground,Centre,"snow2.png",320,240 S,0,18734,,0.9896125 C,0,18734,,255,255,255 M,0,18734,28734,640,352,400,352 R,0,18734,28734,9.931248,5.809971 F,0,26734,28734,1,0
Sprite,Foreground,Centre,"snow2.png",320,240 S,0,19084,,0.7253421 C,0,19084,,255,255,255 M,0,19084,29084,640,484,400,484 R,0,19084,29084,9.236512,4.613343 F,0,27084,29084,1,0
Sprite,Foreground,Centre,"snow2.png",320,240 S,0,19434,,0.84425 C,0,19434,,255,255,255 M,0,19434,29434,640,378,400,378 R,0,19434,29434,5.2872,9.132567 F,0,27434,29434,1,0
Sprite,Foreground,Centre,"snow2.png",320,240 S,0,19784,,0.164192 C,0,19784,,255,255,255 M,0,19784,29784,640,142,400,142 R,0,19784,29784,2.066376,6.739268 F,0,27784,29784,1,0
Sprite,Foreground,Centre,"snow2.png",320,240 S,0,20134,,0.3076868 C,0,20134,,255,255,255 M,0,20134,30134,640,119,400,119 R,0,20134,30134,3.953686,1.851259 F,0,28134,30134,1,0
Sprite,Foreground,Centre,"snow2.png",320,240 S,0,20484,,0.584948 C,0,20484,,255,255,255 M,0,20484,30484,640,169,400,169 R,0,20484,30484,5.435204,1.843244 F,0,28484,30484,1,0
Sprite,Foreground,Centre,"snow2.png",320,240 S,0,20834,,0.4272515 C,0,20834,,255,255,255 M,0,20834,30834,640,80,400,80 R,0,20834,30834,5.511467,2.400605 F,0,28834,30834,1,0
Sprite,Foreground,Centre,"snow2.png",320,240 S,0,21184,,0.7322132 C,0,21184,,255,255,255 M,0,21184,31184,640,40,400,40 R,0,21184,31184,3.292012,4.698038 F,0,29184,31184,1,0
Sprite,Foreground,Centre,"snow2.png",320,240 S,0,21534,,0.7038519 C,0,21534,,255,255,255 M,0,21534,31534,640,32,400,32 R,0,21534,31534,8.59172,1.625566 F,0,29534,31534,1,0
Sprite,Foreground,Centre,"snow2.png",320,240 S,0,21884,,0.2181902 C,0,21884,,255,255,255 M,0,21884,31884,640,149,400,149 R,0,21884,31884,6.456939,7.350509 F,0,29884,31884,1,0
Sprite,Foreground,Centre,"snow2.png",320,240 S,0,22234,,0.9581529 C,0,22234,,255,255,255 M,0,22234,32234,640,180,400,180 R,0,22234,32234,2.066809,9.843489 F,0,30234,32234,1,0
Sprite,Foreground,Centre,"snow2.png",320,240 S,0,22584,,0.3216788 C,0,22584,,255,255,255 M,0,22584,32584,640,180,400,180 R,0,22584,32584,4.74184,1.33817 F,0,30584,32584,1,0
Sprite,Foreground,Centre,"snow2.png",320,240 S,0,22934,,0.4841757 C,0,22934,,255,255,255 M,0,22934,32934,640,101,400,101 R,0,22934,32934,5.634548,2.711932 F,0,30934,32934,1,0
Sprite,Foreground,Centre,"snow2.png",320,240 S,0,23284,,0.2770835 C,0,23284,,255,255,255 M,0,23284,33284,640,102,400,102 R,0,23284,33284,3.3672,4.433936 F,0,31284,33284,1,0
Sprite,Foreground,Centre,"snow2.png",320,240 S,0,23634,,0.898027 C,0,23634,,255,255,255 M,0,23634,33634,640,226,400,226 R,0,23634,33634,3.533747,4.778082 F,0,31634,33634,1,0
Sprite,Foreground,Centre,"snow2.png",320,240 S,0,23984,,0.5270532 C,0,23984,,255,255,255 M,0,23984,33984,640,302,400,302 R,0,23984,33984,3.815783,6.809673 F,0,31984,33984,1,0
Sprite,Foreground,Centre,"snow2.png",320,240 S,0,24334,,0.4589238 C,0,24334,,255,255,255 M,0,24334,34334,640,180,400,180 R,0,24334,34334,8.284423,3.445247 F,0,32334,34334,1,0
Sprite,Foreground,Centre,"snow2.png",320,240 S,0,24684,,0.9182562 C,0,24684,,255,255,255 M,0,24684,34684,640,125,400,125 R,0,24684,34684,6.860967,7.085404 F,0,32684,34684,1,0
Sprite,Foreground,Centre,"snow2.png",320,240 S,0,25034,,0.9575884 C,0,25034,,255,255,255 M,0,25034,35034,640,484,400,484 R,0,25034,35034,7.874703,2.400822 F,0,33034,35034,1,0
Sprite,Foreground,Centre,"snow2.png",320,240 S,0,25384,,0.9069971 C,0,25384,,255,255,255 M,0,25384,35384,640,115,400,115 R,0,25384,35384,3.255569,6.343966 F,0,33384,35384,1,0
Sprite,Foreground,Centre,"snow2.png",320,240 S,0,25734,,0.9044852 C,0,25734,,255,255,255 M,0,25734,35734,640,165,400,165 R,0,25734,35734,2.99772,2.65426 F,0,33734,35734,1,0
Sprite,Foreground,Centre,"snow2.png",320,240 S,0,26084,,0.1221518 C,0,26084,,255,255,255 M,0,26084,36084,640,17,400,17 R,0,26084,36084,7.654939,1.558557 F,0,34084,36084,1,0
Sprite,Foreground,Centre,"snow2.png",320,240 S,0,26434,,0.3922574 C,0,26434,,255,255,255 M,0,26434,36434,640,288,400,288 R,0,26434,36434,8.04278,9.470487 F,0,34434,36434,1,0
Sprite,Foreground,Centre,"snow2.png",320,240 S,0,26784,,0.6158242 C,0,26784,,255,255,255 M,0,26784,36784,640,297,400,297 R,0,26784,36784,1.340699,8.238944 F,0,34784,36784,1,0
Sprite,Foreground,Centre,"snow2.png",320,240 S,0,27134,,0.383027 C,0,27134,,255,255,255 M,0,27134,37134,640,25,400,25 R,0,27134,37134,7.67411,8.232068 F,0,35134,37134,1,0
Sprite,Foreground,Centre,"snow2.png",320,240 S,0,27484,,0.755797 C,0,27484,,255,255,255 M,0,27484,37484,640,368,400,368 R,0,27484,37484,6.117797,2.955792 F,0,35484,37484,1,0
Sprite,Foreground,Centre,"snow2.png",320,240 S,0,27834,,0.6947424 C,0,27834,,255,255,255 M,0,27834,37834,640,351,400,351 R,0,27834,37834,9.151124,3.113706 F,0,35834,37834,1,0
Sprite,Foreground,Centre,"snow2.png",320,240 S,0,28184,,0.6529109 C,0,28184,,255,255,255 M,0,28184,38184,640,405,400,405 R,0,28184,38184,1.191603,4.473911 F,0,36184,38184,1,0
Sprite,Foreground,Centre,"snow2.png",320,240 S,0,28534,,0.7180508 C,0,28534,,255,255,255 M,0,28534,38534,640,431,400,431 R,0,28534,38534,5.21387,7.248668 F,0,36534,38534,1,0
Sprite,Foreground,Centre,"snow2.png",320,240 S,0,28884,,0.1280534 C,0,28884,,255,255,255 M,0,28884,38884,640,41,400,41 R,0,28884,38884,7.751643,5.51915 F,0,36884,38884,1,0
Sprite,Foreground,Centre,"snow.png",320,240 S,0,59798,,0.6420074 C,0,59798,,255,255,255 M,0,59798,70798,175,510,175,80 R,0,59798,70798,9.777816,8.869365 F,0,68598,70798,1,0
Sprite,Foreground,Centre,"snow.png",320,240 S,0,60798,,0.8396852 C,0,60798,,255,255,255 F,0,60798,61170,0,0.9100308 M,0,60798,71798,256,490,256,80 R,0,60798,71798,2.578533,7.401495 F,0,61170,69598,0.9100308,1 F,0,69598,71798,1,0
Sprite,Foreground,Centre,"snow.png",320,240 S,0,61798,,0.6595797 C,0,61798,,255,255,255 M,0,61798,72798,523,490,523,80 R,0,61798,72798,3.951952,4.94141 F,0,70598,72798,1,0
Sprite,Foreground,Centre,"snow.png",320,240 S,0,62798,,0.6710314 C,0,62798,,255,255,255 M,0,62798,73798,418,490,418,80 R,0,62798,73798,3.608452,4.128344 F,0,71598,73798,1,0
Sprite,Foreground,Centre,"snow.png",320,240 S,0,63798,,0.5353722 C,0,63798,,255,255,255 M,0,63798,74798,17,490,17,80 R,0,63798,74798,9.502023,1.321174 F,0,72598,74798,1,0
Sprite,Foreground,Centre,"snow.png",320,240 S,0,64798,,0.4493571 C,0,64798,,255,255,255 M,0,64798,75798,533,490,533,80 R,0,64798,75798,9.530345,3.45912 F,0,73598,75798,1,0
Sprite,Foreground,Centre,"snow.png",320,240 S,0,65798,,0.2338925 C,0,65798,,255,255,255 M,0,65798,76798,93,490,93,80 R,0,65798,76798,1.581848,8.231829 F,0,74598,76798,1,0
Sprite,Foreground,Centre,"snow.png",320,240 S,0,66798,,0.3891317 C,0,66798,,255,255,255 M,0,66798,77798,337,490,337,80 R,0,66798,77798,9.359011,7.945606 F,0,75598,77798,1,0
Sprite,Foreground,Centre,"snow.png",320,240 S,0,67798,,0.2329623 C,0,67798,,255,255,255 M,0,67798,78798,506,490,506,80 R,0,67798,78798,3.584895,2.420737 F,0,76598,78798,1,0
Sprite,Foreground,Centre,"snow.png",320,240 S,0,68798,,0.5447034 C,0,68798,,255,255,255 M,0,68798,79798,508,490,508,80 R,0,68798,79798,2.859634,4.543684 F,0,77598,79798,1,0
Sprite,Foreground,Centre,"snow.png",320,240 S,0,69798,,0.2298083 C,0,69798,,255,255,255 M,0,69798,80798,164,490,164,80 R,0,69798,80798,3.751667,4.676764 F,0,78598,80798,1,0
Sprite,Foreground,Centre,"snow.png",320,240 S,0,70798,,0.4755829 C,0,70798,,255,255,255 M,0,70798,81798,630,490,630,80 R,0,70798,81798,3.929898,9.399298 F,0,79598,81798,1,0
Sprite,Foreground,Centre,"snow.png",320,240 S,0,71798,,0.2405093 C,0,71798,,255,255,255 M,0,71798,82798,637,490,637,80 R,0,71798,82798,7.568948,9.880929 F,0,80598,82798,1,0
Sprite,Foreground,Centre,"snow.png",320,240 S,0,72798,,0.3424498 C,0,72798,,255,255,255 M,0,72798,83798,377,490,377,80 R,0,72798,83798,6.10067,1.415115 F,0,81598,83798,1,0
Sprite,Foreground,Centre,"snow.png",320,240 S,0,73798,,0.7047692 C,0,73798,,255,255,255 M,0,73798,84798,58,490,58,80 R,0,73798,84798,9.745598,1.899114 F,0,82598,84798,1,0
Sprite,Foreground,Centre,"snow.png",320,240 S,0,74798,,0.3720264 C,0,74798,,255,255,255 M,0,74798,85798,43,490,43,80 R,0,74798,85798,2.499677,2.090112 F,0,83598,85798,1,0
Sprite,Foreground,Centre,"snow.png",320,240 S,0,75798,,0.2889623 C,0,75798,,255,255,255 M,0,75798,86798,399,490,399,80 R,0,75798,86798,8.641116,1.044921 F,0,84598,86798,1,0
Sprite,Foreground,Centre,"snow.png",320,240 S,0,76798,,0.7443751 C,0,76798,,255,255,255 M,0,76798,87798,78,490,78,80 R,0,76798,87798,8.412882,4.789708 F,0,85598,87798,1,0
Sprite,Foreground,Centre,"snow.png",320,240 S,0,77798,,0.3108299 C,0,77798,,255,255,255 M,0,77798,88798,571,490,571,80 R,0,77798,88798,2.183927,3.120619 F,0,86598,88798,1,0
Sprite,Foreground,Centre,"snow.png",320,240 S,0,78798,,0.6953627 C,0,78798,,255,255,255 M,0,78798,89798,70,490,70,80 R,0,78798,89798,3.938068,1.893875 F,0,87598,89798,1,0
Sprite,Foreground,Centre,"snow.png",320,240 S,0,79798,,0.9488546 C,0,79798,,255,255,255 M,0,79798,90798,610,490,610,80 R,0,79798,90798,2.275803,1.202712 F,0,88598,90798,1,0
Sprite,Foreground,Centre,"snow.png",320,240 S,0,80798,,0.8635159 C,0,80798,,255,255,255 M,0,80798,91798,172,490,172,80 R,0,80798,91798,6.065459,2.916348 F,0,89598,91798,1,0
Sprite,Foreground,Centre,"snow.png",320,240 S,0,81798,,0.3467595 C,0,81798,,255,255,255 M,0,81798,92798,140,490,140,80 R,0,81798,92798,1.630463,9.030563 F,0,90598,92798,1,0
Sprite,Foreground,Centre,"snow.png",320,240 S,0,82798,,0.7652788 C,0,82798,,255,255,255 M,0,82798,93798,265,490,265,80 R,0,82798,93798,9.550875,3.047102 F,0,91598,93798,1,0
Sprite,Foreground,Centre,"snow.png",320,240 S,0,83798,,0.8824746 C,0,83798,,255,255,255 M,0,83798,94798,32,490,32,80 R,0,83798,94798,1.354249,9.685636 F,0,87570,92598,1 F,0,92598,94798,1,0
Sprite,Foreground,Centre,"snow.png",320,240 S,0,142770,,0.5056404 C,0,142770,,255,255,255 M,0,142770,153770,3,490,3,80 R,0,142770,153770,7.784471,4.297776 F,0,151570,153770,1,0
Sprite,Foreground,Centre,"snow.png",320,240 S,0,143770,,0.6095545 C,0,143770,,255,255,255 M,0,143770,154770,611,490,611,80 R,0,143770,154770,6.766388,9.904077 F,0,152570,154770,1,0
Sprite,Foreground,Centre,"snow.png",320,240 S,0,144770,,0.9915999 C,0,144770,,255,255,255 M,0,144770,155770,320,490,320,80 R,0,144770,155770,6.000074,1.060879 F,0,153570,155770,1,0
Sprite,Foreground,Centre,"snow.png",320,240 S,0,145770,,0.5439787 C,0,145770,,255,255,255 M,0,145770,156770,41,490,41,80 R,0,145770,156770,4.224025,3.33264 F,0,154570,156770,1,0
Sprite,Foreground,Centre,"snow.png",320,240 S,0,146770,,0.5169019 C,0,146770,,255,255,255 M,0,146770,157770,159,490,159,80 R,0,146770,157770,3.946192,5.823046 F,0,155570,157770,1,0
Sprite,Foreground,Centre,"snow.png",320,240 S,0,147770,,0.9397899 C,0,147770,,255,255,255 M,0,147770,158770,388,490,388,80 R,0,147770,158770,8.402462,3.719503 F,0,156570,158770,1,0
Sprite,Foreground,Centre,"snow.png",320,240 S,0,148770,,0.8672028 C,0,148770,,255,255,255 M,0,148770,159770,28,490,28,80 R,0,148770,159770,1.735632,9.520896 F,0,157570,159770,1,0
Sprite,Foreground,Centre,"snow.png",320,240 S,0,149770,,0.7199478 C,0,149770,,255,255,255 M,0,149770,160770,487,490,487,80 R,0,149770,160770,4.691164,6.136087 F,0,158570,160770,1,0
Sprite,Foreground,Centre,"snow.png",320,240 S,0,150770,,0.4523798 C,0,150770,,255,255,255 M,0,150770,161770,172,490,172,80 R,0,150770,161770,3.016963,6.879771 F,0,159570,161770,1,0
Sprite,Foreground,Centre,"snow.png",320,240 S,0,151770,,0.9532415 C,0,151770,,255,255,255 M,0,151770,162770,142,490,142,80 R,0,151770,162770,8.92528,4.687437 F,0,160570,162770,1,0
Sprite,Foreground,Centre,"snow.png",320,240 S,0,152770,,0.3820844 C,0,152770,,255,255,255 M,0,152770,163770,133,490,133,80 R,0,152770,163770,4.949828,1.41186 F,0,161570,163770,1,0
Sprite,Foreground,Centre,"snow.png",320,240 S,0,153770,,0.6094819 C,0,153770,,255,255,255 M,0,153770,164770,6,490,6,80 R,0,153770,164770,9.047212,8.183714 F,0,162570,164770,1,0
Sprite,Foreground,Centre,"snow.png",320,240 S,0,154770,,0.5970088 C,0,154770,,255,255,255 M,0,154770,165770,369,490,369,80 R,0,154770,165770,6.625562,1.135246 F,0,163570,165770,1,0
Sprite,Foreground,Centre,"snow.png",320,240 S,0,155770,,0.873343 C,0,155770,,255,255,255 M,0,155770,166770,424,490,424,80 R,0,155770,166770,9.513508,6.196661 F,0,164570,166770,1,0
Sprite,Foreground,Centre,"snow.png",320,240 S,0,156770,,0.2816643 C,0,156770,,255,255,255 M,0,156770,167770,86,490,86,80 R,0,156770,167770,7.319457,2.478042 F,0,165570,167770,1,0
Sprite,Foreground,Centre,"snow.png",320,240 S,0,157770,,0.2921096 C,0,157770,,255,255,255 M,0,157770,168770,470,490,470,80 R,0,157770,168770,8.679299,1.730764 F,0,166570,168770,1,0
Sprite,Foreground,Centre,"snow.png",320,240 S,0,158770,,0.3735594 C,0,158770,,255,255,255 M,0,158770,169770,372,490,372,80 R,0,158770,169770,5.800808,9.746449 F,0,167570,169770,1,0
Sprite,Foreground,Centre,"snow.png",320,240 S,0,159770,,0.7977747 C,0,159770,,255,255,255 M,0,159770,170770,574,490,574,80 R,0,159770,170770,2.868811,7.274863 F,0,168570,170770,1,0
Sprite,Foreground,Centre,"snow.png",320,240 S,0,160770,,0.7832442 C,0,160770,,255,255,255 M,0,160770,171770,349,490,349,80 R,0,160770,171770,7.910185,8.834819 F,0,169570,171770,1,0
Sprite,Foreground,Centre,"snow.png",320,240 S,0,161770,,0.901233 C,0,161770,,255,255,255 M,0,161770,172770,553,490,553,80 R,0,161770,172770,4.124963,3.794032 F,0,170570,172770,1,0
Sprite,Foreground,Centre,"snow.png",320,240 S,0,162770,,0.4278642 C,0,162770,,255,255,255 M,0,162770,173770,398,490,398,80 R,0,162770,173770,7.833019,6.130373 F,0,171570,173770,1,0
Sprite,Foreground,Centre,"snow.png",320,240 S,0,163770,,0.8246211 C,0,163770,,255,255,255 M,0,163770,174770,247,490,247,80 R,0,163770,174770,3.234794,4.018337 F,0,172570,174770,1,0
Sprite,Foreground,Centre,"snow.png",320,240 S,0,164770,,0.3759938 C,0,164770,,255,255,255 M,0,164770,175770,333,490,333,80 R,0,164770,175770,7.770782,5.531079 F,0,173570,175770,1,0
Sprite,Foreground,Centre,"snow.png",320,240 S,0,165770,,0.7013589 C,0,165770,,255,255,255 M,0,165770,176770,545,490,545,80 R,0,165770,176770,2.200443,9.923174 F,0,171913,174570,1,0 F,0,174570,176770,0
Sprite,Foreground,Centre,"SB\Ring.png",320,240 F,0,25855,26027,0.4841283,1 S,0,25855,26027,0.5012102,0.8086833 F,0,26027,28598,1,0 S,0,26027,28598,0.8086833,1.355302
Sprite,Foreground,Centre,"BG.jpg",320,240 F,0,119798,120484,0,0.3450533 M,0,120484,,320,240 S,0,120484,,0.8018506 F,0,120484,120827,0.3450533,1 F,0,120827,121170,1 F,0,121170,143112,1 F,0,143112,143798,1,0
Sprite,Foreground,Centre,"SB\White.jpg",320,240 M,0,35456,,320,240 S,0,35456,,1.635445 F,0,35456,36827,0,0.4338789 F,0,36827,36913,0.4338789,0.6661921 F,0,36913,37598,0.6661921,0 F,0,37598,37684,0
Sprite,Foreground,Centre,"snow.png",320,240 M,0,36827,,69,399 S,0,36827,,1.867758 F,0,36827,38198,0,0.2596442 R,0,36827,59798,-0.3006403,2.350463 F,0,38198,58770,0.2596442,0.6549466 F,0,58770,59798,0.6549466,0 R,0,59798,87928,2.350463,2.298791 F,0,59798,120484,0 R,0,87928,120484,2.298791,2.26847 F,0,120484,121513,0,0.2630605 R,0,120484,143455,2.26847,6.600427 F,0,121513,142084,0.2630605,0.2869749 F,0,142084,143455,0.2869749,0
Sprite,Foreground,Centre,"SB\SANA.png",320,240 F,0,14884,15570,0,1 F,0,15570,36827,1 F,0,36827,37512,1,0 M,0,37512,,464,246 S,0,37512,,0.6241995 F,0,37512,59798,0 F,0,59798,60827,0,1 F,0,60827,87570,1 F,0,87570,88598,1,0
Sprite,Foreground,Centre,"SB\Miu.png",320,240 F,0,98198,99227,0,1 F,0,99227,120484,1 F,0,120484,121170,1,0 M,0,121170,,425,240 S,0,121170,,0.7198575 F,0,121170,143112,0 F,0,143112,143798,0,0.3894663 F,0,143798,145170,0.3894663,1 F,0,145170,171227,1 F,0,171227,171912,1,0 F,0,171912,172598,0 F,0,172598,172941,0
Sprite,Foreground,Centre,"Lyric\01.png",320,240 S,0,15227,,0.8838432 F,0,15227,15913,0,1 M,0,15227,36827,109,107,233,65 F,0,15913,36827,1 M,0,36827,37170,233,65,287,54 F,0,36827,37170,1,0
Sprite,Foreground,Centre,"Lyric\02.png",320,240 F,0,18313,18998,0,1 M,0,18313,36827,303,165,261,139 F,0,18998,36827,1 M,0,36827,37170,261,139,229,138 F,0,36827,37170,1,0
Sprite,Foreground,Centre,"Lyric\03.png",320,240 S,0,22084,,0.8496796 F,0,22084,22770,0,1 M,0,22084,36827,167,207,204,213 F,0,22770,36827,1 M,0,36827,37170,204,213,233,218 F,0,36827,37170,1,0
Sprite,Foreground,Centre,"Lyric\04.png",320,240 S,0,25513,,1.15032 F,0,25513,26198,0,1 M,0,25513,36827,178,277,145,289 F,0,26198,36827,1 M,0,36827,37170,145,289,99,298 F,0,36827,37170,1,0
Sprite,Foreground,Centre,"Lyric\05.png",320,240 S,0,28255,,0.7471887 F,0,28255,28941,0,1 M,0,28255,36827,240,341,264,352 F,0,28941,36827,1 M,0,36827,37170,264,352,297,368 F,0,36827,37170,1,0
Sprite,Foreground,Centre,"Lyric\06.png",320,240 F,0,33398,34084,0,1 M,0,33398,36827,171,391,160,408 F,0,34084,36827,1 M,0,36827,37170,160,408,138,438 F,0,36827,37170,1,0
Sprite,Foreground,Centre,"Lyric\07.png",320,240 S,0,36827,,0.9043418 F,0,36827,37684,0,1 M,0,36827,47455,205,296,256,326 F,0,37684,46770,1 F,0,46770,47455,1,0
Sprite,Foreground,Centre,"Lyric\08.png",320,240 F,0,42313,42998,0,1 M,0,42313,47455,412,382,404,393 F,0,42998,46770,1 F,0,46770,47455,1,0
Sprite,Foreground,Centre,"Lyric\09.png",320,240 F,0,47798,48484,0,1 M,0,47798,59113,254,315,315,337 F,0,48484,58084,1 F,0,58084,59113,1,0
Sprite,Foreground,Centre,"Lyric\10.png",320,240 F,0,52598,53284,0,1 M,0,52598,59113,436,388,376,406 F,0,53284,58084,1 F,0,58084,59113,1,0.01950195
Sprite,Foreground,Centre,"Lyric\11.png",320,240 S,0,59455,,0.8086833 F,0,59455,60141,0,1 M,0,59455,70084,164,278,264,328 F,0,60141,69398,1 F,0,69398,69741,1,0.673025 F,0,69741,70084,0.673025,0
Sprite,Foreground,Centre,"Lyric\12.png",320,240 S,0,64598,,0.8428471 F,0,64598,65284,0.01608521,1 M,0,64598,70084,481,416,435,397 F,0,65284,69741,1 F,0,69741,70084,1,0.0365834
Sprite,Foreground,Centre,"Lyric\13-1.png",320,240 S,0,70427,,0.9453381 F,0,70427,71113,0,1 M,0,70427,81741,133,291,226,335 F,0,71113,81398,1 F,0,81398,81741,1,0
Sprite,Foreground,Centre,"Lyric\14.png",320,240 S,0,75570,,0.9043418 F,0,75570,76255,0.05366531,1 M,0,75570,81741,402,425,382,407 F,0,76255,81398,1 F,0,81398,81741,1,0
Sprite,Foreground,Centre,"Lyric\15.png",320,240 M,0,82084,,322,386 F,0,82084,82255,0.2586476,1 S,0,82084,82255,1.362135,1.116156 F,0,82255,87570,1 S,0,82255,87570,1.116156,0.9633187 S,0,87570,87741,0.9633187,1.134137 F,0,87570,88255,1,0 S,0,87741,88255,1.134137,1.209297
Sprite,Foreground,Centre,"SB\Font effect.png",320,240 M,0,82084,,302,374 F,0,82084,82255,0.8906761,1 S,0,82084,82255,0.9043415,1.198149 F,0,82255,83113,1,0 S,0,82255,83113,1.198149,1.362135
Sprite,Foreground,Centre,"SB\White Effect.png",320,240 F,0,74198,74884,0.1151601,1 S,0,74198,74884,0.2005696,0.221068 M,0,74198,75570,81,308,315,308 F,0,74884,75570,1,0 S,0,74884,75570,0.221068,0.2142354
Sprite,Foreground,Centre,"SB\Font effect.png",320,240 M,0,76598,,399,421 F,0,76598,76770,0.07515993,0.9497508 S,0,76598,76770,0.7881851,1.013665 F,0,76770,77455,0.9497508,0 S,0,76770,77455,1.013665,1.218647
Sprite,Foreground,Centre,"SB\white star.png",320,240 M,0,76598,,404,424 F,0,76598,76770,0.3953024,0.7406053 S,0,76598,76770,0.4192171,0.740356 R,0,76598,77627,-0.2323132,-0.1366553 F,0,76770,77627,0.7406053,0 S,0,76770,77627,0.740356,1.047829
Sprite,Foreground,Centre,"SB\Ring.png",320,240 M,0,17627,,35,44 F,0,17627,17970,0,1 S,0,17627,19684,0.3577225,0.842847 F,0,17970,19684,1,0
Sprite,Foreground,Centre,"SB\Ring.png",320,240 M,0,20370,,177,361 F,0,20370,20713,0,1 S,0,20370,22427,0.2757295,0.7881853 F,0,20713,22427,1,0
Sprite,Foreground,Centre,"SB\Ring.png",320,240 M,0,23113,,20,273 F,0,23113,23455,0,1 S,0,23113,24827,0.2552315,0.6925269 F,0,23455,24827,1,0
Sprite,Foreground,Centre,"SB\Ring.png",320,240 M,0,28598,,199,319 F,0,28598,28941,0,0.7345195 S,0,28598,30313,0.2415659,0.658363 F,0,28941,30313,0.7345195,0
Sprite,Foreground,Centre,"SB\Ring.png",320,240 M,0,31341,,196,59 F,0,31341,31684,0,0.8233451 S,0,31341,33741,0.3782205,0.9385052 F,0,31684,33741,0.8233451,0
Sprite,Foreground,Centre,"SB\Ring.png",320,240 M,0,35627,,99,128 F,0,35627,35970,0,1 S,0,35627,36827,0.1254092,0.3167259 F,0,35970,36827,1,0
Sprite,Foreground,Centre,"Lyric\16.png",320,240 S,0,98884,,0.8360141 F,0,98884,99570,0,1 M,0,98884,120484,93,94,162,58 F,0,99570,120484,1 M,0,120484,120827,162,58,190,52 F,0,120484,120827,1,0
Sprite,Foreground,Centre,"Lyric\17.png",320,240 S,0,102313,,0.7813522 F,0,102313,102998,0,1 M,0,102313,120484,263,131,201,137 F,0,102998,120484,1 M,0,120484,120827,201,137,179,142 F,0,120484,120827,1,0
Sprite,Foreground,Centre,"Lyric\18.png",320,240 F,0,105570,106255,0,1 M,0,105570,120484,173,181,181,194 F,0,106255,120484,1 M,0,120484,120827,181,194,215,207 F,0,120484,120827,1,0
Sprite,Foreground,Centre,"Lyric\19.png",320,240 S,0,109170,,0.7608544 F,0,109170,109855,0,1 M,0,109170,120484,108,244,140,252 F,0,109855,120484,1 M,0,120484,120827,140,252,148,272 F,0,120484,120827,1,0
Sprite,Foreground,Centre,"Lyric\20.png",320,240 F,0,111913,112598,0,1 M,0,111913,120484,326,313,273,326 F,0,112598,120484,1 M,0,120484,120827,273,326,233,341 F,0,120484,120827,1,0
Sprite,Foreground,Centre,"Lyric\21-1.png",320,240 F,0,117055,117741,0,1 M,0,117055,120484,156,391,177,395 F,0,117741,120484,1 M,0,120484,120827,177,395,213,398 F,0,120484,120827,1,0
Sprite,Foreground,Centre,"ddot.png",320,240 S,0,6313,,0.3682976 C,0,6313,,255,255,255 M,0,6313,14313,297,300,297,35 R,0,6313,14313,2.679678,6.532461 F,0,12713,14313,1,0
Sprite,Foreground,Centre,"ddot.png",320,240 S,0,7113,,0.3578585 C,0,7113,,255,255,255 M,0,7113,15113,284,300,284,35 R,0,7113,15113,1.002779,9.196251 F,0,13513,15113,1,0
Sprite,Foreground,Centre,"ddot.png",320,240 S,0,7913,,0.8037903 C,0,7913,,255,255,255 M,0,7913,15913,394,300,394,35 R,0,7913,15913,3.015165,6.573556 F,0,14313,15913,1,0
Sprite,Foreground,Centre,"ddot.png",320,240 S,0,8713,,0.1421462 C,0,8713,,255,255,255 M,0,8713,16713,265,300,265,35 R,0,8713,16713,9.577662,9.875031 F,0,15113,16713,1,0
Sprite,Foreground,Centre,"ddot.png",320,240 S,0,9513,,0.2361637 C,0,9513,,255,255,255 M,0,9513,17513,118,300,118,35 R,0,9513,17513,2.95223,2.370594 F,0,15913,17513,1,0
Sprite,Foreground,Centre,"ddot.png",320,240 S,0,10313,,0.8537166 C,0,10313,,255,255,255 M,0,10313,18313,419,300,419,35 R,0,10313,18313,9.56371,2.78745 F,0,16713,18313,1,0
Sprite,Foreground,Centre,"ddot.png",320,240 S,0,11113,,0.9397944 C,0,11113,,255,255,255 M,0,11113,19113,82,300,82,35 R,0,11113,19113,1.614796,5.433681 F,0,17513,19113,1,0
Sprite,Foreground,Centre,"ddot.png",320,240 S,0,11913,,0.811957 C,0,11913,,255,255,255 M,0,11913,19913,331,300,331,35 R,0,11913,19913,8.131087,4.305898 F,0,18313,19913,1,0
Sprite,Foreground,Centre,"ddot.png",320,240 S,0,12713,,0.9274745 C,0,12713,,255,255,255 M,0,12713,20713,275,300,275,35 R,0,12713,20713,2.173055,1.542767 F,0,19113,20713,1,0
Sprite,Foreground,Centre,"dot.png",320,240 S,0,6313,,0.2237729 C,0,6313,,255,255,255 M,0,6313,16313,463,300,463,35 R,0,6313,16313,6.819106,5.869834 F,0,14313,16313,1,0
Sprite,Foreground,Centre,"dot.png",320,240 S,0,7113,,0.3171347 C,0,7113,,255,255,255 M,0,7113,17113,320,300,320,35 R,0,7113,17113,5.284455,9.70083 F,0,15113,17113,1,0
Sprite,Foreground,Centre,"dot.png",320,240 S,0,7913,,0.4247248 C,0,7913,,255,255,255 M,0,7913,17913,117,300,117,35 R,0,7913,17913,4.265603,3.297593 F,0,15913,17913,1,0
Sprite,Foreground,Centre,"dot.png",320,240 S,0,8713,,0.6113139 C,0,8713,,255,255,255 M,0,8713,18713,216,300,216,35 R,0,8713,18713,7.019669,6.417042 F,0,16713,18713,1,0
Sprite,Foreground,Centre,"dot.png",320,240 S,0,9513,,0.4405338 C,0,9513,,255,255,255 M,0,9513,19513,328,300,328,35 R,0,9513,19513,3.392926,1.995649 F,0,17513,19513,1,0
Sprite,Foreground,Centre,"dot.png",320,240 S,0,10313,,0.4765553 C,0,10313,,255,255,255 M,0,10313,20313,434,300,434,35 R,0,10313,20313,8.70202,1.64308 F,0,18313,20313,1,0
Sprite,Foreground,Centre,"dot.png",320,240 S,0,11113,,0.8562885 C,0,11113,,255,255,255 M,0,11113,21113,333,300,333,35 R,0,11113,21113,1.890592,2.493949 F,0,19113,21113,1,0
Sprite,Foreground,Centre,"dot.png",320,240 S,0,11913,,0.4203577 C,0,11913,,255,255,255 M,0,11913,21913,322,300,322,35 R,0,11913,21913,1.224341,9.926591 F,0,19913,21913,1,0
Sprite,Foreground,Centre,"dot.png",320,240 S,0,12713,,0.9530445 C,0,12713,,255,255,255 M,0,12713,22713,197,300,197,35 R,0,12713,22713,4.726759,5.638399 F,0,20713,22713,1,0
Sprite,Foreground,Centre,"dot.png",320,240 S,0,87570,,0.6579372 C,0,87570,,255,255,255 M,0,87570,95570,315,300,315,35 R,0,87570,95570,5.966406,7.725745 F,0,93970,95570,1,0
Sprite,Foreground,Centre,"dot.png",320,240 S,0,88370,,0.6062445 C,0,88370,,255,255,255 M,0,88370,96370,266,300,266,35 R,0,88370,96370,3.676991,1.033766 F,0,94770,96370,1,0
Sprite,Foreground,Centre,"dot.png",320,240 S,0,89170,,0.1057243 C,0,89170,,255,255,255 M,0,89170,97170,175,300,175,35 R,0,89170,97170,7.123484,5.755341 F,0,95570,97170,1,0
Sprite,Foreground,Centre,"dot.png",320,240 S,0,89970,,0.5039082 C,0,89970,,255,255,255 M,0,89970,97970,259,300,259,35 R,0,89970,97970,8.360113,8.828287 F,0,96370,97970,1,0
Sprite,Foreground,Centre,"dot.png",320,240 S,0,90770,,0.9113899 C,0,90770,,255,255,255 M,0,90770,98770,437,300,437,35 R,0,90770,98770,7.816411,7.86318 F,0,97170,98770,1,0
Sprite,Foreground,Centre,"dot.png",320,240 S,0,91570,,0.2903351 C,0,91570,,255,255,255 M,0,91570,99570,116,300,116,35 R,0,91570,99570,1.783985,9.6504 F,0,97970,99570,1,0
Sprite,Foreground,Centre,"dot.png",320,240 S,0,92370,,0.1645978 C,0,92370,,255,255,255 M,0,92370,100370,530,300,530,35 R,0,92370,100370,3.271905,7.598094 F,0,98770,100370,1,0
Sprite,Foreground,Centre,"dot.png",320,240 S,0,93170,,0.2526671 C,0,93170,,255,255,255 M,0,93170,101170,371,300,371,35 R,0,93170,101170,4.630082,2.8408 F,0,99570,101170,1,0
Sprite,Foreground,Centre,"dot.png",320,240 S,0,93970,,0.5823554 C,0,93970,,255,255,255 M,0,93970,101970,282,300,282,35 R,0,93970,101970,4.074868,5.693191 F,0,100370,101970,1,0
Sprite,Foreground,Centre,"ddot.png",320,240 S,0,87570,,0.1527419 C,0,87570,,255,255,255 M,0,87570,97570,365,300,365,35 R,0,87570,97570,9.820276,1.243237 F,0,95570,97570,1,0
Sprite,Foreground,Centre,"ddot.png",320,240 S,0,88370,,0.6309574 C,0,88370,,255,255,255 M,0,88370,98370,442,300,442,35 R,0,88370,98370,7.157826,7.303234 F,0,96370,98370,1,0
Sprite,Foreground,Centre,"ddot.png",320,240 S,0,89170,,0.5379112 C,0,89170,,255,255,255 M,0,89170,99170,409,300,409,35 R,0,89170,99170,9.329985,6.80982 F,0,97170,99170,1,0
Sprite,Foreground,Centre,"ddot.png",320,240 S,0,89970,,0.1190255 C,0,89970,,255,255,255 M,0,89970,99970,222,300,222,35 R,0,89970,99970,7.823803,1.740419 F,0,97970,99970,1,0
Sprite,Foreground,Centre,"ddot.png",320,240 S,0,90770,,0.9408579 C,0,90770,,255,255,255 M,0,90770,100770,172,300,172,35 R,0,90770,100770,1.416813,2.529702 F,0,98770,100770,1,0
Sprite,Foreground,Centre,"ddot.png",320,240 S,0,91570,,0.8085042 C,0,91570,,255,255,255 M,0,91570,101570,344,300,344,35 R,0,91570,101570,5.301824,1.147441 F,0,99570,101570,1,0
Sprite,Foreground,Centre,"ddot.png",320,240 S,0,92370,,0.1653366 C,0,92370,,255,255,255 M,0,92370,102370,92,300,92,35 R,0,92370,102370,2.591448,1.133231 F,0,100370,102370,1,0
Sprite,Foreground,Centre,"ddot.png",320,240 S,0,93170,,0.7082201 C,0,93170,,255,255,255 M,0,93170,103170,98,300,98,35 R,0,93170,103170,9.331794,6.327099 F,0,101170,103170,1,0
Sprite,Foreground,Centre,"ddot.png",320,240 S,0,93970,,0.5384738 C,0,93970,,255,255,255 M,0,93970,103970,320,300,320,35 R,0,93970,103970,9.390719,4.905827 F,0,101970,103970,1,0
Sprite,Foreground,Centre,"SB\White.jpg",320,240 M,0,41970,,320,240 S,0,41970,,1.608114 F,0,41970,42313,0,0.3518862 F,0,42313,42398,0.3518862,0.693523 F,0,42398,42998,0.693523,0 F,0,42998,47455,0 F,0,47455,47798,0,0.3860498 F,0,47798,47884,0.3860498,0.6935231 F,0,47884,48827,0.6935231,0
Sprite,Foreground,Centre,"SB\Black.jpg",320,240 S,0,58427,,1.587616 F,0,58427,59798,0,0.9804982 F,0,59798,60141,0.9804982,0
Sprite,Foreground,Centre,"SB\White.jpg",320,240 S,0,125627,,1.608114 F,0,125627,125970,0,0.4543772 F,0,125970,126055,0.4543772,0.6866903 F,0,126055,126827,0.6866903,0 F,0,126827,131113,0 F,0,131113,131455,0,0.5568684 F,0,131455,131541,0.5568684,0.8404272 F,0,131541,132484,0.8404272,0
Sprite,Foreground,Centre,"SB\Black.jpg",320,240 S,0,142084,,1.608114 F,0,142084,143455,0,1 F,0,143455,143798,1,0
Sprite,Foreground,Centre,"SB\Ring.png",320,240 M,0,101284,,127,162 F,0,101284,101627,0,1 S,0,101284,102998,0.104911,0.6105336 F,0,101627,102998,1,0
Sprite,Foreground,Centre,"SB\Ring.png",320,240 M,0,104027,,177,345 F,0,104027,104370,0,0.9121708 S,0,104027,105741,0.1254092,0.6515304 F,0,104370,105741,0.9121708,0
Sprite,Foreground,Centre,"SB\Ring.png",320,240 M,0,109513,,152,67 F,0,109513,109770,0,0.8848399 S,0,109513,110884,0.1254092,0.5832028 F,0,109770,110884,0.8848399,0
Sprite,Foreground,Centre,"SB\Ring.png",320,240 M,0,111227,,224,338 F,0,111227,111398,0,1 S,0,111227,112941,0.1,0.5919574 F,0,111398,112941,1,0
Sprite,Foreground,Centre,"Lyric\22.png",320,240 S,0,120484,,0.8633453 F,0,120484,121170,0,1 M,0,120484,131112,173,330,246,355 F,0,121170,130770,1 F,0,130770,131112,1,0
Sprite,Foreground,Centre,"Lyric\23.png",320,240 F,0,125627,126312,0.06733093,1 M,0,125627,131112,421,412,404,406 F,0,126312,130770,1 F,0,130770,131112,1,0
Sprite,Foreground,Centre,"Lyric\24.png",320,240 S,0,131455,,0.9043415 F,0,131455,132141,0,1 M,0,131455,142770,232,326,285,354 F,0,132141,141741,1 F,0,141741,142770,1,0
Sprite,Foreground,Centre,"Lyric\25.png",320,240 F,0,136255,136941,0.04683243,1 M,0,136255,142770,431,418,402,406 F,0,136941,141741,1 F,0,141741,142770,1,0
Sprite,Foreground,Centre,"Lyric\26.png",320,240 S,0,143112,,0.9248398 F,0,143112,143798,0,1 M,0,143112,153741,234,317,286,350 F,0,143798,153398,1 F,0,153398,153741,1,0
Sprite,Foreground,Centre,"Lyric\27.png",320,240 F,0,148598,149284,0,1 M,0,148598,153741,407,411,375,404 F,0,149284,153398,1 F,0,153398,153741,1,0
Sprite,Foreground,Centre,"Lyric\28.png",320,240 F,0,154084,154770,0,1 M,0,154084,165398,211,325,282,350 F,0,154770,165055,1 F,0,165055,165398,1,0
Sprite,Foreground,Centre,"Lyric\29.png",320,240 S,0,159570,,0.9521707 F,0,159570,160255,0,1 M,0,159570,165398,407,423,380,408 F,0,160255,165055,1 F,0,165055,165398,1,0.01608521
Sprite,Foreground,Centre,"Lyric\30c.png",320,240 M,0,165741,,319,380 S,0,165741,165912,1.457794,1.102491 F,0,165741,171227,1 S,0,165912,172598,1.102491,0.9863343 F,0,171227,172598,1,0
Sprite,Foreground,Centre,"SB\Font effect.png",320,240 M,0,165741,,308,380 F,0,165741,165912,0.7574378,1 S,0,165741,165912,0.9385052,1.307473 F,0,165912,166770,1,0 S,0,165912,166770,1.307473,1.471459
Sprite,Foreground,Centre,"SB\White.jpg",320,240 M,0,59798,,320,240 S,0,59798,,1.608114 F,0,59798,60141,0,0.5158719 F,0,60141,60227,0.5158719,0.9224199 F,0,60227,61170,0.9224199,0 F,0,61170,70427,0 F,0,70427,71113,0,0.3348043 F,0,71113,71198,0.3348043,0.6115303 F,0,71198,72141,0.6115303,0 F,0,72141,87227,0 F,0,87227,87570,0,0.1844839 F,0,87570,87656,0.1844839,0.4919573 F,0,87656,88598,0.4919573,0 F,0,88598,143113,0 F,0,143113,143798,0,0.6012811 F,0,143798,143884,0.6012811,0.9121708 F,0,143884,144827,0.9121708,0 F,0,144827,154084,0 F,0,154084,154770,0,0.3382207 F,0,154770,154856,0.3382207,0.6217794 F,0,154856,155798,0.6217794,0 F,0,155798,165398,0 F,0,165398,165741,0,0.1810674 F,0,165741,165827,0.1810674,0.5432025 F,0,165827,166770,0.5432025,0
//Storyboard Sound Samples
//Background Colour Transformations
3,100,255,255,255

[TimingPoints]
5970,342.857142857143,4,2,2,60,1,0
6655,-100,4,2,2,30,0,0
9398,-100,4,2,1,70,0,0
11112,-100,4,2,2,40,0,0
11798,-100,4,2,2,70,0,0
12312,-100,4,2,2,30,0,0
14884,-100,4,1,0,40,0,0
15227,-100,4,2,2,40,0,0
20370,-100,4,1,0,40,0,0
20455,-100,4,2,2,40,0,0
25855,-100,4,1,0,40,0,0
26027,-100,4,2,2,40,0,0
31341,-100,4,1,0,40,0,0
31512,-100,4,2,2,40,0,0
36827,-100,4,2,2,40,0,0
37170,-100,4,1,2,40,0,0
37941,-100,4,2,2,40,0,0
38884,-100,4,1,2,40,0,0
38970,-100,4,2,2,40,0,0
39570,-100,4,1,2,40,0,0
39655,-100,4,2,2,40,0,0
41970,-100,4,2,1,40,0,0
42312,-100,4,2,2,40,0,0
44712,-100,4,1,2,40,0,0
44798,-100,4,2,2,40,0,0
45398,-100,4,1,2,40,0,0
45484,-100,4,2,2,40,0,0
45912,-100,4,2,2,30,0,0
47798,-100,4,2,2,40,0,0
52941,-100,4,2,2,60,0,0
54998,-100,4,1,2,60,0,0
55084,-100,4,2,2,60,0,0
55684,-100,4,1,2,60,0,0
55770,-100,4,2,2,60,0,0
56884,-100,4,2,2,30,0,0
58598,-100,4,1,0,30,0,0
60141,-100,4,2,2,40,0,1
60484,-100,4,1,1,70,0,1
60570,-100,4,2,1,70,0,1
61855,-100,4,1,1,70,0,1
61941,-100,4,2,1,70,0,1
63227,-100,4,1,1,70,0,1
63312,-100,4,2,1,70,0,1
63912,-100,4,1,1,70,0,1
63998,-100,4,2,1,70,0,1
65970,-100,4,1,1,70,0,1
66055,-100,4,2,1,70,0,1
66655,-100,4,1,1,70,0,1
66741,-100,4,2,1,70,0,1
68027,-100,4,1,1,70,0,1
68112,-100,4,2,1,70,0,1
68712,-100,4,1,1,70,0,1
68798,-100,4,2,1,70,0,1
69227,-100,4,2,1,40,0,1
70427,-100,4,2,1,30,0,0
71112,-100,4,2,1,70,0,1
74198,-100,4,1,1,70,0,1
74284,-100,4,2,1,70,0,1
76255,-100,4,1,1,70,0,1
76341,-100,4,2,1,70,0,1
76941,-100,4,1,1,70,0,1
77027,-100,4,2,1,70,0,1
78655,-100,4,2,1,30,0,1
82084,-100,4,2,1,70,0,0
85855,-100,4,2,1,30,0,0
87570,-100,4,2,1,70,0,0
98541,-100,4,1,0,40,0,0
98712,-100,4,2,2,40,0,0
103341,-100,4,1,2,40,0,0
103427,-100,4,2,2,40,0,0
104027,-100,4,1,0,40,0,0
104198,-100,4,2,2,40,0,0
107455,-100,4,1,2,40,0,0
107541,-100,4,2,1,40,0,0
108141,-100,4,1,2,40,0,0
108227,-100,4,2,1,40,0,0
109512,-100,4,1,0,40,0,0
109855,-100,4,2,1,40,0,0
112941,-100,4,1,2,40,0,0
113027,-100,4,2,2,40,0,0
114998,-100,4,1,2,40,0,0
115170,-100,4,2,2,40,0,0
119112,-100,4,2,1,30,0,0
120484,-100,4,2,2,60,0,0
120827,-100,4,2,2,40,0,0
121512,-100,4,1,2,40,0,0
121941,-100,4,2,2,40,0,0
122541,-100,4,1,2,40,0,0
122970,-100,4,2,2,40,0,0
123912,-100,4,1,1,40,0,0
124170,-100,4,1,2,40,0,0
124341,-100,4,2,2,40,0,0
124941,-100,4,1,2,40,0,0
125370,-100,4,2,2,40,0,0
126312,-100,4,1,2,40,0,0
127084,-100,4,2,2,40,0,0
129055,-100,4,1,2,40,0,0
129141,-100,4,2,2,40,0,0
129398,-100,4,1,1,40,0,0
129741,-100,4,1,2,40,0,0
129827,-100,4,2,2,40,0,0
130084,-100,4,2,2,30,0,0
131455,-100,4,2,2,60,0,0
139341,-100,4,1,2,60,0,0
139427,-100,4,2,2,60,0,0
140370,-100,4,2,1,30,0,0
142255,-100,4,2,1,20,0,0
143455,-100,4,1,0,70,0,0
143798,-100,4,2,1,70,0,1
144141,-100,4,1,1,70,0,1
144227,-100,4,2,1,70,0,1
144827,-100,4,1,1,70,0,1
144912,-100,4,2,1,70,0,1
146884,-100,4,1,1,70,0,1
146970,-100,4,2,1,70,0,1
148255,-100,4,1,1,70,0,1
148341,-100,4,2,1,70,0,1
149627,-100,4,1,1,70,0,1
149712,-100,4,2,1,70,0,1
150312,-100,4,1,1,70,0,1
150398,-100,4,2,1,70,0,1
153055,-100,4,1,1,70,0,1
153141,-100,4,2,1,70,0,1
154084,-100,4,2,1,70,0,0
154770,-100,4,2,1,70,0,1
155112,-100,4,1,1,70,0,1
155198,-100,4,2,1,70,0,1
156484,-100,4,1,1,70,0,1
156570,-100,4,2,1,70,0,1
157855,-100,4,1,1,70,0,1
157941,-100,4,2,1,70,0,1
158541,-100,4,1,1,70,0,1
158627,-100,4,2,1,70,0,1
158884,-100,4,2,1,30,0,1
160255,-100,4,2,1,70,0,1
163855,-100,4,2,1,30,0,1
165741,-100,4,2,1,70,0,0
168655,-100,4,2,1,30,0,0
171227,-100,4,2,1,70,0,0

[Colours]
Combo1 : 140,26,255
Combo2 : 255,255,255
Combo3 : 255,51,153

[HitObjects]
256,192,6312,1,8
256,192,6655,12,4,9398
128,184,10598,5,4
192,112,10941,1,8
288,112,11284,2,8,B|328:112,1,30
448,256,12141,1,4
256,192,12312,12,4,14884
232,192,15570,5,0
232,192,15912,2,0,B|360:192,2,120
176,264,17627,2,0,B|56:264,2,120,2|0|0
232,336,19341,1,0
312,296,19684,6,0,B|360:296|408:264|416:232,2,120,0|4|0
176,160,21741,1,0
176,160,22427,1,0
80,160,22770,1,0
128,248,23112,2,0,B|152:288|216:288|264:256|296:224|288:152,2,240,0|0|4
392,96,27227,5,0
224,192,27912,1,0
224,192,28598,1,0
264,280,28941,2,0,B|360:280,1,90
360,184,29798,2,0,B|456:184,2,90
256,80,31341,1,4
56,192,33570,5,0
136,248,33912,1,0
256,96,34598,1,0
256,96,35284,1,0
352,96,35627,1,0
392,280,36827,6,0,B|336:336|272:304|224:280|216:224|224:192,1,240,4|8
320,208,38541,2,0,B|384:96,2,120,8|8|8
232,168,40255,1,8
64,256,40941,1,8
128,328,41284,2,0,B|200:328,2,60,8|8|8
160,240,42312,5,4
160,240,42998,1,8
344,192,44027,1,8
344,96,44369,2,0,B|384:88|432:128|432:168,2,120,8|8|0
256,192,45912,12,4,47798
168,192,53284,5,4
312,320,53970,1,8
368,240,54312,1,8
368,144,54655,2,0,B|424:144|456:176|464:208|464:216,2,120,8|8|8
272,144,56370,1,8
176,144,56712,1,8
256,192,56884,12,0,58598
120,192,60141,6,0,B|96:160|120:104|160:80|200:80|232:96,1,180,4|8
216,184,61512,2,0,B|312:264,1,120
376,192,62541,1,8
360,96,62884,2,0,B|416:80|472:120|496:176|480:224|456:288|392:288,1,300,0|8
304,296,64941,5,0
208,272,65284,1,8
152,192,65627,2,0,B|72:88,2,120
232,136,67341,1,8
232,136,67684,2,0,B|312:240,2,120
256,192,69227,12,4,71112
200,136,71798,5,0
120,192,72141,2,0,B|120:264,2,60,8|0|8
200,136,73169,1,0
384,192,73855,2,0,B|384:240|360:280|344:288,2,105,0|0|4
280,96,75569,1,8
280,96,75912,2,0,B|160:96,2,120,0|4|0
360,48,77627,2,0,B|424:48,2,60,8|0|8
256,192,78655,12,4,82084
200,192,82770,5,8
296,192,83113,2,0,B|336:192,1,30,0|4
256,320,83798,2,0,B|352:320,1,90
408,248,84655,2,0,B|448:248,1,30,0|4
256,192,85855,12,4,87570
152,192,98541,6,0,B|152:256,2,60,4|0|8
224,128,99570,2,0,B|256:80|320:80|360:96|384:120,1,180,0|8
344,208,100941,2,0,B|368:272,2,60
256,256,101970,1,8
160,256,102312,2,0,B|32:256,2,120,0|0|0
208,336,104027,1,4
336,192,104712,5,8
144,152,105398,1,0
144,152,106084,1,8
80,224,106427,1,0
176,248,106770,1,8
176,248,107112,2,0,B|216:304|280:304|328:288|368:240|352:200,1,240,0|8
256,192,108827,2,0,B|224:136,2,60,8|8|4
432,192,110884,5,0
296,328,111570,1,8
120,256,112255,1,0
192,192,112598,2,0,B|320:192,2,120
112,136,114312,2,0,B|96:88|120:40|160:32,1,120,8|4
376,96,115684,5,8
184,120,116370,1,0
272,72,116712,1,0
272,168,117055,2,0,B|272:232,1,60,8|0
176,208,117741,2,0,B|152:272,1,60
72,208,118427,2,0,B|24:248,1,60,8|0
256,192,119112,12,4,120484
200,264,121170,6,0,B|296:264|296:264|344:248|360:224|360:208,2,180,8|0|8
240,176,123570,2,0,B|56:176,2,180,0|8|8
272,88,125970,6,0,B|312:48|376:56|432:80|448:120|448:160|448:176,1,240,4|8
368,224,127684,1,8
280,184,128027,2,0,B|208:184,1,60,8|8
152,112,128712,2,4,B|128:136|112:176|120:208|120:240|152:272|176:280|192:280,1,210
256,192,130084,12,4,131455
104,104,136941,5,4
152,288,137627,1,8
288,160,138312,1,8
448,56,138998,2,0,B|488:80|496:144|488:168,1,120,8|8
416,224,140027,1,0
256,192,140370,12,0,142255
256,280,143455,5,0
312,200,143798,2,0,B|352:224|360:280|352:312,2,120,4|0|0
216,208,145512,2,0,B|144:208,1,60,8|0
104,128,146198,1,8
40,56,146541,2,0,B|64:24|120:24|152:32|176:56|192:72|192:96,1,180,0|8
280,64,147912,2,0,B|320:64|360:88|368:128|368:144,1,120
272,160,148941,1,8
184,192,149284,6,0,B|184:240|248:272|296:264|336:248|352:224|368:184,1,240
336,96,150998,1,8
240,80,151341,2,0,B|168:80,1,60,0|8
112,152,152027,1,0
280,248,152712,2,0,B|376:248,1,90,0|4
424,80,154084,5,0
328,80,154427,1,8
256,144,154770,6,0,B|64:144,2,180,4|8|0
304,232,157170,1,8
336,320,157512,2,0,B|392:336|432:312|472:264|456:192,1,210,0|4
256,192,158884,12,4,160255
120,192,160941,5,0
256,56,161627,1,0
256,56,161970,1,8
344,88,162312,1,0
344,88,162655,1,8
272,152,162998,2,0,B|272:216,2,60,0|8|0
256,192,163855,12,4,165741
200,192,166427,5,8
104,192,166770,2,0,B|64:192,1,30,0|4
152,72,167455,2,0,B|248:72,1,90
320,128,168312,2,0,B|360:128,1,30,0|4
256,192,168655,12,4,171227
