osu file format v14

[General]
AudioFilename: Authentic symphony.mp3
AudioLeadIn: 0
PreviewTime: 59390
Countdown: 0
SampleSet: Normal
StackLeniency: 0.7
Mode: 1
LetterboxInBreaks: 0
WidescreenStoryboard: 0

[Editor]
DistanceSpacing: 1.3
BeatDivisor: 4
GridSize: 32
TimelineZoom: 1

[Metadata]
Title:Authentic symphony
TitleUnicode:Authentic symphony
Artist:ChouCho
ArtistUnicode:ちょうちょ
Creator:Nardoxyribonucleic
Version:Muzukashii
Source:ましろ色シンフォニー -The color of lovers-
Tags:Taiko ぱれっと Palette Visual Novel Anime Mashiro Iro Symphony Opening 虹音 こだまさおり Volta
BeatmapID:1480865
BeatmapSetID:688538

[Difficulty]
HPDrainRate:5
CircleSize:5
OverallDifficulty:5
ApproachRate:5
SliderMultiplier:1.4
SliderTickRate:1

[Events]
//Background and Video events
0,0,"BG1.jpg",0,0
//Break Periods
//Storyboard Layer 0 (Background)
//Storyboard Layer 1 (Fail)
//Storyboard Layer 2 (Pass)
//Storyboard Layer 3 (Foreground)
//Storyboard Sound Samples

[TimingPoints]
6592,342.857142857143,4,1,0,80,1,0
12249,-100,4,1,0,50,0,0
14820,-100,4,1,0,60,0,0
36763,-100,4,1,0,70,0,0
47734,-100,4,1,0,80,0,0
60077,-100,4,1,0,90,0,1
82020,-100,4,1,0,80,0,0
87506,-100,4,1,0,50,0,0
98477,-100,4,1,0,60,0,0
120420,-100,4,1,0,70,0,0
131392,-100,4,1,0,80,0,0
143734,-100,4,1,0,90,0,1
165677,-100,4,1,0,80,0,0
171163,-100,4,1,0,85,0,0
182134,-100,4,1,0,90,0,0
206820,-100,4,1,0,50,0,0
228763,-100,4,1,0,90,0,1
250706,-100,4,1,0,80,0,0
261677,-100,4,1,0,60,0,0
263049,-100,4,1,0,50,0,0
264420,-100,4,1,0,40,0,0
265792,-100,4,1,0,30,0,0
267163,-100,4,1,0,20,0,0

[HitObjects]
256,192,6591,5,4,0:0:0:0:
256,192,7792,1,12,0:0:0:0:
256,192,8992,1,0,0:0:0:0:
256,192,9334,1,12,0:0:0:0:
256,192,9849,1,8,0:0:0:0:
256,192,10192,1,8,0:0:0:0:
256,192,10534,1,4,0:0:0:0:
256,192,10877,1,8,0:0:0:0:
256,192,11220,1,0,0:0:0:0:
256,192,11392,1,0,0:0:0:0:
256,192,11734,1,0,0:0:0:0:
256,192,12077,1,12,0:0:0:0:
256,192,12249,12,0,14477,0:0:0:0:
256,192,14820,5,0,0:0:0:0:
256,192,15334,1,8,0:0:0:0:
256,192,15506,1,8,0:0:0:0:
256,192,15849,1,0,0:0:0:0:
256,192,16020,1,8,0:0:0:0:
256,192,16534,1,8,0:0:0:0:
256,192,16877,1,0,0:0:0:0:
256,192,17220,1,8,0:0:0:0:
256,192,17392,1,0,0:0:0:0:
256,192,17563,1,0,0:0:0:0:
256,192,18592,1,0,0:0:0:0:
256,192,18763,1,0,0:0:0:0:
256,192,19277,1,8,0:0:0:0:
256,192,19620,1,0,0:0:0:0:
256,192,19963,1,8,0:0:0:0:
256,192,20134,1,0,0:0:0:0:
256,192,20306,1,0,0:0:0:0:
256,192,22020,1,0,0:0:0:0:
256,192,22363,1,0,0:0:0:0:
256,192,22706,1,8,0:0:0:0:
256,192,23049,1,8,0:0:0:0:
256,192,23563,1,0,0:0:0:0:
256,192,23734,1,0,0:0:0:0:
256,192,24077,1,0,0:0:0:0:
256,192,24249,1,8,0:0:0:0:
256,192,25620,1,0,0:0:0:0:
256,192,25792,1,8,0:0:0:0:
256,192,26134,1,0,0:0:0:0:
256,192,26306,1,0,0:0:0:0:
256,192,26649,1,8,0:0:0:0:
256,192,26992,1,8,0:0:0:0:
256,192,27506,1,0,0:0:0:0:
256,192,28363,1,0,0:0:0:0:
256,192,28534,1,8,0:0:0:0:
256,192,28877,1,0,0:0:0:0:
256,192,29049,1,8,0:0:0:0:
256,192,29392,1,8,0:0:0:0:
256,192,29734,1,0,0:0:0:0:
256,192,30249,1,8,0:0:0:0:
256,192,30420,1,0,0:0:0:0:
256,192,30763,1,8,0:0:0:0:
256,192,31106,1,0,0:0:0:0:
256,192,31277,1,0,0:0:0:0:
256,192,31620,1,0,0:0:0:0:
256,192,31792,1,8,0:0:0:0:
256,192,32134,1,0,0:0:0:0:
256,192,32477,1,8,0:0:0:0:
256,192,33506,1,0,0:0:0:0:
256,192,33677,1,8,0:0:0:0:
256,192,33849,1,8,0:0:0:0:
256,192,34020,1,0,0:0:0:0:
256,192,34363,1,8,0:0:0:0:
256,192,34534,1,0,0:0:0:0:
256,192,34877,1,0,0:0:0:0:
256,192,35220,1,8,0:0:0:0:
256,192,35906,1,0,0:0:0:0:
256,192,36077,1,8,0:0:0:0:
256,192,36420,1,8,0:0:0:0:
256,192,36763,1,4,0:0:0:0:
256,192,37106,1,0,0:0:0:0:
256,192,37277,1,0,0:0:0:0:
256,192,37449,1,8,0:0:0:0:
256,192,37792,1,8,0:0:0:0:
256,192,37963,1,8,0:0:0:0:
256,192,38134,1,0,0:0:0:0:
256,192,38477,1,8,0:0:0:0:
256,192,38820,1,0,0:0:0:0:
256,192,39163,1,0,0:0:0:0:
256,192,39334,1,0,0:0:0:0:
256,192,39506,1,8,0:0:0:0:
256,192,39849,1,0,0:0:0:0:
256,192,40192,1,8,0:0:0:0:
256,192,40534,1,0,0:0:0:0:
256,192,40706,1,8,0:0:0:0:
256,192,41049,1,8,0:0:0:0:
256,192,41220,1,0,0:0:0:0:
256,192,41392,1,8,0:0:0:0:
256,192,41734,1,8,0:0:0:0:
256,192,41906,1,0,0:0:0:0:
256,192,42077,1,8,0:0:0:0:
256,192,42249,1,4,0:0:0:0:
256,192,42592,1,0,0:0:0:0:
256,192,42763,1,0,0:0:0:0:
256,192,42934,1,8,0:0:0:0:
256,192,43277,1,8,0:0:0:0:
256,192,43449,1,8,0:0:0:0:
256,192,43620,1,0,0:0:0:0:
256,192,43963,1,8,0:0:0:0:
256,192,44306,1,0,0:0:0:0:
256,192,44649,1,8,0:0:0:0:
256,192,44820,1,8,0:0:0:0:
256,192,44992,1,0,0:0:0:0:
256,192,45334,1,8,0:0:0:0:
256,192,45677,1,0,0:0:0:0:
256,192,46020,1,8,0:0:0:0:
256,192,46192,1,8,0:0:0:0:
256,192,46363,1,0,0:0:0:0:
256,192,46706,1,0,0:0:0:0:
256,192,46877,1,8,0:0:0:0:
256,192,47049,1,0,0:0:0:0:
256,192,47220,1,8,0:0:0:0:
256,192,47392,1,0,0:0:0:0:
256,192,47477,1,0,0:0:0:0:
256,192,47563,1,0,0:0:0:0:
256,192,47734,1,12,0:0:0:0:
256,192,48077,1,8,0:0:0:0:
256,192,48249,1,0,0:0:0:0:
256,192,48592,1,0,0:0:0:0:
256,192,48934,1,12,0:0:0:0:
256,192,49277,1,0,0:0:0:0:
256,192,49449,1,8,0:0:0:0:
256,192,49792,1,0,0:0:0:0:
256,192,50134,1,8,0:0:0:0:
256,192,50306,1,8,0:0:0:0:
256,192,50477,1,4,0:0:0:0:
256,192,50820,1,0,0:0:0:0:
256,192,51163,1,8,0:0:0:0:
256,192,51506,1,8,0:0:0:0:
256,192,51677,1,4,0:0:0:0:
256,192,52020,1,0,0:0:0:0:
256,192,52192,1,0,0:0:0:0:
256,192,52363,1,8,0:0:0:0:
256,192,52534,1,8,0:0:0:0:
256,192,52877,1,8,0:0:0:0:
256,192,53049,1,0,0:0:0:0:
256,192,53220,1,4,0:0:0:0:
256,192,53563,1,0,0:0:0:0:
256,192,53906,1,0,0:0:0:0:
256,192,54077,1,0,0:0:0:0:
256,192,54249,1,8,0:0:0:0:
256,192,54592,1,0,0:0:0:0:
256,192,54934,1,8,0:0:0:0:
256,192,55277,1,0,0:0:0:0:
256,192,55449,1,0,0:0:0:0:
256,192,55620,1,8,0:0:0:0:
256,192,55792,1,8,0:0:0:0:
256,192,55963,1,0,0:0:0:0:
256,192,56306,1,0,0:0:0:0:
256,192,56477,1,8,0:0:0:0:
256,192,56649,1,8,0:0:0:0:
256,192,56992,1,8,0:0:0:0:
256,192,57334,1,0,0:0:0:0:
256,192,57506,1,8,0:0:0:0:
256,192,57677,1,0,0:0:0:0:
256,192,57763,1,0,0:0:0:0:
256,192,57849,1,0,0:0:0:0:
256,192,58020,1,8,0:0:0:0:
256,192,58192,1,0,0:0:0:0:
256,192,58363,1,8,0:0:0:0:
256,192,58449,1,8,0:0:0:0:
256,192,58534,1,8,0:0:0:0:
256,192,58706,1,0,0:0:0:0:
256,192,59392,1,0,0:0:0:0:
256,192,59734,1,8,0:0:0:0:
256,192,60077,1,12,0:0:0:0:
256,192,60420,1,8,0:0:0:0:
256,192,60592,1,0,0:0:0:0:
256,192,60677,1,0,0:0:0:0:
256,192,60763,1,0,0:0:0:0:
256,192,60934,1,0,0:0:0:0:
256,192,61106,1,8,0:0:0:0:
256,192,61277,1,8,0:0:0:0:
256,192,61620,1,0,0:0:0:0:
256,192,61792,1,8,0:0:0:0:
256,192,61963,1,0,0:0:0:0:
256,192,62134,1,0,0:0:0:0:
256,192,62306,1,8,0:0:0:0:
256,192,62392,1,8,0:0:0:0:
256,192,62477,1,8,0:0:0:0:
256,192,62649,1,0,0:0:0:0:
256,192,62820,1,8,0:0:0:0:
256,192,63163,1,8,0:0:0:0:
256,192,63334,1,0,0:0:0:0:
256,192,63420,1,0,0:0:0:0:
256,192,63506,1,0,0:0:0:0:
256,192,63677,1,0,0:0:0:0:
256,192,63849,1,8,0:0:0:0:
256,192,64020,1,0,0:0:0:0:
256,192,64363,1,0,0:0:0:0:
256,192,64534,1,8,0:0:0:0:
256,192,64877,1,0,0:0:0:0:
256,192,65049,1,8,0:0:0:0:
256,192,65220,1,0,0:0:0:0:
256,192,65392,1,8,0:0:0:0:
256,192,65563,1,0,0:0:0:0:
256,192,65906,1,8,0:0:0:0:
256,192,66077,1,0,0:0:0:0:
256,192,66163,1,0,0:0:0:0:
256,192,66249,1,0,0:0:0:0:
256,192,66420,1,0,0:0:0:0:
256,192,66592,1,8,0:0:0:0:
256,192,66763,1,8,0:0:0:0:
256,192,67106,1,0,0:0:0:0:
256,192,67277,1,8,0:0:0:0:
256,192,67620,1,8,0:0:0:0:
256,192,67792,1,8,0:0:0:0:
256,192,67877,1,8,0:0:0:0:
256,192,67963,1,8,0:0:0:0:
256,192,68134,1,0,0:0:0:0:
256,192,68306,1,8,0:0:0:0:
256,192,68649,1,8,0:0:0:0:
256,192,68820,1,0,0:0:0:0:
256,192,68906,1,0,0:0:0:0:
256,192,68992,1,0,0:0:0:0:
256,192,69163,1,0,0:0:0:0:
256,192,69334,1,8,0:0:0:0:
256,192,69506,1,12,0:0:0:0:
256,192,69849,1,0,0:0:0:0:
256,192,70020,1,8,0:0:0:0:
256,192,70192,1,8,0:0:0:0:
256,192,70277,1,8,0:0:0:0:
256,192,70363,1,8,0:0:0:0:
256,192,70534,1,0,0:0:0:0:
256,192,70706,1,8,0:0:0:0:
256,192,71049,1,12,0:0:0:0:
256,192,71392,1,8,0:0:0:0:
256,192,71734,1,0,0:0:0:0:
256,192,71906,1,0,0:0:0:0:
256,192,72077,1,8,0:0:0:0:
256,192,72249,1,8,0:0:0:0:
256,192,72334,1,8,0:0:0:0:
256,192,72420,1,8,0:0:0:0:
256,192,72592,1,0,0:0:0:0:
256,192,72763,1,8,0:0:0:0:
256,192,73106,1,0,0:0:0:0:
256,192,73449,1,8,0:0:0:0:
256,192,73620,1,0,0:0:0:0:
256,192,73792,1,8,0:0:0:0:
256,192,74134,1,8,0:0:0:0:
256,192,74306,1,8,0:0:0:0:
256,192,74477,1,0,0:0:0:0:
256,192,74649,1,8,0:0:0:0:
256,192,74734,1,8,0:0:0:0:
256,192,74820,1,8,0:0:0:0:
256,192,74992,1,4,0:0:0:0:
256,192,75334,1,0,0:0:0:0:
256,192,75506,1,8,0:0:0:0:
256,192,75677,1,8,0:0:0:0:
256,192,75763,1,8,0:0:0:0:
256,192,75849,1,8,0:0:0:0:
256,192,76020,1,0,0:0:0:0:
256,192,76192,1,8,0:0:0:0:
256,192,76363,1,0,0:0:0:0:
256,192,76534,1,8,0:0:0:0:
256,192,76877,1,8,0:0:0:0:
256,192,77049,1,0,0:0:0:0:
256,192,77134,1,0,0:0:0:0:
256,192,77220,1,0,0:0:0:0:
256,192,77392,1,0,0:0:0:0:
256,192,77563,1,8,0:0:0:0:
256,192,77734,1,0,0:0:0:0:
256,192,78077,1,0,0:0:0:0:
256,192,78249,1,8,0:0:0:0:
256,192,78592,1,0,0:0:0:0:
256,192,78763,1,0,0:0:0:0:
256,192,78934,1,8,0:0:0:0:
256,192,79106,1,0,0:0:0:0:
256,192,79192,1,0,0:0:0:0:
256,192,79277,1,0,0:0:0:0:
256,192,79620,1,8,0:0:0:0:
256,192,79792,1,0,0:0:0:0:
256,192,80134,1,8,0:0:0:0:
256,192,80477,1,4,0:0:0:0:
256,192,80820,1,0,0:0:0:0:
256,192,80992,1,8,0:0:0:0:
256,192,81163,1,8,0:0:0:0:
256,192,81334,1,0,0:0:0:0:
256,192,81677,1,8,0:0:0:0:
256,192,81849,1,0,0:0:0:0:
256,192,82020,1,12,0:0:0:0:
256,192,82706,1,8,0:0:0:0:
256,192,82877,1,0,0:0:0:0:
256,192,83220,1,4,0:0:0:0:
256,192,83734,1,8,0:0:0:0:
256,192,83906,1,8,0:0:0:0:
256,192,84249,1,0,0:0:0:0:
256,192,84420,1,8,0:0:0:0:
256,192,84763,1,4,0:0:0:0:
256,192,85449,1,8,0:0:0:0:
256,192,85792,1,0,0:0:0:0:
256,192,85963,1,8,0:0:0:0:
256,192,86134,1,0,0:0:0:0:
256,192,86477,1,8,0:0:0:0:
256,192,86649,1,8,0:0:0:0:
256,192,86820,1,0,0:0:0:0:
256,192,86992,1,8,0:0:0:0:
256,192,87506,1,12,0:0:0:0:
256,192,89563,1,8,0:0:0:0:
256,192,90249,1,0,0:0:0:0:
256,192,91963,1,0,0:0:0:0:
256,192,92306,1,0,0:0:0:0:
256,192,92649,1,8,0:0:0:0:
256,192,92992,1,8,0:0:0:0:
256,192,94363,1,0,0:0:0:0:
256,192,95734,1,8,0:0:0:0:
256,192,96763,1,0,0:0:0:0:
256,192,97106,1,8,0:0:0:0:
256,192,97277,1,8,0:0:0:0:
256,192,97620,1,0,0:0:0:0:
256,192,97792,1,8,0:0:0:0:
256,192,98134,1,8,0:0:0:0:
256,192,98477,1,0,0:0:0:0:
256,192,99163,1,8,0:0:0:0:
256,192,99506,1,0,0:0:0:0:
256,192,99677,1,8,0:0:0:0:
256,192,99849,1,0,0:0:0:0:
256,192,100192,1,8,0:0:0:0:
256,192,100534,1,0,0:0:0:0:
256,192,100877,1,8,0:0:0:0:
256,192,101049,1,0,0:0:0:0:
256,192,101220,1,0,0:0:0:0:
256,192,101906,1,0,0:0:0:0:
256,192,102249,1,8,0:0:0:0:
256,192,102420,1,8,0:0:0:0:
256,192,102763,1,0,0:0:0:0:
256,192,102934,1,8,0:0:0:0:
256,192,103277,1,0,0:0:0:0:
256,192,103620,1,8,0:0:0:0:
256,192,103792,1,0,0:0:0:0:
256,192,103963,1,0,0:0:0:0:
256,192,104649,1,0,0:0:0:0:
256,192,104992,1,0,0:0:0:0:
256,192,105163,1,8,0:0:0:0:
256,192,105506,1,8,0:0:0:0:
256,192,105677,1,0,0:0:0:0:
256,192,106020,1,0,0:0:0:0:
256,192,106363,1,8,0:0:0:0:
256,192,106534,1,0,0:0:0:0:
256,192,106706,1,8,0:0:0:0:
256,192,107392,1,0,0:0:0:0:
256,192,107734,1,0,0:0:0:0:
256,192,108077,1,8,0:0:0:0:
256,192,108249,1,8,0:0:0:0:
256,192,108420,1,0,0:0:0:0:
256,192,108763,1,8,0:0:0:0:
256,192,109106,1,0,0:0:0:0:
256,192,109277,1,0,0:0:0:0:
256,192,109449,1,8,0:0:0:0:
256,192,109792,1,0,0:0:0:0:
256,192,109963,1,0,0:0:0:0:
256,192,110306,1,8,0:0:0:0:
256,192,110649,1,8,0:0:0:0:
256,192,110820,1,0,0:0:0:0:
256,192,111163,1,8,0:0:0:0:
256,192,111849,1,8,0:0:0:0:
256,192,112020,1,0,0:0:0:0:
256,192,112192,1,8,0:0:0:0:
256,192,112534,1,0,0:0:0:0:
256,192,112706,1,8,0:0:0:0:
256,192,113049,1,8,0:0:0:0:
256,192,113392,1,0,0:0:0:0:
256,192,113563,1,0,0:0:0:0:
256,192,113906,1,8,0:0:0:0:
256,192,114077,1,0,0:0:0:0:
256,192,114420,1,8,0:0:0:0:
256,192,114763,1,0,0:0:0:0:
256,192,114934,1,8,0:0:0:0:
256,192,115620,1,8,0:0:0:0:
256,192,115963,1,0,0:0:0:0:
256,192,116134,1,8,0:0:0:0:
256,192,116306,1,0,0:0:0:0:
256,192,116649,1,8,0:0:0:0:
256,192,116992,1,0,0:0:0:0:
256,192,117334,1,8,0:0:0:0:
256,192,117506,1,8,0:0:0:0:
256,192,117677,1,0,0:0:0:0:
256,192,118020,1,8,0:0:0:0:
256,192,118192,1,0,0:0:0:0:
256,192,118534,1,0,0:0:0:0:
256,192,118877,1,8,0:0:0:0:
256,192,119049,1,0,0:0:0:0:
256,192,119220,1,8,0:0:0:0:
256,192,119392,1,8,0:0:0:0:
256,192,119734,1,8,0:0:0:0:
256,192,119906,1,8,0:0:0:0:
256,192,119992,1,8,0:0:0:0:
256,192,120077,1,8,0:0:0:0:
256,192,120420,1,4,0:0:0:0:
256,192,120763,1,0,0:0:0:0:
256,192,120934,1,0,0:0:0:0:
256,192,121106,1,8,0:0:0:0:
256,192,121449,1,8,0:0:0:0:
256,192,121620,1,8,0:0:0:0:
256,192,121792,1,0,0:0:0:0:
256,192,121963,1,8,0:0:0:0:
256,192,122134,1,0,0:0:0:0:
256,192,122477,1,0,0:0:0:0:
256,192,122820,1,0,0:0:0:0:
256,192,122992,1,0,0:0:0:0:
256,192,123163,1,8,0:0:0:0:
256,192,123506,1,0,0:0:0:0:
256,192,123849,1,8,0:0:0:0:
256,192,124192,1,0,0:0:0:0:
256,192,124363,1,8,0:0:0:0:
256,192,124706,1,8,0:0:0:0:
256,192,124877,1,8,0:0:0:0:
256,192,125049,1,0,0:0:0:0:
256,192,125134,1,0,0:0:0:0:
256,192,125220,1,0,0:0:0:0:
256,192,125392,1,8,0:0:0:0:
256,192,125563,1,0,0:0:0:0:
256,192,125734,1,8,0:0:0:0:
256,192,125906,1,4,0:0:0:0:
256,192,126249,1,0,0:0:0:0:
256,192,126420,1,0,0:0:0:0:
256,192,126592,1,8,0:0:0:0:
256,192,126934,1,8,0:0:0:0:
256,192,127106,1,8,0:0:0:0:
256,192,127277,1,0,0:0:0:0:
256,192,127449,1,0,0:0:0:0:
256,192,127620,1,8,0:0:0:0:
256,192,127963,1,0,0:0:0:0:
256,192,128306,1,8,0:0:0:0:
256,192,128477,1,8,0:0:0:0:
256,192,128649,1,0,0:0:0:0:
256,192,128992,1,8,0:0:0:0:
256,192,129334,1,0,0:0:0:0:
256,192,129677,1,8,0:0:0:0:
256,192,129849,1,8,0:0:0:0:
256,192,130192,1,8,0:0:0:0:
256,192,130363,1,0,0:0:0:0:
256,192,130534,1,8,0:0:0:0:
256,192,130706,1,0,0:0:0:0:
256,192,130792,1,0,0:0:0:0:
256,192,130877,1,0,0:0:0:0:
256,192,131049,1,8,0:0:0:0:
256,192,131220,1,0,0:0:0:0:
256,192,131392,1,12,0:0:0:0:
256,192,131734,1,8,0:0:0:0:
256,192,131906,1,0,0:0:0:0:
256,192,132249,1,0,0:0:0:0:
256,192,132592,1,12,0:0:0:0:
256,192,132934,1,0,0:0:0:0:
256,192,133106,1,8,0:0:0:0:
256,192,133449,1,0,0:0:0:0:
256,192,133792,1,8,0:0:0:0:
256,192,133963,1,8,0:0:0:0:
256,192,134134,1,4,0:0:0:0:
256,192,134306,1,8,0:0:0:0:
256,192,134477,1,0,0:0:0:0:
256,192,134820,1,8,0:0:0:0:
256,192,134992,1,0,0:0:0:0:
256,192,135163,1,8,0:0:0:0:
256,192,135334,1,12,0:0:0:0:
256,192,135677,1,0,0:0:0:0:
256,192,135849,1,8,0:0:0:0:
256,192,136020,1,8,0:0:0:0:
256,192,136106,1,8,0:0:0:0:
256,192,136192,1,8,0:0:0:0:
256,192,136534,1,8,0:0:0:0:
256,192,136706,1,8,0:0:0:0:
256,192,136877,1,4,0:0:0:0:
256,192,137220,1,8,0:0:0:0:
256,192,137563,1,0,0:0:0:0:
256,192,137906,1,8,0:0:0:0:
256,192,138077,1,8,0:0:0:0:
256,192,138249,1,0,0:0:0:0:
256,192,138592,1,8,0:0:0:0:
256,192,138934,1,8,0:0:0:0:
256,192,139106,1,0,0:0:0:0:
256,192,139277,1,8,0:0:0:0:
256,192,139449,1,8,0:0:0:0:
256,192,139620,1,0,0:0:0:0:
256,192,139963,1,0,0:0:0:0:
256,192,140134,1,8,0:0:0:0:
256,192,140306,1,8,0:0:0:0:
256,192,140649,1,8,0:0:0:0:
256,192,140820,1,0,0:0:0:0:
256,192,140906,1,0,0:0:0:0:
256,192,140992,1,0,0:0:0:0:
256,192,141163,1,8,0:0:0:0:
256,192,141334,1,8,0:0:0:0:
256,192,141506,1,0,0:0:0:0:
256,192,141677,1,0,0:0:0:0:
256,192,141763,1,0,0:0:0:0:
256,192,141849,1,0,0:0:0:0:
256,192,142020,1,8,0:0:0:0:
256,192,142106,1,8,0:0:0:0:
256,192,142192,1,8,0:0:0:0:
256,192,142363,1,0,0:0:0:0:
256,192,143049,1,0,0:0:0:0:
256,192,143220,1,0,0:0:0:0:
256,192,143392,1,8,0:0:0:0:
256,192,143734,1,12,0:0:0:0:
256,192,144077,1,8,0:0:0:0:
256,192,144249,1,0,0:0:0:0:
256,192,144334,1,0,0:0:0:0:
256,192,144420,1,0,0:0:0:0:
256,192,144592,1,0,0:0:0:0:
256,192,144763,1,8,0:0:0:0:
256,192,144934,1,8,0:0:0:0:
256,192,145277,1,0,0:0:0:0:
256,192,145449,1,8,0:0:0:0:
256,192,145620,1,8,0:0:0:0:
256,192,145792,1,0,0:0:0:0:
256,192,145877,1,0,0:0:0:0:
256,192,145963,1,0,0:0:0:0:
256,192,146134,1,8,0:0:0:0:
256,192,146306,1,0,0:0:0:0:
256,192,146477,1,8,0:0:0:0:
256,192,146820,1,8,0:0:0:0:
256,192,146992,1,0,0:0:0:0:
256,192,147077,1,0,0:0:0:0:
256,192,147163,1,0,0:0:0:0:
256,192,147334,1,0,0:0:0:0:
256,192,147506,1,8,0:0:0:0:
256,192,147677,1,0,0:0:0:0:
256,192,148020,1,0,0:0:0:0:
256,192,148192,1,8,0:0:0:0:
256,192,148534,1,0,0:0:0:0:
256,192,148706,1,8,0:0:0:0:
256,192,148877,1,0,0:0:0:0:
256,192,149049,1,8,0:0:0:0:
256,192,149220,1,0,0:0:0:0:
256,192,149563,1,8,0:0:0:0:
256,192,149734,1,0,0:0:0:0:
256,192,149820,1,0,0:0:0:0:
256,192,149906,1,0,0:0:0:0:
256,192,150077,1,0,0:0:0:0:
256,192,150249,1,8,0:0:0:0:
256,192,150420,1,8,0:0:0:0:
256,192,150763,1,0,0:0:0:0:
256,192,150934,1,8,0:0:0:0:
256,192,151277,1,8,0:0:0:0:
256,192,151449,1,8,0:0:0:0:
256,192,151534,1,8,0:0:0:0:
256,192,151620,1,8,0:0:0:0:
256,192,151792,1,0,0:0:0:0:
256,192,151963,1,8,0:0:0:0:
256,192,152306,1,8,0:0:0:0:
256,192,152477,1,0,0:0:0:0:
256,192,152563,1,0,0:0:0:0:
256,192,152649,1,0,0:0:0:0:
256,192,152820,1,0,0:0:0:0:
256,192,152992,1,8,0:0:0:0:
256,192,153163,1,12,0:0:0:0:
256,192,153506,1,0,0:0:0:0:
256,192,153677,1,8,0:0:0:0:
256,192,153849,1,8,0:0:0:0:
256,192,153934,1,8,0:0:0:0:
256,192,154020,1,8,0:0:0:0:
256,192,154192,1,0,0:0:0:0:
256,192,154363,1,8,0:0:0:0:
256,192,154706,1,12,0:0:0:0:
256,192,155049,1,8,0:0:0:0:
256,192,155392,1,0,0:0:0:0:
256,192,155563,1,0,0:0:0:0:
256,192,155734,1,8,0:0:0:0:
256,192,155906,1,8,0:0:0:0:
256,192,155992,1,8,0:0:0:0:
256,192,156077,1,8,0:0:0:0:
256,192,156249,1,0,0:0:0:0:
256,192,156420,1,8,0:0:0:0:
256,192,156763,1,0,0:0:0:0:
256,192,156849,1,0,0:0:0:0:
256,192,156934,1,0,0:0:0:0:
256,192,157106,1,8,0:0:0:0:
256,192,157277,1,0,0:0:0:0:
256,192,157449,1,8,0:0:0:0:
256,192,157792,1,8,0:0:0:0:
256,192,157963,1,8,0:0:0:0:
256,192,158134,1,0,0:0:0:0:
256,192,158306,1,8,0:0:0:0:
256,192,158392,1,8,0:0:0:0:
256,192,158477,1,8,0:0:0:0:
256,192,158649,1,4,0:0:0:0:
256,192,158992,1,0,0:0:0:0:
256,192,159163,1,8,0:0:0:0:
256,192,159334,1,8,0:0:0:0:
256,192,159420,1,8,0:0:0:0:
256,192,159506,1,8,0:0:0:0:
256,192,159677,1,0,0:0:0:0:
256,192,159849,1,8,0:0:0:0:
256,192,160020,1,0,0:0:0:0:
256,192,160192,1,8,0:0:0:0:
256,192,160534,1,8,0:0:0:0:
256,192,160706,1,0,0:0:0:0:
256,192,160792,1,0,0:0:0:0:
256,192,160877,1,0,0:0:0:0:
256,192,161049,1,0,0:0:0:0:
256,192,161220,1,8,0:0:0:0:
256,192,161392,1,4,0:0:0:0:
256,192,161734,1,0,0:0:0:0:
256,192,161906,1,8,0:0:0:0:
256,192,162249,1,0,0:0:0:0:
256,192,162420,1,0,0:0:0:0:
256,192,162592,1,8,0:0:0:0:
256,192,162763,1,0,0:0:0:0:
256,192,162934,1,8,0:0:0:0:
256,192,163277,1,8,0:0:0:0:
256,192,163449,1,0,0:0:0:0:
256,192,163620,1,8,0:0:0:0:
256,192,163706,1,8,0:0:0:0:
256,192,163792,1,8,0:0:0:0:
256,192,163963,1,0,0:0:0:0:
256,192,164134,1,12,0:0:0:0:
256,192,164477,1,0,0:0:0:0:
256,192,164649,1,8,0:0:0:0:
256,192,164820,1,8,0:0:0:0:
256,192,164992,1,0,0:0:0:0:
256,192,165334,1,8,0:0:0:0:
256,192,165506,1,0,0:0:0:0:
256,192,165677,1,12,0:0:0:0:
256,192,166020,1,0,0:0:0:0:
256,192,166192,1,8,0:0:0:0:
256,192,166363,1,8,0:0:0:0:
256,192,166534,1,0,0:0:0:0:
256,192,166877,1,4,0:0:0:0:
256,192,167220,1,8,0:0:0:0:
256,192,167392,1,0,0:0:0:0:
256,192,167563,1,8,0:0:0:0:
256,192,167906,1,0,0:0:0:0:
256,192,168249,1,8,0:0:0:0:
256,192,168420,1,4,0:0:0:0:
256,192,169106,1,8,0:0:0:0:
256,192,169449,1,0,0:0:0:0:
256,192,169792,1,8,0:0:0:0:
256,192,169963,1,0,0:0:0:0:
256,192,170134,1,8,0:0:0:0:
256,192,170306,1,0,0:0:0:0:
256,192,170392,1,0,0:0:0:0:
256,192,170477,1,0,0:0:0:0:
256,192,170649,1,8,0:0:0:0:
256,192,170992,1,0,0:0:0:0:
256,192,171163,1,12,0:0:0:0:
256,192,171849,1,8,0:0:0:0:
256,192,172363,1,4,0:0:0:0:
256,192,172706,1,0,0:0:0:0:
256,192,173049,1,8,0:0:0:0:
256,192,173220,1,8,0:0:0:0:
256,192,173392,1,0,0:0:0:0:
256,192,173563,1,0,0:0:0:0:
256,192,173906,1,4,0:0:0:0:
256,192,174077,1,8,0:0:0:0:
256,192,174420,1,0,0:0:0:0:
256,192,174592,1,8,0:0:0:0:
256,192,174763,1,0,0:0:0:0:
256,192,175106,1,12,0:0:0:0:
256,192,175449,1,8,0:0:0:0:
256,192,175792,1,0,0:0:0:0:
256,192,175963,1,0,0:0:0:0:
256,192,176049,1,0,0:0:0:0:
256,192,176134,1,0,0:0:0:0:
256,192,176306,1,8,0:0:0:0:
256,192,176392,1,8,0:0:0:0:
256,192,176477,1,8,0:0:0:0:
256,192,176649,1,4,0:0:0:0:
256,192,177334,1,8,0:0:0:0:
256,192,177677,1,8,0:0:0:0:
256,192,177849,1,8,0:0:0:0:
256,192,178020,1,0,0:0:0:0:
256,192,178363,1,8,0:0:0:0:
256,192,178706,1,0,0:0:0:0:
256,192,179049,1,8,0:0:0:0:
256,192,179220,1,0,0:0:0:0:
256,192,179392,1,8,0:0:0:0:
256,192,179734,1,0,0:0:0:0:
256,192,180077,1,8,0:0:0:0:
256,192,180249,1,0,0:0:0:0:
256,192,180420,1,0,0:0:0:0:
256,192,180592,1,8,0:0:0:0:
256,192,180934,1,8,0:0:0:0:
256,192,181106,1,8,0:0:0:0:
256,192,181277,1,0,0:0:0:0:
256,192,181449,1,8,0:0:0:0:
256,192,181534,1,8,0:0:0:0:
256,192,181620,1,8,0:0:0:0:
256,192,181792,1,0,0:0:0:0:
256,192,181877,1,0,0:0:0:0:
256,192,181963,1,0,0:0:0:0:
256,192,182134,1,8,0:0:0:0:
256,192,182477,1,12,0:0:0:0:
256,192,182820,1,0,0:0:0:0:
256,192,182992,1,0,0:0:0:0:
256,192,183163,1,8,0:0:0:0:
256,192,183334,1,0,0:0:0:0:
256,192,183677,1,0,0:0:0:0:
256,192,183849,1,8,0:0:0:0:
256,192,184020,1,0,0:0:0:0:
256,192,184363,1,0,0:0:0:0:
256,192,184534,1,8,0:0:0:0:
256,192,184706,1,8,0:0:0:0:
256,192,184877,1,0,0:0:0:0:
256,192,185220,1,8,0:0:0:0:
256,192,185392,1,0,0:0:0:0:
256,192,185477,1,0,0:0:0:0:
256,192,185563,1,0,0:0:0:0:
256,192,185734,1,8,0:0:0:0:
256,192,185906,1,0,0:0:0:0:
256,192,186077,1,12,0:0:0:0:
256,192,186420,1,0,0:0:0:0:
256,192,186592,1,8,0:0:0:0:
256,192,186934,1,8,0:0:0:0:
256,192,187106,1,0,0:0:0:0:
256,192,187277,1,8,0:0:0:0:
256,192,187449,1,8,0:0:0:0:
256,192,187534,1,8,0:0:0:0:
256,192,187620,1,8,0:0:0:0:
256,192,187963,1,0,0:0:0:0:
256,192,188134,1,8,0:0:0:0:
256,192,188306,1,0,0:0:0:0:
256,192,188477,1,0,0:0:0:0:
256,192,188649,1,8,0:0:0:0:
256,192,188992,1,8,0:0:0:0:
256,192,189163,1,8,0:0:0:0:
256,192,189334,1,0,0:0:0:0:
256,192,189506,1,8,0:0:0:0:
256,192,189677,1,8,0:0:0:0:
256,192,189849,1,0,0:0:0:0:
256,192,190020,1,8,0:0:0:0:
256,192,190363,1,8,0:0:0:0:
256,192,190706,1,8,0:0:0:0:
256,192,190877,1,8,0:0:0:0:
256,192,191049,1,0,0:0:0:0:
256,192,191220,1,8,0:0:0:0:
256,192,191306,1,8,0:0:0:0:
256,192,191392,1,8,0:0:0:0:
256,192,191563,1,4,0:0:0:0:
256,192,191906,1,0,0:0:0:0:
256,192,192077,1,8,0:0:0:0:
256,192,192420,1,0,0:0:0:0:
256,192,192592,1,8,0:0:0:0:
256,192,192677,1,8,0:0:0:0:
256,192,192763,1,8,0:0:0:0:
256,192,192934,1,8,0:0:0:0:
256,192,193106,1,0,0:0:0:0:
256,192,193449,1,12,0:0:0:0:
256,192,193792,1,8,0:0:0:0:
256,192,193963,1,0,0:0:0:0:
256,192,194134,1,8,0:0:0:0:
256,192,194306,1,0,0:0:0:0:
256,192,194392,1,0,0:0:0:0:
256,192,194477,1,0,0:0:0:0:
256,192,194820,1,8,0:0:0:0:
256,192,194992,1,8,0:0:0:0:
256,192,195163,1,0,0:0:0:0:
256,192,195334,1,8,0:0:0:0:
256,192,195420,1,8,0:0:0:0:
256,192,195592,1,8,0:0:0:0:
256,192,195677,1,8,0:0:0:0:
256,192,195849,1,4,0:0:0:0:
256,192,196192,1,8,0:0:0:0:
256,192,196363,1,0,0:0:0:0:
256,192,196449,1,0,0:0:0:0:
256,192,196534,1,0,0:0:0:0:
256,192,196706,1,0,0:0:0:0:
256,192,196877,1,8,0:0:0:0:
256,192,197049,1,4,0:0:0:0:
256,192,197392,1,0,0:0:0:0:
256,192,197563,1,8,0:0:0:0:
256,192,197734,1,8,0:0:0:0:
256,192,197906,1,0,0:0:0:0:
256,192,198077,1,0,0:0:0:0:
256,192,198249,1,8,0:0:0:0:
256,192,198420,1,0,0:0:0:0:
256,192,198592,1,12,0:0:0:0:
256,192,198934,1,0,0:0:0:0:
256,192,199106,1,8,0:0:0:0:
256,192,199277,1,0,0:0:0:0:
256,192,199449,1,0,0:0:0:0:
256,192,199620,1,8,0:0:0:0:
256,192,199792,1,4,0:0:0:0:
256,192,200134,1,0,0:0:0:0:
256,192,200306,1,8,0:0:0:0:
256,192,200649,1,8,0:0:0:0:
256,192,200820,1,0,0:0:0:0:
256,192,200992,1,8,0:0:0:0:
256,192,201163,1,0,0:0:0:0:
256,192,201249,1,0,0:0:0:0:
256,192,201334,1,0,0:0:0:0:
256,192,201506,1,0,0:0:0:0:
256,192,201677,1,8,0:0:0:0:
256,192,202020,1,8,0:0:0:0:
256,192,202192,1,0,0:0:0:0:
256,192,202363,1,8,0:0:0:0:
256,192,202534,1,8,0:0:0:0:
256,192,202620,1,8,0:0:0:0:
256,192,202706,1,8,0:0:0:0:
256,192,202877,1,0,0:0:0:0:
256,192,203049,1,8,0:0:0:0:
256,192,203392,1,0,0:0:0:0:
256,192,203563,1,8,0:0:0:0:
256,192,203734,1,8,0:0:0:0:
256,192,203906,1,0,0:0:0:0:
256,192,204077,1,8,0:0:0:0:
256,192,204249,1,0,0:0:0:0:
256,192,204334,1,0,0:0:0:0:
256,192,204420,1,0,0:0:0:0:
256,192,204592,1,8,0:0:0:0:
256,192,204677,1,8,0:0:0:0:
256,192,204763,1,8,0:0:0:0:
256,192,204934,1,0,0:0:0:0:
256,192,205106,1,8,0:0:0:0:
256,192,205277,1,12,0:0:0:0:
256,192,206820,1,8,0:0:0:0:
256,192,207849,1,0,0:0:0:0:
256,192,208020,1,8,0:0:0:0:
256,192,208534,1,8,0:0:0:0:
256,192,208877,1,0,0:0:0:0:
256,192,209220,1,0,0:0:0:0:
256,192,209563,1,8,0:0:0:0:
256,192,210077,1,0,0:0:0:0:
256,192,210249,1,0,0:0:0:0:
256,192,211620,1,0,0:0:0:0:
256,192,211963,1,0,0:0:0:0:
256,192,212306,1,8,0:0:0:0:
256,192,212649,1,0,0:0:0:0:
256,192,212820,1,0,0:0:0:0:
256,192,213334,1,0,0:0:0:0:
256,192,213506,1,8,0:0:0:0:
256,192,214020,1,8,0:0:0:0:
256,192,214363,1,0,0:0:0:0:
256,192,214706,1,8,0:0:0:0:
256,192,215049,1,8,0:0:0:0:
256,192,215563,1,0,0:0:0:0:
256,192,215734,1,0,0:0:0:0:
256,192,216420,1,8,0:0:0:0:
256,192,216934,1,0,0:0:0:0:
256,192,217106,1,0,0:0:0:0:
256,192,217449,1,8,0:0:0:0:
256,192,217792,1,8,0:0:0:0:
256,192,218477,1,8,0:0:0:0:
256,192,218820,1,0,0:0:0:0:
256,192,218992,1,8,0:0:0:0:
256,192,219506,1,8,0:0:0:0:
256,192,219849,1,0,0:0:0:0:
256,192,220192,1,0,0:0:0:0:
256,192,220534,1,8,0:0:0:0:
256,192,220877,1,8,0:0:0:0:
256,192,221049,1,0,0:0:0:0:
256,192,221392,1,8,0:0:0:0:
256,192,221734,1,0,0:0:0:0:
256,192,221906,1,0,0:0:0:0:
256,192,222249,1,8,0:0:0:0:
256,192,222592,1,0,0:0:0:0:
256,192,222934,1,0,0:0:0:0:
256,192,223106,1,8,0:0:0:0:
256,192,223277,1,0,0:0:0:0:
256,192,223620,1,8,0:0:0:0:
256,192,223792,1,8,0:0:0:0:
256,192,224306,1,8,0:0:0:0:
256,192,224477,1,0,0:0:0:0:
256,192,224992,1,0,0:0:0:0:
256,192,225334,1,8,0:0:0:0:
256,192,225677,1,8,0:0:0:0:
256,192,226020,1,0,0:0:0:0:
256,192,226534,1,0,0:0:0:0:
256,192,226706,1,0,0:0:0:0:
256,192,228077,1,0,0:0:0:0:
256,192,228420,1,8,0:0:0:0:
256,192,228763,1,12,0:0:0:0:
256,192,229106,1,8,0:0:0:0:
256,192,229277,1,0,0:0:0:0:
256,192,229363,1,0,0:0:0:0:
256,192,229449,1,0,0:0:0:0:
256,192,229620,1,0,0:0:0:0:
256,192,229792,1,8,0:0:0:0:
256,192,229963,1,8,0:0:0:0:
256,192,230306,1,0,0:0:0:0:
256,192,230477,1,8,0:0:0:0:
256,192,230649,1,0,0:0:0:0:
256,192,230820,1,0,0:0:0:0:
256,192,230992,1,8,0:0:0:0:
256,192,231077,1,8,0:0:0:0:
256,192,231163,1,8,0:0:0:0:
256,192,231334,1,0,0:0:0:0:
256,192,231506,1,8,0:0:0:0:
256,192,231849,1,8,0:0:0:0:
256,192,232020,1,0,0:0:0:0:
256,192,232106,1,0,0:0:0:0:
256,192,232192,1,0,0:0:0:0:
256,192,232363,1,0,0:0:0:0:
256,192,232534,1,8,0:0:0:0:
256,192,232706,1,4,0:0:0:0:
256,192,233049,1,0,0:0:0:0:
256,192,233220,1,8,0:0:0:0:
256,192,233392,1,8,0:0:0:0:
256,192,233563,1,0,0:0:0:0:
256,192,233734,1,8,0:0:0:0:
256,192,233906,1,0,0:0:0:0:
256,192,234077,1,8,0:0:0:0:
256,192,234249,1,0,0:0:0:0:
256,192,234592,1,8,0:0:0:0:
256,192,234763,1,0,0:0:0:0:
256,192,234849,1,0,0:0:0:0:
256,192,234934,1,0,0:0:0:0:
256,192,235106,1,0,0:0:0:0:
256,192,235277,1,8,0:0:0:0:
256,192,235449,1,8,0:0:0:0:
256,192,235792,1,0,0:0:0:0:
256,192,235963,1,8,0:0:0:0:
256,192,236134,1,8,0:0:0:0:
256,192,236306,1,0,0:0:0:0:
256,192,236477,1,8,0:0:0:0:
256,192,236563,1,8,0:0:0:0:
256,192,236649,1,8,0:0:0:0:
256,192,236820,1,0,0:0:0:0:
256,192,236992,1,8,0:0:0:0:
256,192,237334,1,8,0:0:0:0:
256,192,237506,1,0,0:0:0:0:
256,192,237592,1,0,0:0:0:0:
256,192,237677,1,0,0:0:0:0:
256,192,237849,1,8,0:0:0:0:
256,192,238020,1,0,0:0:0:0:
256,192,238192,1,12,0:0:0:0:
256,192,238534,1,0,0:0:0:0:
256,192,238706,1,8,0:0:0:0:
256,192,238877,1,8,0:0:0:0:
256,192,238963,1,8,0:0:0:0:
256,192,239049,1,8,0:0:0:0:
256,192,239220,1,0,0:0:0:0:
256,192,239392,1,8,0:0:0:0:
256,192,239734,1,12,0:0:0:0:
256,192,240077,1,8,0:0:0:0:
256,192,240420,1,0,0:0:0:0:
256,192,240592,1,0,0:0:0:0:
256,192,240763,1,8,0:0:0:0:
256,192,240934,1,8,0:0:0:0:
256,192,241020,1,8,0:0:0:0:
256,192,241106,1,8,0:0:0:0:
256,192,241277,1,0,0:0:0:0:
256,192,241449,1,8,0:0:0:0:
256,192,241792,1,0,0:0:0:0:
256,192,241877,1,0,0:0:0:0:
256,192,241963,1,0,0:0:0:0:
256,192,242134,1,8,0:0:0:0:
256,192,242306,1,0,0:0:0:0:
256,192,242477,1,8,0:0:0:0:
256,192,242820,1,8,0:0:0:0:
256,192,242992,1,8,0:0:0:0:
256,192,243163,1,0,0:0:0:0:
256,192,243334,1,8,0:0:0:0:
256,192,243420,1,8,0:0:0:0:
256,192,243506,1,8,0:0:0:0:
256,192,243677,1,4,0:0:0:0:
256,192,244020,1,0,0:0:0:0:
256,192,244192,1,8,0:0:0:0:
256,192,244363,1,8,0:0:0:0:
256,192,244449,1,8,0:0:0:0:
256,192,244534,1,8,0:0:0:0:
256,192,244706,1,0,0:0:0:0:
256,192,244877,1,8,0:0:0:0:
256,192,245049,1,0,0:0:0:0:
256,192,245220,1,8,0:0:0:0:
256,192,245563,1,8,0:0:0:0:
256,192,245734,1,0,0:0:0:0:
256,192,245820,1,0,0:0:0:0:
256,192,245906,1,0,0:0:0:0:
256,192,246077,1,0,0:0:0:0:
256,192,246249,1,8,0:0:0:0:
256,192,246420,1,12,0:0:0:0:
256,192,246763,1,0,0:0:0:0:
256,192,246934,1,8,0:0:0:0:
256,192,247106,1,0,0:0:0:0:
256,192,247277,1,0,0:0:0:0:
256,192,247620,1,8,0:0:0:0:
256,192,247792,1,0,0:0:0:0:
256,192,247963,1,8,0:0:0:0:
256,192,248134,1,8,0:0:0:0:
256,192,248220,1,8,0:0:0:0:
256,192,248306,1,8,0:0:0:0:
256,192,248477,1,0,0:0:0:0:
256,192,248563,1,0,0:0:0:0:
256,192,248649,1,0,0:0:0:0:
256,192,248820,1,8,0:0:0:0:
256,192,248992,1,0,0:0:0:0:
256,192,249163,1,12,0:0:0:0:
256,192,249506,1,0,0:0:0:0:
256,192,249677,1,8,0:0:0:0:
256,192,249849,1,8,0:0:0:0:
256,192,250020,1,0,0:0:0:0:
256,192,250106,1,0,0:0:0:0:
256,192,250192,1,0,0:0:0:0:
256,192,250363,1,8,0:0:0:0:
256,192,250534,1,0,0:0:0:0:
256,192,250706,1,12,0:0:0:0:
256,192,251220,1,0,0:0:0:0:
256,192,251392,1,8,0:0:0:0:
256,192,251563,1,0,0:0:0:0:
256,192,251906,1,12,0:0:0:0:
256,192,252249,1,0,0:0:0:0:
256,192,252420,1,8,0:0:0:0:
256,192,252592,1,8,0:0:0:0:
256,192,252763,1,0,0:0:0:0:
256,192,252934,1,8,0:0:0:0:
256,192,253106,1,0,0:0:0:0:
256,192,253449,1,4,0:0:0:0:
256,192,254134,1,8,0:0:0:0:
256,192,254477,1,0,0:0:0:0:
256,192,254649,1,8,0:0:0:0:
256,192,254820,1,0,0:0:0:0:
256,192,255163,1,8,0:0:0:0:
256,192,255334,1,8,0:0:0:0:
256,192,255506,1,0,0:0:0:0:
256,192,255677,1,8,0:0:0:0:
256,192,256020,1,4,0:0:0:0:
256,192,256363,1,0,0:0:0:0:
256,192,256534,1,8,0:0:0:0:
256,192,256792,1,0,0:0:0:0:
256,192,256877,1,0,0:0:0:0:
256,192,257049,1,0,0:0:0:0:
256,192,257392,1,12,0:0:0:0:
256,192,257734,1,0,0:0:0:0:
256,192,257906,1,8,0:0:0:0:
256,192,258163,1,0,0:0:0:0:
256,192,258249,1,0,0:0:0:0:
256,192,258420,1,0,0:0:0:0:
256,192,258592,1,8,0:0:0:0:
256,192,258934,1,0,0:0:0:0:
256,192,259106,1,0,0:0:0:0:
256,192,259277,1,8,0:0:0:0:
256,192,259449,1,0,0:0:0:0:
256,192,259620,1,8,0:0:0:0:
256,192,259792,1,8,0:0:0:0:
256,192,259963,1,0,0:0:0:0:
256,192,260134,1,12,0:0:0:0:
256,192,260477,1,0,0:0:0:0:
256,192,260649,1,8,0:0:0:0:
256,192,260820,1,0,0:0:0:0:
256,192,260906,1,0,0:0:0:0:
256,192,260992,1,0,0:0:0:0:
256,192,261163,1,0,0:0:0:0:
256,192,261334,1,8,0:0:0:0:
256,192,261677,1,4,0:0:0:0:
256,192,261849,12,0,267163,0:0:0:0:
