osu file format v14

[General]
AudioFilename: Authentic symphony.mp3
AudioLeadIn: 0
PreviewTime: 59390
Countdown: 0
SampleSet: Normal
StackLeniency: 0.7
Mode: 1
LetterboxInBreaks: 0
WidescreenStoryboard: 0

[Editor]
DistanceSpacing: 1.3
BeatDivisor: 4
GridSize: 32
TimelineZoom: 1

[Metadata]
Title:Authentic symphony
TitleUnicode:Authentic symphony
Artist:ChouCho
ArtistUnicode:ちょうちょ
Creator:Nardoxyribonucleic
Version:Kantan
Source:ましろ色シンフォニー -The color of lovers-
Tags:Taiko ぱれっと Palette Visual Novel Anime Mashiro Iro Symphony Opening 虹音 こだまさおり Volta
BeatmapID:1481374
BeatmapSetID:688538

[Difficulty]
HPDrainRate:7
CircleSize:5
OverallDifficulty:3
ApproachRate:5
SliderMultiplier:1.4
SliderTickRate:1

[Events]
//Background and Video events
0,0,"BG2.jpg",0,0
//Break Periods
//Storyboard Layer 0 (Background)
//Storyboard Layer 1 (Fail)
//Storyboard Layer 2 (Pass)
//Storyboard Layer 3 (Foreground)
//Storyboard Sound Samples

[TimingPoints]
6592,342.857142857143,4,1,0,80,1,0
12249,-100,4,1,0,50,0,0
14820,-100,4,1,0,60,0,0
36763,-100,4,1,0,70,0,0
47734,-100,4,1,0,80,0,0
60077,-100,4,1,0,90,0,1
82020,-100,4,1,0,80,0,0
87506,-100,4,1,0,50,0,0
98477,-100,4,1,0,60,0,0
120420,-100,4,1,0,70,0,0
131392,-100,4,1,0,80,0,0
143734,-100,4,1,0,90,0,1
165677,-100,4,1,0,80,0,0
171163,-100,4,1,0,85,0,0
182134,-100,4,1,0,90,0,0
206820,-100,4,1,0,50,0,0
228763,-100,4,1,0,90,0,1
250706,-100,4,1,0,80,0,0
261677,-100,4,1,0,60,0,0
263049,-100,4,1,0,50,0,0
264420,-100,4,1,0,40,0,0
265792,-100,4,1,0,30,0,0
267163,-100,4,1,0,20,0,0

[HitObjects]
256,192,6591,5,4,0:0:0:0:
256,192,7792,1,12,0:0:0:0:
256,192,9334,1,12,0:0:0:0:
256,192,10534,1,4,0:0:0:0:
256,192,11392,1,0,0:0:0:0:
256,192,12077,1,12,0:0:0:0:
256,192,12249,12,0,14477,0:0:0:0:
256,192,14820,5,0,0:0:0:0:
256,192,16192,1,8,0:0:0:0:
256,192,16877,1,0,0:0:0:0:
256,192,17563,1,0,0:0:0:0:
256,192,18934,1,0,0:0:0:0:
256,192,19620,1,8,0:0:0:0:
256,192,20306,1,0,0:0:0:0:
256,192,21677,1,8,0:0:0:0:
256,192,22363,1,8,0:0:0:0:
256,192,23049,1,0,0:0:0:0:
256,192,24420,1,8,0:0:0:0:
256,192,25792,1,0,0:0:0:0:
256,192,26477,1,8,0:0:0:0:
256,192,27506,1,0,0:0:0:0:
256,192,27849,1,8,0:0:0:0:
256,192,28534,1,0,0:0:0:0:
256,192,29220,1,8,0:0:0:0:
256,192,30249,1,8,0:0:0:0:
256,192,30592,1,0,0:0:0:0:
256,192,31277,1,8,0:0:0:0:
256,192,31963,1,8,0:0:0:0:
256,192,33334,1,0,0:0:0:0:
256,192,34020,1,8,0:0:0:0:
256,192,34706,1,8,0:0:0:0:
256,192,35392,1,0,0:0:0:0:
256,192,36763,1,4,0:0:0:0:
256,192,37449,1,8,0:0:0:0:
256,192,38134,1,0,0:0:0:0:
256,192,38820,1,0,0:0:0:0:
256,192,39163,1,0,0:0:0:0:
256,192,39506,1,8,0:0:0:0:
256,192,40192,1,8,0:0:0:0:
256,192,40877,1,0,0:0:0:0:
256,192,42249,1,4,0:0:0:0:
256,192,42934,1,8,0:0:0:0:
256,192,43620,1,0,0:0:0:0:
256,192,44306,1,0,0:0:0:0:
256,192,44649,1,8,0:0:0:0:
256,192,44992,1,8,0:0:0:0:
256,192,45677,1,8,0:0:0:0:
256,192,46363,1,0,0:0:0:0:
256,192,47734,1,12,0:0:0:0:
256,192,48934,1,12,0:0:0:0:
256,192,50134,1,8,0:0:0:0:
256,192,50477,1,4,0:0:0:0:
256,192,51677,1,4,0:0:0:0:
256,192,52534,1,8,0:0:0:0:
256,192,52877,1,8,0:0:0:0:
256,192,53220,1,4,0:0:0:0:
256,192,53906,1,0,0:0:0:0:
256,192,54592,1,8,0:0:0:0:
256,192,55277,1,0,0:0:0:0:
256,192,55620,1,8,0:0:0:0:
256,192,55963,1,0,0:0:0:0:
256,192,56649,1,8,0:0:0:0:
256,192,57334,1,0,0:0:0:0:
256,192,57677,1,0,0:0:0:0:
256,192,58020,1,8,0:0:0:0:
256,192,58706,1,0,0:0:0:0:
256,192,60077,1,12,0:0:0:0:
256,192,60763,1,0,0:0:0:0:
256,192,61449,1,8,0:0:0:0:
256,192,62134,1,0,0:0:0:0:
256,192,62477,1,8,0:0:0:0:
256,192,62820,1,8,0:0:0:0:
256,192,63506,1,0,0:0:0:0:
256,192,64877,1,0,0:0:0:0:
256,192,65220,1,8,0:0:0:0:
256,192,65563,1,0,0:0:0:0:
256,192,66249,1,0,0:0:0:0:
256,192,66934,1,8,0:0:0:0:
256,192,67277,1,8,0:0:0:0:
256,192,67620,1,0,0:0:0:0:
256,192,68306,1,8,0:0:0:0:
256,192,68992,1,0,0:0:0:0:
256,192,69506,1,12,0:0:0:0:
256,192,71049,1,12,0:0:0:0:
256,192,71734,1,0,0:0:0:0:
256,192,72420,1,8,0:0:0:0:
256,192,73106,1,0,0:0:0:0:
256,192,73449,1,8,0:0:0:0:
256,192,73792,1,0,0:0:0:0:
256,192,74477,1,8,0:0:0:0:
256,192,74992,1,4,0:0:0:0:
256,192,76534,1,8,0:0:0:0:
256,192,77220,1,0,0:0:0:0:
256,192,77906,1,8,0:0:0:0:
256,192,78249,1,8,0:0:0:0:
256,192,78592,1,0,0:0:0:0:
256,192,79277,1,8,0:0:0:0:
256,192,79963,1,0,0:0:0:0:
256,192,80477,1,4,0:0:0:0:
256,192,81677,1,8,0:0:0:0:
256,192,82020,1,12,0:0:0:0:
256,192,83220,1,4,0:0:0:0:
256,192,84763,1,4,0:0:0:0:
256,192,85449,1,8,0:0:0:0:
256,192,86134,1,0,0:0:0:0:
256,192,86477,1,0,0:0:0:0:
256,192,86820,1,8,0:0:0:0:
256,192,87506,1,12,0:0:0:0:
256,192,90249,1,0,0:0:0:0:
256,192,92992,1,8,0:0:0:0:
256,192,94363,1,0,0:0:0:0:
256,192,95734,1,8,0:0:0:0:
256,192,97106,1,8,0:0:0:0:
256,192,97792,1,8,0:0:0:0:
256,192,98477,1,0,0:0:0:0:
256,192,99849,1,8,0:0:0:0:
256,192,100534,1,0,0:0:0:0:
256,192,100877,1,8,0:0:0:0:
256,192,101220,1,0,0:0:0:0:
256,192,102592,1,0,0:0:0:0:
256,192,103277,1,8,0:0:0:0:
256,192,103620,1,8,0:0:0:0:
256,192,103963,1,0,0:0:0:0:
256,192,105334,1,8,0:0:0:0:
256,192,106706,1,0,0:0:0:0:
256,192,107392,1,8,0:0:0:0:
256,192,108077,1,0,0:0:0:0:
256,192,108420,1,0,0:0:0:0:
256,192,108763,1,0,0:0:0:0:
256,192,109449,1,8,0:0:0:0:
256,192,110134,1,0,0:0:0:0:
256,192,110820,1,8,0:0:0:0:
256,192,112192,1,0,0:0:0:0:
256,192,112877,1,8,0:0:0:0:
256,192,113563,1,0,0:0:0:0:
256,192,114249,1,8,0:0:0:0:
256,192,114592,1,8,0:0:0:0:
256,192,114934,1,0,0:0:0:0:
256,192,116306,1,8,0:0:0:0:
256,192,116992,1,8,0:0:0:0:
256,192,117334,1,0,0:0:0:0:
256,192,117677,1,0,0:0:0:0:
256,192,118363,1,0,0:0:0:0:
256,192,119049,1,0,0:0:0:0:
256,192,119392,1,8,0:0:0:0:
256,192,119734,1,0,0:0:0:0:
256,192,120420,1,4,0:0:0:0:
256,192,121106,1,8,0:0:0:0:
256,192,121792,1,0,0:0:0:0:
256,192,122477,1,0,0:0:0:0:
256,192,122820,1,0,0:0:0:0:
256,192,123163,1,8,0:0:0:0:
256,192,123849,1,8,0:0:0:0:
256,192,124534,1,0,0:0:0:0:
256,192,125906,1,4,0:0:0:0:
256,192,126592,1,8,0:0:0:0:
256,192,127277,1,0,0:0:0:0:
256,192,127963,1,0,0:0:0:0:
256,192,128306,1,8,0:0:0:0:
256,192,128649,1,8,0:0:0:0:
256,192,129334,1,8,0:0:0:0:
256,192,130020,1,0,0:0:0:0:
256,192,131392,1,12,0:0:0:0:
256,192,132592,1,12,0:0:0:0:
256,192,133449,1,0,0:0:0:0:
256,192,133792,1,8,0:0:0:0:
256,192,134134,1,4,0:0:0:0:
256,192,135334,1,4,0:0:0:0:
256,192,136192,1,8,0:0:0:0:
256,192,136534,1,8,0:0:0:0:
256,192,136877,1,4,0:0:0:0:
256,192,137563,1,0,0:0:0:0:
256,192,138249,1,8,0:0:0:0:
256,192,138934,1,0,0:0:0:0:
256,192,139277,1,8,0:0:0:0:
256,192,139620,1,0,0:0:0:0:
256,192,140306,1,8,0:0:0:0:
256,192,140992,1,0,0:0:0:0:
256,192,141334,1,0,0:0:0:0:
256,192,141677,1,8,0:0:0:0:
256,192,142020,1,8,0:0:0:0:
256,192,142363,1,0,0:0:0:0:
256,192,143734,1,12,0:0:0:0:
256,192,144420,1,0,0:0:0:0:
256,192,145106,1,8,0:0:0:0:
256,192,145792,1,0,0:0:0:0:
256,192,146134,1,8,0:0:0:0:
256,192,146477,1,8,0:0:0:0:
256,192,147163,1,0,0:0:0:0:
256,192,148534,1,0,0:0:0:0:
256,192,148877,1,8,0:0:0:0:
256,192,149220,1,0,0:0:0:0:
256,192,149906,1,0,0:0:0:0:
256,192,150592,1,8,0:0:0:0:
256,192,150934,1,8,0:0:0:0:
256,192,151277,1,0,0:0:0:0:
256,192,151963,1,8,0:0:0:0:
256,192,152649,1,0,0:0:0:0:
256,192,153163,1,12,0:0:0:0:
256,192,154706,1,12,0:0:0:0:
256,192,155392,1,0,0:0:0:0:
256,192,156077,1,8,0:0:0:0:
256,192,156763,1,0,0:0:0:0:
256,192,157106,1,8,0:0:0:0:
256,192,157449,1,0,0:0:0:0:
256,192,158134,1,8,0:0:0:0:
256,192,158649,1,4,0:0:0:0:
256,192,160192,1,8,0:0:0:0:
256,192,160877,1,0,0:0:0:0:
256,192,161563,1,8,0:0:0:0:
256,192,161906,1,8,0:0:0:0:
256,192,162249,1,0,0:0:0:0:
256,192,162934,1,8,0:0:0:0:
256,192,163620,1,0,0:0:0:0:
256,192,164134,1,4,0:0:0:0:
256,192,165677,1,12,0:0:0:0:
256,192,166877,1,4,0:0:0:0:
256,192,168420,1,4,0:0:0:0:
256,192,169106,1,8,0:0:0:0:
256,192,169792,1,0,0:0:0:0:
256,192,170134,1,0,0:0:0:0:
256,192,170477,1,8,0:0:0:0:
256,192,171163,1,12,0:0:0:0:
256,192,172363,1,4,0:0:0:0:
256,192,173220,1,8,0:0:0:0:
256,192,173906,1,4,0:0:0:0:
256,192,175106,1,12,0:0:0:0:
256,192,175963,1,8,0:0:0:0:
256,192,176306,1,8,0:0:0:0:
256,192,176649,1,4,0:0:0:0:
256,192,177334,1,8,0:0:0:0:
256,192,178020,1,0,0:0:0:0:
256,192,179392,1,8,0:0:0:0:
256,192,180077,1,0,0:0:0:0:
256,192,180763,1,8,0:0:0:0:
256,192,181106,1,8,0:0:0:0:
256,192,181449,1,8,0:0:0:0:
256,192,182134,1,4,0:0:0:0:
256,192,182820,1,0,0:0:0:0:
256,192,183506,1,8,0:0:0:0:
256,192,184192,1,0,0:0:0:0:
256,192,184534,1,8,0:0:0:0:
256,192,184877,1,0,0:0:0:0:
256,192,185563,1,8,0:0:0:0:
256,192,186077,1,12,0:0:0:0:
256,192,187620,1,12,0:0:0:0:
256,192,188306,1,0,0:0:0:0:
256,192,188992,1,8,0:0:0:0:
256,192,189677,1,8,0:0:0:0:
256,192,190020,1,8,0:0:0:0:
256,192,190363,1,0,0:0:0:0:
256,192,191049,1,8,0:0:0:0:
256,192,191563,1,4,0:0:0:0:
256,192,193106,1,0,0:0:0:0:
256,192,193449,1,12,0:0:0:0:
256,192,194134,1,8,0:0:0:0:
256,192,194477,1,0,0:0:0:0:
256,192,195163,1,8,0:0:0:0:
256,192,195849,1,4,0:0:0:0:
256,192,196534,1,8,0:0:0:0:
256,192,197049,1,4,0:0:0:0:
256,192,198592,1,4,0:0:0:0:
256,192,199277,1,8,0:0:0:0:
256,192,199620,1,8,0:0:0:0:
256,192,199963,1,0,0:0:0:0:
256,192,200306,1,0,0:0:0:0:
256,192,200649,1,8,0:0:0:0:
256,192,201334,1,0,0:0:0:0:
256,192,202020,1,8,0:0:0:0:
256,192,202706,1,0,0:0:0:0:
256,192,203049,1,8,0:0:0:0:
256,192,203563,1,8,0:0:0:0:
256,192,204077,1,8,0:0:0:0:
256,192,204763,1,0,0:0:0:0:
256,192,205277,1,12,0:0:0:0:
256,192,206820,1,8,0:0:0:0:
256,192,209563,1,8,0:0:0:0:
256,192,212306,1,0,0:0:0:0:
256,192,213677,1,8,0:0:0:0:
256,192,215049,1,0,0:0:0:0:
256,192,216420,1,8,0:0:0:0:
256,192,217106,1,8,0:0:0:0:
256,192,217792,1,0,0:0:0:0:
256,192,219163,1,8,0:0:0:0:
256,192,220534,1,0,0:0:0:0:
256,192,221220,1,8,0:0:0:0:
256,192,222592,1,8,0:0:0:0:
256,192,223277,1,0,0:0:0:0:
256,192,224649,1,0,0:0:0:0:
256,192,226020,1,8,0:0:0:0:
256,192,228763,1,12,0:0:0:0:
256,192,229449,1,0,0:0:0:0:
256,192,230134,1,8,0:0:0:0:
256,192,230820,1,0,0:0:0:0:
256,192,231163,1,8,0:0:0:0:
256,192,231506,1,8,0:0:0:0:
256,192,232192,1,0,0:0:0:0:
256,192,232877,1,0,0:0:0:0:
256,192,233220,1,8,0:0:0:0:
256,192,233563,1,8,0:0:0:0:
256,192,233906,1,8,0:0:0:0:
256,192,234249,1,0,0:0:0:0:
256,192,234934,1,0,0:0:0:0:
256,192,235620,1,8,0:0:0:0:
256,192,235963,1,8,0:0:0:0:
256,192,236306,1,0,0:0:0:0:
256,192,236992,1,8,0:0:0:0:
256,192,237677,1,0,0:0:0:0:
256,192,238192,1,12,0:0:0:0:
256,192,239734,1,12,0:0:0:0:
256,192,240420,1,0,0:0:0:0:
256,192,241106,1,8,0:0:0:0:
256,192,241792,1,0,0:0:0:0:
256,192,242134,1,8,0:0:0:0:
256,192,242477,1,0,0:0:0:0:
256,192,243163,1,8,0:0:0:0:
256,192,243677,1,4,0:0:0:0:
256,192,245220,1,8,0:0:0:0:
256,192,245906,1,0,0:0:0:0:
256,192,246249,1,0,0:0:0:0:
256,192,246592,1,8,0:0:0:0:
256,192,246934,1,8,0:0:0:0:
256,192,247277,1,0,0:0:0:0:
256,192,247963,1,8,0:0:0:0:
256,192,248649,1,0,0:0:0:0:
256,192,249163,1,4,0:0:0:0:
256,192,250363,1,8,0:0:0:0:
256,192,250706,1,12,0:0:0:0:
256,192,251906,1,4,0:0:0:0:
256,192,253449,1,4,0:0:0:0:
256,192,254134,1,8,0:0:0:0:
256,192,254820,1,0,0:0:0:0:
256,192,255163,1,0,0:0:0:0:
256,192,255506,1,0,0:0:0:0:
256,192,256020,1,4,0:0:0:0:
256,192,257563,1,8,0:0:0:0:
256,192,257906,1,8,0:0:0:0:
256,192,258249,1,0,0:0:0:0:
256,192,258934,1,0,0:0:0:0:
256,192,259620,1,8,0:0:0:0:
256,192,259963,1,0,0:0:0:0:
256,192,260306,1,8,0:0:0:0:
256,192,260992,1,0,0:0:0:0:
256,192,261677,1,4,0:0:0:0:
256,192,261849,12,0,267163,0:0:0:0:
