osu file format v14

[General]
AudioFilename: ice.mp3
AudioLeadIn: 0
PreviewTime: 46088
Countdown: 0
SampleSet: Soft
StackLeniency: 0.7
Mode: 0
LetterboxInBreaks: 0
WidescreenStoryboard: 0

[Editor]
Bookmarks: 29561
DistanceSpacing: 1.4
BeatDivisor: 4
GridSize: 4
TimelineZoom: 1.100001

[Metadata]
Title:Bing Kuai
TitleUnicode:冰塊
Artist:Chou Huei
ArtistUnicode:周蕙
Creator:Peachtrees
Version:Normal
Source:
Tags:pinyin Zhang Yifan 卢文韬 张逸帆 p_a_n 冰块 張逸帆 盧文韜 zi ji de fang jian Where zhou hui 自己的房間 Own Room ice cube
BeatmapID:644789
BeatmapSetID:285477

[Difficulty]
HPDrainRate:3
CircleSize:3.5
OverallDifficulty:4
ApproachRate:5
SliderMultiplier:1.4
SliderTickRate:2

[Events]
//Background and Video events
0,0,"bbbbb.png",0,0
//Break Periods
2,77942,82211
2,159202,169140
//Storyboard Layer 0 (Background)
//Storyboard Layer 1 (Fail)
//Storyboard Layer 2 (Pass)
//Storyboard Layer 3 (Foreground)
//Storyboard Sound Samples

[TimingPoints]
262,472.44094488189,4,1,0,100,1,0
15380,-111.111111111111,4,2,4,30,0,0
45616,-111.111111111111,4,2,1,45,0,1
58017,-111.111111111111,4,2,2,45,0,1
58254,-111.111111111111,4,2,1,45,0,1
58962,-111.111111111111,4,2,2,45,0,1
59199,-111.111111111111,4,2,1,45,0,1
60143,-111.111111111111,4,2,2,45,0,1
60380,-111.111111111111,4,2,1,45,0,1
67702,-111.111111111111,4,2,2,45,0,1
67939,-111.111111111111,4,2,1,45,0,1
74907,-111.111111111111,4,2,0,25,0,0
75852,-111.111111111111,4,2,0,15,0,0
77624,-200,4,2,0,15,0,0
77860,-200,4,2,0,35,0,0
83411,-111.111111111111,4,2,3,30,0,0
97584,-111.111111111111,4,2,1,50,0,0
98411,-111.111111111111,4,2,3,40,0,0
110931,-111.111111111111,4,2,2,40,0,0
111167,-111.111111111111,4,2,1,40,0,0
111521,-111.111111111111,4,2,3,50,0,0
113647,-111.111111111111,4,2,1,50,0,1
126049,-111.111111111111,4,2,2,50,0,1
126285,-111.111111111111,4,2,1,50,0,1
126994,-111.111111111111,4,2,2,50,0,1
127230,-111.111111111111,4,2,1,50,0,1
128175,-111.111111111111,4,2,2,50,0,1
128411,-111.111111111111,4,2,1,50,0,1
135734,-111.111111111111,4,2,2,50,0,1
135970,-111.111111111111,4,2,1,50,0,1
140931,-111.111111111111,4,2,2,50,0,1
141167,-111.111111111111,4,2,1,50,0,1
141403,-111.111111111111,4,2,2,50,0,1
141639,-111.111111111111,4,2,1,50,0,1
142702,-111.111111111111,4,2,0,50,0,1
143884,-111.111111111111,4,2,3,45,0,0
156876,-111.111111111111,4,2,1,30,0,0
158884,-111.111111111111,4,2,1,35,0,0
159120,-111.111111111111,4,2,1,30,0,0
170340,-111.111111111111,4,2,0,30,0,0
171994,-111.111111111111,4,2,0,40,0,0
174120,-111.111111111111,4,2,1,55,0,1
188293,-111.111111111111,4,2,0,25,0,0
189238,-111.111111111111,4,2,1,15,0,0
191482,-200,4,2,1,5,0,0
191718,-200,4,2,1,35,0,0

[Colours]
Combo1 : 128,0,255
Combo2 : 128,0,128
Combo3 : 183,176,244
Combo4 : 0,255,255

[HitObjects]
166,64,15380,6,0,P|134:67|107:81,1,62.9999980773926,2|0,0:0|0:0,0:0:0:0:
67,252,16088,2,0,P|127:238|170:188,1,125.999996154785,2|0,0:0|0:0,0:0:0:0:
309,85,17033,2,0,P|323:177|409:149,1,188.999994232178,2|0,0:0|0:0,0:0:0:0:
467,110,17978,2,0,P|468:195|374:255,1,188.999994232178,0|2,0:0|0:0,0:0:0:0:
217,290,19159,5,2,0:0:0:0:
48,237,19632,2,0,P|37:172|47:98,1,125.999996154785,0|2,0:0|0:0,0:0:0:0:
116,63,20340,1,0,0:0:0:0:
203,70,20576,2,0,L|267:75,1,62.9999980773926
351,51,21049,2,0,P|362:116|352:190,1,125.999996154785,2|0,0:0|0:0,0:0:0:0:
335,261,21758,1,0,0:0:0:0:
270,321,21994,2,0,L|142:316,1,125.999996154785,2|0,0:0|0:0,0:0:0:0:
44,170,22939,6,0,L|113:172,1,62.9999980773926,2|0,0:0|0:0,0:0:0:0:
276,219,23647,2,0,P|337:227|397:194,1,125.999996154785,2|0,0:0|0:0,0:0:0:0:
431,49,24592,2,0,B|373:46|373:46|313:66|313:66|244:59,1,188.999994232178,2|0,0:0|0:0,0:0:0:0:
161,31,25537,2,0,P|168:104|283:141,1,188.999994232178,0|2,0:0|0:0,0:0:0:0:
435,200,26718,6,0,P|403:265|335:299,1,125.999996154785,2|0,0:0|0:0,0:0:0:0:
184,318,27663,2,0,L|195:256,1,62.9999980773926,2|2,0:0|0:0,0:0:0:0:
113,223,28136,2,0,L|102:285,1,62.9999980773926,2|2,0:0|0:0,0:0:0:0:
21,320,28608,2,0,B|14:280|14:280|30:195,1,125.999996154785,2|0,0:0|0:0,0:0:0:0:
118,43,29553,2,0,P|146:88|290:83,1,188.999994232178,0|2,0:0|0:0,0:0:0:0:
335,38,30498,5,4,0:0:0:0:
401,201,30970,1,0,0:0:0:0:
294,342,31443,2,0,L|216:334,1,62.9999980773926,2|2,0:0|0:0,0:0:0:0:
56,354,32151,2,0,P|20:312|44:174,1,188.999994232178,2|0,0:0|0:0,0:0:0:0:
201,135,33332,2,0,L|205:72,1,62.9999980773926,2|2,0:0|0:0,0:0:0:0:
381,59,34041,6,0,L|374:209,1,125.999996154785,2|2,0:0|0:0,0:0:0:0:
426,353,34986,2,0,P|346:360|291:333,1,125.999996154785,2|2,0:0|0:0,0:0:0:0:
146,266,35931,2,0,L|7:281,2,125.999996154785,2|2|0,0:0|0:0|0:0,0:0:0:0:
218,215,37112,2,0,P|229:183|232:144,1,62.9999980773926,2|2,0:0|0:0,0:0:0:0:
372,46,37821,1,0,0:0:0:0:
372,46,38057,6,0,P|373:115|401:177,1,125.999996154785,4|2,0:0|0:0,0:0:0:0:
456,332,39002,2,0,P|404:321|377:322,1,62.9999980773926,2|2,0:0|0:0,0:0:0:0:
218,337,39710,1,0,0:0:0:0:
218,337,39947,2,0,B|77:346,1,125.999996154785,2|0,0:0|0:0,0:0:0:0:
18,184,40891,2,0,L|89:179,1,62.9999980773926,2|2,0:0|0:0,0:0:0:0:
254,210,41600,6,0,P|269:143|258:72,1,125.999996154785,2|2,0:0|0:0,0:0:0:0:
90,56,42545,2,0,P|75:123|86:194,1,125.999996154785,2|2,0:0|0:0,0:0:0:0:
177,327,43490,1,2,0:0:0:0:
297,198,43962,1,2,0:0:0:0:
389,348,44435,2,0,P|451:341|495:271,2,125.999996154785,2|2|0,0:0|0:0|0:0,0:0:0:0:
302,329,45616,6,0,P|238:323|174:327,1,125.999996154785,4|8,0:0|0:0,0:0:0:0:
89,340,46324,1,0,0:0:0:0:
5,309,46561,2,0,P|1:276|9:230,1,62.9999980773926,2|2,0:0|0:0,0:0:0:0:
73,191,47033,2,0,P|77:158|69:112,1,62.9999980773926,8|0,0:0|0:0,0:0:0:0:
143,74,47506,6,0,P|173:115|252:116,1,125.999996154785,2|8,0:0|0:0,0:0:0:0:
331,110,48214,1,0,0:0:0:0:
391,174,48450,2,0,B|453:196|454:150|523:179,2,125.999996154785,2|8|2,0:0|0:0|0:0,0:0:0:0:
321,228,49632,5,0,0:0:0:0:
289,310,49868,2,0,P|217:323|207:320,1,62.9999980773926,8|0,0:0|0:0,0:0:0:0:
145,295,50340,2,0,L|127:372,2,62.9999980773926,2|2|8,0:0|0:0|0:0,0:0:0:0:
166,209,51049,1,0,0:0:0:0:
113,137,51285,6,0,P|172:120|228:145,1,125.999996154785,2|8,0:0|0:0,0:0:0:0:
316,145,51994,2,0,P|372:119|431:137,1,125.999996154785,2|2,0:0|0:0,0:0:0:0:
489,204,52702,2,0,L|495:275,1,62.9999980773926,8|0,0:0|0:0,0:0:0:0:
471,352,53175,6,0,P|415:355|372:285,1,125.999996154785,4|8,0:0|0:0,0:0:0:0:
313,239,53884,1,0,0:0:0:0:
230,271,54120,2,0,L|216:343,2,62.9999980773926,2|2|8,0:0|0:0|0:0,0:0:0:0:
246,184,54828,1,0,0:0:0:0:
246,184,55065,6,0,B|183:184|183:184|130:227,1,125.999996154785,2|8,0:0|0:0,0:0:0:0:
46,235,55773,1,0,0:0:0:0:
31,147,56010,2,0,B|94:147|94:147|147:104,1,125.999996154785,2|8,0:0|0:0,0:0:0:0:
214,56,56718,1,8,3:0:0:0:
303,55,56954,6,0,P|322:145|349:186,1,125.999996154785,4|8,0:0|0:0,0:0:0:0:
276,338,57899,2,0,P|257:248|230:207,1,125.999996154785,4|8,0:0|0:0,0:0:0:0:
373,104,58844,6,0,B|352:134|352:134|385:183|386:215,1,125.999996154785,4|8,0:0|0:0,0:0:0:0:
475,215,59553,2,0,B|496:185|496:185|463:136|461:103,2,125.999996154785,2|8|8,0:0|0:0|0:0,0:0:0:0:
512,295,60734,6,0,P|450:301|400:262,1,125.999996154785,4|8,0:0|0:0,0:0:0:0:
315,241,61443,1,0,0:0:0:0:
228,257,61679,2,0,P|179:276|155:273,1,62.9999980773926,2|2,0:0|0:0,0:0:0:0:
115,206,62151,2,0,P|164:187|188:190,1,62.9999980773926,8|0,0:0|0:0,0:0:0:0:
250,143,62624,6,0,P|216:111|128:111,1,125.999996154785,2|8,0:0|0:0,0:0:0:0:
58,139,63332,1,0,0:0:0:0:
115,206,63569,2,0,B|93:268|139:269|110:338,2,125.999996154785,2|8|2,0:0|0:0|0:0,0:0:0:0:
152,127,64750,5,0,0:0:0:0:
227,81,64986,2,0,P|270:74|300:81,1,62.9999980773926,8|0,0:0|0:0,0:0:0:0:
334,152,65458,2,0,P|357:178|357:230,2,62.9999980773926,2|2|8,0:0|0:0|0:0,0:0:0:0:
275,218,66167,1,0,0:0:0:0:
255,303,66403,6,0,P|197:258|190:200,1,125.999996154785,2|8,0:0|0:0,0:0:0:0:
152,128,67112,2,0,B|98:126|66:95|66:95|35:106,2,125.999996154785,2|2|2,0:0|0:0|0:0,0:0:0:0:
237,104,68293,6,0,P|283:85|374:89,1,125.999996154785,4|8,0:0|0:0,0:0:0:0:
434,129,69002,1,0,0:0:0:0:
388,204,69238,2,0,P|342:223|251:219,1,125.999996154785,2|8,0:0|0:0,0:0:0:0:
178,228,69947,1,0,0:0:0:0:
110,170,70183,6,0,P|91:206|91:244,2,62.9999980773926,4|0|8,0:0|0:0|0:0,0:0:0:0:
170,106,70891,1,4,0:0:0:0:
338,57,71364,2,0,P|357:21|357:-17,2,62.9999980773926,8|8|8,3:0|0:0|3:0,0:0:0:0:
292,132,72073,6,0,P|270:189|295:246,1,125.999996154785,4|8,0:0|0:0,0:0:0:0:
383,246,72781,2,0,P|407:189|386:131,1,125.999996154785,0|2,0:0|0:0,0:0:0:0:
338,57,73490,1,8,0:0:0:0:
251,38,73726,1,8,3:0:0:0:
165,59,73962,6,0,P|104:75|44:59,1,125.999996154785,4|0,0:0|0:0,0:0:0:0:
4,231,74907,2,0,P|65:210|147:221,1,125.999996154785,2|2,0:0|0:0,0:0:0:0:
209,240,75616,2,0,P|242:242|287:225,1,62.9999980773926,0|4,0:0|0:0,0:0:0:0:
256,192,75970,12,2,77742,0:0:0:0:
466,175,83411,6,0,P|490:104|456:42,1,125.999996154785,4|8,0:0|0:0,0:0:0:0:
402,113,84120,1,0,0:0:0:0:
317,87,84356,2,0,B|285:84|255:93|255:93|225:84|192:86,1,125.999996154785,2|8,0:0|0:0,0:0:0:0:
112,122,85065,1,0,0:0:0:0:
24,112,85301,2,0,P|38:172|89:208,1,125.999996154785,2|8,0:0|0:0,0:0:0:0:
174,227,86010,1,0,0:0:0:0:
234,291,86246,2,0,B|266:294|296:285|296:285|326:294|358:291,1,125.999996154785,2|8,0:0|0:0,0:0:0:0:
488,171,87191,6,0,P|511:122|509:49,2,125.999996154785,2|8|2,0:0|0:0|0:0,0:0:0:0:
419,226,88372,1,0,0:0:0:0:
331,215,88608,2,0,P|294:194|277:166,1,62.9999980773926,8|0,0:0|0:0,0:0:0:0:
291,90,89080,2,0,P|231:105|196:156,1,125.999996154785,2|8,0:0|0:0,0:0:0:0:
196,244,89789,2,0,P|208:304|257:342,1,125.999996154785,2|2,0:0|0:0,0:0:0:0:
346,353,90498,1,8,0:0:0:0:
503,273,90970,6,0,P|521:208|518:135,1,125.999996154785,4|8,0:0|0:0,0:0:0:0:
504,62,91679,1,0,0:0:0:0:
421,35,91915,2,0,B|389:35|389:35|330:45|330:45|282:45,1,125.999996154785,2|8,0:0|0:0,0:0:0:0:
215,82,92624,1,0,0:0:0:0:
146,26,92860,2,0,P|127:93|169:158,1,125.999996154785,2|8,0:0|0:0,0:0:0:0:
207,208,93569,2,0,P|226:275|184:340,1,125.999996154785,2|0,0:0|0:0,0:0:0:0:
133,377,94277,1,8,0:0:0:0:
20,239,94750,6,0,P|14:172|17:106,1,125.999996154785,2|8,0:0|0:0,0:0:0:0:
185,63,95695,2,0,P|187:101|182:141,1,62.9999980773926,2|0,0:0|0:0,0:0:0:0:
102,156,96167,2,0,P|100:118|105:78,1,62.9999980773926,8|0,0:0|0:0,0:0:0:0:
185,63,96639,2,0,L|316:56,1,125.999996154785,2|8,0:0|0:0,0:0:0:0:
377,113,97348,1,2,0:0:0:0:
464,126,97584,2,0,P|464:101|446:58,2,62.9999980773926,2|2|8,0:0|0:0|0:0,0:0:0:0:
442,211,98293,1,2,0:0:0:0:
484,288,98529,6,0,P|430:298|370:261,1,125.999996154785,4|8,0:0|0:0,0:0:0:0:
270,118,99474,2,0,L|142:126,1,125.999996154785,2|8,0:0|0:0,0:0:0:0:
65,84,100183,1,0,0:0:0:0:
65,84,100419,2,0,P|57:146|105:206,1,125.999996154785,2|8,0:0|0:0,0:0:0:0:
249,278,101364,2,0,L|244:341,2,62.9999980773926,2|0|8,0:0|0:0|0:0,0:0:0:0:
318,223,102073,1,0,0:0:0:0:
318,223,102309,6,0,B|350:223|350:223|412:235|412:235|458:235,1,125.999996154785,2|8,0:0|0:0,0:0:0:0:
484,157,103017,1,0,0:0:0:0:
468,69,103254,2,0,B|436:69|436:69|374:57|374:57|328:57,1,125.999996154785,2|8,0:0|0:0,0:0:0:0:
257,79,103962,1,0,0:0:0:0:
171,57,104199,2,0,B|140:57|140:57|78:69|78:69|46:69,1,125.999996154785,2|8,0:0|0:0,0:0:0:0:
40,245,105143,2,0,P|89:244|156:199,1,125.999996154785,2|8,0:0|0:0,0:0:0:0:
228,159,105852,1,2,0:0:0:0:
228,159,106088,6,0,L|228:295,1,125.999996154785,4|8,0:0|0:0,0:0:0:0:
398,246,107033,2,0,B|398:111,1,125.999996154785,2|8,0:0|0:0,0:0:0:0:
457,54,107742,1,0,0:0:0:0:
457,54,107978,2,0,P|398:33|340:53,1,125.999996154785,2|8,0:0|0:0,0:0:0:0:
214,177,108923,2,0,P|248:226|319:242,1,125.999996154785,2|8,0:0|0:0,0:0:0:0:
398,246,109632,1,0,0:0:0:0:
474,202,109868,6,0,B|489:254|489:254|472:340,1,125.999996154785,2|8,0:0|0:0,0:0:0:0:
392,355,110576,1,0,0:0:0:0:
304,355,110813,2,0,P|235:334|155:353,1,125.999996154785,2|8,0:0|0:0,0:0:0:0:
95,354,111521,1,0,0:0:0:0:
25,299,111758,2,0,P|14:254|23:226,1,62.9999980773926,2|0,0:0|0:0,0:0:0:0:
62,163,112230,2,0,P|73:133|70:102,1,62.9999980773926,8|0,0:0|0:0,0:0:0:0:
158,102,112702,2,0,P|154:134|165:163,2,62.9999980773926,2|0|8,0:0|0:0|0:0,0:0:0:0:
220,39,113411,1,2,0:0:0:0:
220,39,113647,6,0,P|281:26|342:39,1,125.999996154785,4|8,0:0|0:0,0:0:0:0:
408,98,114356,1,0,0:0:0:0:
493,118,114592,2,0,P|481:151|442:176,1,62.9999980773926,2|2,0:0|0:0,0:0:0:0:
374,188,115065,2,0,P|386:221|425:246,1,62.9999980773926,8|0,0:0|0:0,0:0:0:0:
492,258,115537,6,0,P|457:309|398:326,1,125.999996154785,2|8,0:0|0:0,0:0:0:0:
310,319,116246,1,0,0:0:0:0:
223,331,116482,2,0,B|161:353|160:307|91:336,2,125.999996154785,2|8|2,0:0|0:0|0:0,0:0:0:0:
310,319,117663,5,0,0:0:0:0:
351,241,117899,2,0,L|353:173,1,62.9999980773926,8|0,0:0|0:0,0:0:0:0:
267,156,118372,2,0,L|266:222,2,62.9999980773926,2|2|8,0:0|0:0|0:0,0:0:0:0:
239,72,119080,1,0,0:0:0:0:
180,138,119317,6,0,P|130:174|68:176,1,125.999996154785,2|8,0:0|0:0,0:0:0:0:
41,93,120025,2,0,P|90:56|152:54,1,125.999996154785,2|2,0:0|0:0,0:0:0:0:
239,72,120734,2,0,L|306:72,1,62.9999980773926,8|0,0:0|0:0,0:0:0:0:
374,21,121206,6,0,P|390:77|350:147,1,125.999996154785,4|8,0:0|0:0,0:0:0:0:
329,218,121915,1,0,0:0:0:0:
252,261,122151,2,0,L|260:340,2,62.9999980773926,2|2|8,0:0|0:0|0:0,0:0:0:0:
201,188,122860,1,0,0:0:0:0:
201,188,123096,6,0,P|139:175|78:188,1,125.999996154785,2|8,0:0|0:0,0:0:0:0:
17,251,123805,1,0,0:0:0:0:
53,331,124041,2,0,P|115:345|176:332,1,125.999996154785,2|8,0:0|0:0,0:0:0:0:
259,300,124750,1,8,3:0:0:0:
341,332,124986,6,0,B|367:351|367:351|412:299|403:251,1,125.999996154785,4|8,0:0|0:0,0:0:0:0:
266,156,125931,2,0,B|240:137|240:137|195:189|204:237,1,125.999996154785,4|8,0:0|0:0,0:0:0:0:
341,332,126876,6,0,P|363:355|460:337,1,125.999996154785,4|8,0:0|0:0,0:0:0:0:
494,272,127584,2,0,B|509:235|509:235|512:122,2,125.999996154785,2|8|8,0:0|0:0|0:0,0:0:0:0:
419,225,128765,6,0,P|363:181|344:110,1,125.999996154785,4|8,0:0|0:0,0:0:0:0:
275,76,129474,1,0,0:0:0:0:
196,117,129710,2,0,L|129:117,1,62.9999980773926,2|2,0:0|0:0,0:0:0:0:
102,200,130183,2,0,L|169:200,1,62.9999980773926,8|0,0:0|0:0,0:0:0:0:
250,220,130655,6,0,P|225:263|153:287,1,125.999996154785,2|8,0:0|0:0,0:0:0:0:
67,291,131364,1,0,0:0:0:0:
15,219,131600,2,0,B|-7:157|39:156|10:87,2,125.999996154785,2|8|2,0:0|0:0|0:0,0:0:0:0:
102,200,132781,5,0,0:0:0:0:
187,226,133017,2,0,P|235:220|257:224,1,62.9999980773926,8|0,0:0|0:0,0:0:0:0:
325,266,133490,2,0,P|299:296|262:307,2,62.9999980773926,2|2|8,0:0|0:0|0:0,0:0:0:0:
402,222,134199,1,0,0:0:0:0:
402,222,134435,6,0,P|479:217|519:169,1,125.999996154785,2|8,0:0|0:0,0:0:0:0:
489,99,135143,2,0,P|412:104|372:152,2,125.999996154785,2|2|2,0:0|0:0|0:0,0:0:0:0:
511,184,136324,6,0,L|481:307,1,125.999996154785,4|8,0:0|0:0,0:0:0:0:
400,343,137033,1,0,0:0:0:0:
313,325,137269,2,0,B|256:301|256:301|231:328|175:319,1,125.999996154785,2|8,0:0|0:0,0:0:0:0:
109,309,137978,1,0,0:0:0:0:
80,225,138214,6,0,P|74:178|82:141,1,62.9999980773926,4|2,0:0|0:0,0:0:0:0:
99,77,138687,1,8,0:0:0:0:
168,132,138923,2,0,P|228:126|275:83,1,125.999996154785,4|2,0:0|0:0,0:0:0:0:
360,104,139632,2,0,L|406:180,1,62.9999980773926,8|8,0:0|3:0,0:0:0:0:
469,203,140104,6,0,P|431:239|352:236,1,125.999996154785,4|8,0:0|0:0,0:0:0:0:
278,209,140813,2,0,L|278:349,2,125.999996154785,0|2|8,0:0|0:0|3:0,0:0:0:0:
212,148,141994,6,0,P|180:152|149:149,1,62.9999980773926,8|8,0:0|3:0,0:0:0:0:
88,85,142466,2,0,L|91:4,1,62.9999980773926,8|8,0:0|3:0,0:0:0:0:
6,51,142939,2,0,B|5:132|5:132|58:159|58:225,1,188.999994232178,2|0,0:0|0:0,0:0:0:0:
134,264,143884,6,0,P|120:285|85:304,2,62.9999980773926,4|0|8,0:0|0:0|0:0,0:0:0:0:
141,176,144592,2,0,L|273:185,1,125.999996154785,2|0,0:0|0:0,0:0:0:0:
349,214,145301,1,8,0:0:0:0:
432,185,145537,1,0,0:0:0:0:
451,99,145773,6,0,P|448:63|424:22,2,62.9999980773926,2|0|8,0:0|0:0|0:0,0:0:0:0:
363,88,146482,2,0,L|227:80,1,125.999996154785,2|2,0:0|0:0,0:0:0:0:
151,59,147191,1,8,0:0:0:0:
151,59,147427,6,0,P|116:134|175:234,1,188.999994232178,4|8,0:0|0:0,0:0:0:0:
230,276,148372,2,0,B|291:291|291:291|353:276,1,125.999996154785,2|2,0:0|0:0,0:0:0:0:
433,242,149080,1,8,0:0:0:0:
418,155,149317,6,0,P|382:110|377:38,1,125.999996154785,2|0,0:0|0:0,0:0:0:0:
288,55,150025,2,0,L|249:2,1,62.9999980773926,8|0,0:0|0:0,0:0:0:0:
195,73,150498,2,0,L|134:46,1,62.9999980773926,2|0,0:0|0:0,0:0:0:0:
129,135,150970,2,0,L|63:142,1,62.9999980773926,8|0,0:0|0:0,0:0:0:0:
105,219,151443,6,0,P|167:214|208:168,1,125.999996154785,4|8,0:0|0:0,0:0:0:0:
292,141,152151,1,0,0:0:0:0:
375,169,152387,2,0,P|378:231|414:281,1,125.999996154785,2|8,0:0|0:0,0:0:0:0:
348,340,153096,1,0,0:0:0:0:
259,336,153332,6,0,L|125:336,2,125.999996154785,2|8|2,0:0|0:0|0:0,0:0:0:0:
307,262,154513,1,2,0:0:0:0:
269,181,154750,2,0,P|248:146|248:119,1,62.9999980773926,8|8,0:0|0:0,0:0:0:0:
510,155,155695,6,0,P|506:243|478:280,1,125.999996154785,8|8,0:0|0:0,0:0:0:0:
417,327,156403,1,8,0:0:0:0:
255,255,156876,1,4,0:0:0:0:
256,192,156994,12,2,159002,0:0:0:0:
75,63,170340,6,0,L|51:187,1,125.999996154785,2|2,0:0|0:0,0:0:0:0:
139,339,171285,2,0,L|163:215,1,125.999996154785,2|2,0:0|0:0,0:0:0:0:
325,147,172230,2,0,P|394:187|277:331,1,314.999990386963,2|2,0:0|0:0,0:0:0:0:
224,174,173884,1,2,0:0:0:0:
224,174,174120,6,0,P|223:112|263:64,1,125.999996154785,4|8,0:0|0:0,0:0:0:0:
346,36,174828,1,0,0:0:0:0:
429,64,175065,2,0,P|442:110|462:136,1,62.9999980773926,2|2,0:0|0:0,0:0:0:0:
489,200,175537,2,0,P|482:230|468:258,1,62.9999980773926,8|0,0:0|0:0,0:0:0:0:
385,288,176010,6,0,P|323:278|271:243,1,125.999996154785,2|8,0:0|0:0,0:0:0:0:
187,216,176718,1,0,0:0:0:0:
103,243,176954,2,0,B|81:305|127:306|102:367,2,125.999996154785,2|8|2,0:0|0:0|0:0,0:0:0:0:
122,156,178136,5,0,0:0:0:0:
189,99,178372,2,0,P|219:97|251:105,1,62.9999980773926,8|0,0:0|0:0,0:0:0:0:
315,164,178844,2,0,P|290:183|253:193,2,62.9999980773926,2|2|8,0:0|0:0|0:0,0:0:0:0:
387,113,179553,1,0,0:0:0:0:
387,113,179789,6,0,P|449:129|484:183,1,125.999996154785,4|8,0:0|0:0,0:0:0:0:
469,265,180498,1,4,0:0:0:0:
314,350,180970,2,0,L|174:340,1,125.999996154785,2|4,0:0|0:0,0:0:0:0:
57,109,182151,6,0,L|119:104,1,62.9999980773926,8|0,0:0|0:0,0:0:0:0:
162,26,182624,2,0,P|190:51|203:136,1,125.999996154785,2|8,0:0|0:0,0:0:0:0:
161,213,183332,1,0,0:0:0:0:
81,252,183569,6,0,L|17:242,2,62.9999980773926,4|0|8,0:0|0:0|0:0,0:0:0:0:
161,213,184277,2,0,P|225:189|286:197,1,125.999996154785,4|2,0:0|0:0,0:0:0:0:
359,236,184986,2,0,P|389:244|425:245,1,62.9999980773926,8|8,0:0|3:0,0:0:0:0:
504,218,185458,6,0,B|471:358,1,125.999996154785,4|8,0:0|0:0,0:0:0:0:
388,358,186167,2,0,B|357:227,1,125.999996154785,0|2,0:0|0:0,0:0:0:0:
310,161,186876,1,8,0:0:0:0:
226,132,187112,1,8,3:0:0:0:
140,153,187348,6,0,P|91:181|63:248,1,125.999996154785,4|0,0:0|0:0,0:0:0:0:
202,351,188293,2,0,L|336:337,1,125.999996154785,2|0,0:0|0:0,0:0:0:0:
395,281,189002,2,0,P|378:237|359:218,1,62.9999980773926,0|4,0:0|0:0,0:0:0:0:
256,192,189356,12,0,191600,0:0:0:0:
