osu file format v14

[General]
AudioFilename: ice.mp3
AudioLeadIn: 0
PreviewTime: 46088
Countdown: 0
SampleSet: Soft
StackLeniency: 0.7
Mode: 0
LetterboxInBreaks: 0
WidescreenStoryboard: 0

[Editor]
Bookmarks: 36887,99249,126651
DistanceSpacing: 1.1
BeatDivisor: 4
GridSize: 4
TimelineZoom: 1

[Metadata]
Title:Bing Kuai
TitleUnicode:冰塊
Artist:Chou Huei
ArtistUnicode:周蕙
Creator:Peachtrees
Version:Easy
Source:
Tags:pinyin Zhang Yifan 卢文韬 张逸帆 p_a_n 冰块 張逸帆 盧文韜 zi ji de fang jian Where zhou hui 自己的房間 Own Room ice cube
BeatmapID:644787
BeatmapSetID:285477

[Difficulty]
HPDrainRate:2
CircleSize:3
OverallDifficulty:2
ApproachRate:3
SliderMultiplier:1
SliderTickRate:1

[Events]
//Background and Video events
0,0,"bbbbb.png",0,0
//Break Periods
2,77942,81971
2,159202,168900
//Storyboard Layer 0 (Background)
//Storyboard Layer 1 (Fail)
//Storyboard Layer 2 (Pass)
//Storyboard Layer 3 (Foreground)
//Storyboard Sound Samples

[TimingPoints]
262,472.44094488189,4,1,0,100,1,0
15380,-111.111111111111,4,2,4,30,0,0
45616,-111.111111111111,4,2,1,45,0,1
45970,-111.111111111111,4,2,2,45,0,1
46206,-111.111111111111,4,2,1,45,0,1
48805,-111.111111111111,4,2,2,45,0,1
49041,-111.111111111111,4,2,1,45,0,1
51639,-111.111111111111,4,2,2,45,0,1
51876,-111.111111111111,4,2,1,45,0,1
52584,-111.111111111111,4,2,2,45,0,1
52821,-111.111111111111,4,2,1,45,0,1
59199,-111.111111111111,4,2,2,45,0,1
59435,-111.111111111111,4,2,1,45,0,1
60143,-111.111111111111,4,2,2,45,0,1
60380,-111.111111111111,4,2,1,45,0,1
63923,-111.111111111111,4,2,2,45,0,1
64159,-111.111111111111,4,2,1,45,0,1
69592,-111.111111111111,4,2,2,45,0,1
69828,-111.111111111111,4,2,1,45,0,1
70537,-111.111111111111,4,2,2,45,0,1
70773,-111.111111111111,4,2,1,45,0,1
72427,-111.111111111111,4,2,2,45,0,1
72663,-111.111111111111,4,2,1,45,0,1
73372,-111.111111111111,4,2,2,45,0,1
73608,-111.111111111111,4,2,0,40,0,1
74907,-111.111111111111,4,2,0,35,0,0
77624,-111.111111111111,4,2,0,15,0,0
77860,-111.111111111111,4,2,1,25,0,0
83411,-111.111111111111,4,2,3,30,0,0
85655,-111.111111111111,4,2,2,30,0,0
85891,-111.111111111111,4,2,3,30,0,0
89435,-111.111111111111,4,2,2,30,0,0
89671,-111.111111111111,4,2,3,30,0,0
90380,-111.111111111111,4,2,2,30,0,0
90616,-111.111111111111,4,2,3,30,0,0
98057,-111.111111111111,4,2,3,40,0,0
105498,-111.111111111111,4,2,2,40,0,0
105734,-111.111111111111,4,2,3,40,0,0
107387,-111.111111111111,4,2,2,40,0,0
107624,-111.111111111111,4,2,3,40,0,0
111167,-111.111111111111,4,2,2,40,0,0
111403,-111.111111111111,4,2,3,40,0,0
113647,-111.111111111111,4,2,1,50,0,1
116836,-111.111111111111,4,2,2,50,0,1
117073,-111.111111111111,4,2,1,50,0,1
119671,-111.111111111111,4,2,2,50,0,1
119907,-111.111111111111,4,2,1,50,0,1
120616,-111.111111111111,4,2,2,50,0,1
120852,-111.111111111111,4,2,1,50,0,1
127230,-111.111111111111,4,2,2,50,0,1
127466,-111.111111111111,4,2,1,50,0,1
128175,-111.111111111111,4,2,2,50,0,1
128411,-111.111111111111,4,2,1,50,0,1
131954,-111.111111111111,4,2,2,50,0,1
132191,-111.111111111111,4,2,1,50,0,1
137624,-111.111111111111,4,2,2,50,0,1
137860,-111.111111111111,4,2,1,50,0,1
138569,-111.111111111111,4,2,2,50,0,1
138805,-111.111111111111,4,2,1,50,0,1
143884,-111.111111111111,4,2,1,45,0,0
144238,-111.111111111111,4,2,2,45,0,0
144474,-111.111111111111,4,2,3,45,0,0
146128,-111.111111111111,4,2,2,45,0,0
146364,-111.111111111111,4,2,3,45,0,0
148017,-111.111111111111,4,2,2,45,0,0
148254,-111.111111111111,4,2,3,45,0,0
149907,-111.111111111111,4,2,2,45,0,0
150143,-111.111111111111,4,2,3,45,0,0
150852,-111.111111111111,4,2,2,45,0,0
151088,-111.111111111111,4,2,3,45,0,0
158884,-111.111111111111,4,2,1,25,0,0
159120,-111.111111111111,4,2,1,45,0,0
170340,-111.111111111111,4,2,0,30,0,0
171639,-111.111111111111,4,2,2,30,0,0
171876,-111.111111111111,4,2,3,30,0,0
173529,-111.111111111111,4,2,2,40,0,0
173765,-111.111111111111,4,2,3,40,0,0
174120,-111.111111111111,4,2,1,55,0,1
177309,-111.111111111111,4,2,2,55,0,1
177545,-111.111111111111,4,2,1,55,0,1
180143,-111.111111111111,4,2,2,55,0,1
180380,-111.111111111111,4,2,1,55,0,1
182978,-111.111111111111,4,2,2,55,0,1
183214,-111.111111111111,4,2,1,55,0,1
183923,-111.111111111111,4,2,2,55,0,1
184159,-111.111111111111,4,2,1,55,0,1
185813,-111.111111111111,4,2,2,55,0,1
186049,-111.111111111111,4,2,1,55,0,1
186758,-111.111111111111,4,2,2,55,0,1
186994,-111.111111111111,4,2,1,55,0,1
188293,-111.111111111111,4,2,3,30,0,0
191482,-111.111111111111,4,2,0,5,0,0
191718,-111.111111111111,4,2,0,40,0,0

[Colours]
Combo1 : 128,0,255
Combo2 : 128,0,128
Combo3 : 183,176,244
Combo4 : 0,255,255

[HitObjects]
200,130,15380,6,0,B|289:130|289:130|332:130|358:76,1,179.999994506836,2|2,0:0|0:0,0:0:0:0:
271,27,16797,1,0,0:0:0:0:
172,32,17269,2,0,P|110:84|112:180,1,179.999994506836,2|2,0:0|0:0,0:0:0:0:
248,322,19159,6,0,P|331:348|422:319,1,179.999994506836,2|2,0:0|0:0,0:0:0:0:
465,235,20576,1,0,0:0:0:0:
466,135,21049,2,0,P|381:108|296:134,1,179.999994506836,2|2,0:0|0:0,0:0:0:0:
205,309,22939,6,0,B|92:324|76:212,1,179.999994506836,2|2,0:0|0:0,0:0:0:0:
76,117,24356,1,0,0:0:0:0:
155,58,24828,1,2,0:0:0:0:
249,87,25301,2,0,P|238:132|256:186,1,89.9999972534181,0|2,0:0|0:0,0:0:0:0:
328,231,26246,1,0,0:0:0:0:
416,187,26718,6,0,P|427:232|409:286,1,89.9999972534181,2|0,0:0|0:0,0:0:0:0:
352,349,27663,2,0,P|313:344|260:350,2,89.9999972534181,2|0|2,0:0|0:0|0:0,0:0:0:0:
361,151,29553,6,0,B|302:167|241:140|241:140|187:159,1,179.999994506836,2|4,0:0|0:0,0:0:0:0:
15,258,31443,2,0,B|57:276|83:315|83:315|174:303,1,179.999994506836,2|2,0:0|0:0,0:0:0:0:
364,349,33332,6,0,P|412:280|390:176,1,179.999994506836,2|2,0:0|0:0,0:0:0:0:
343,107,34750,1,0,0:0:0:0:
296,19,35222,2,0,P|260:52|244:104,1,89.9999972534181,2|0,0:0|0:0,0:0:0:0:
146,94,36167,2,0,P|156:137|195:175,1,89.9999972534181,2|0,0:0|0:0,0:0:0:0:
267,226,37112,6,0,P|173:267|102:220,1,179.999994506836,2|4,0:0|0:0,0:0:0:0:
85,36,39002,2,0,P|40:41|-8:78,2,89.9999972534181,2|0|2,0:0|0:0|0:0,0:0:0:0:
180,61,40419,1,0,0:0:0:0:
275,38,40891,6,0,B|306:72|306:72|286:204,1,179.999994506836,2|2,0:0|0:0,0:0:0:0:
298,302,42309,1,0,0:0:0:0:
376,242,42781,2,0,L|391:144,1,89.9999972534181,2|0,0:0|0:0,0:0:0:0:
450,74,43726,2,0,P|470:92|489:156,1,89.9999972534181,2|0,0:0|0:0,0:0:0:0:
468,247,44671,2,0,P|458:290|426:321,1,89.9999972534181,2|0,0:0|0:0,0:0:0:0:
326,321,45616,6,0,B|286:308|259:262|259:262|231:307|194:321,1,179.999994506836,4|2,0:0|0:0,0:0:0:0:
95,326,47033,1,8,0:0:0:0:
43,241,47506,2,0,L|61:140,1,89.9999972534181,2|8,0:0|0:0,0:0:0:0:
51,53,48450,2,0,P|123:75|155:181,1,179.999994506836,2|2,0:0|0:0,0:0:0:0:
153,265,49868,1,8,0:0:0:0:
252,260,50340,6,0,L|347:250,1,89.9999972534181,2|8,0:0|0:0,0:0:0:0:
440,258,51285,2,0,B|436:303|394:335|394:335|302:346,2,179.999994506836,2|2|4,0:0|0:0|0:0,0:0:0:0:
465,163,53647,1,8,0:0:0:0:
452,64,54120,6,0,P|422:72|375:126,1,89.9999972534181,2|8,0:0|0:0,0:0:0:0:
329,197,55065,2,0,L|240:210,1,89.9999972534181,2|8,0:0|0:0,0:0:0:0:
141,224,56010,2,0,P|99:198|76:149,1,89.9999972534181,2|8,0:0|0:0,0:0:0:0:
49,70,56954,5,4,0:0:0:0:
133,18,57427,1,8,0:0:0:0:
216,70,57899,1,2,0:0:0:0:
300,18,58372,1,8,0:0:0:0:
383,70,58844,2,0,P|372:156|302:215,2,179.999994506836,4|2|4,0:0|0:0|0:0,0:0:0:0:
300,18,61206,1,8,0:0:0:0:
230,88,61679,6,0,P|206:52|204:-4,2,89.9999972534181,2|8|2,0:0|0:0|0:0,0:0:0:0:
275,175,63096,1,8,0:0:0:0:
205,246,63569,2,0,P|276:275|366:214,1,179.999994506836,2|2,0:0|0:0,0:0:0:0:
387,131,64986,1,8,0:0:0:0:
354,37,65458,6,0,P|406:33|444:50,2,89.9999972534181,2|8|2,0:0|0:0|0:0,0:0:0:0:
273,95,66876,1,8,0:0:0:0:
182,134,67348,2,0,L|92:121,1,89.9999972534181,2|8,0:0|0:0,0:0:0:0:
43,207,68293,2,0,L|133:220,1,89.9999972534181,4|8,0:0|0:0,0:0:0:0:
218,267,69238,6,0,B|362:256|362:256|399:228,2,179.999994506836,2|4|2,0:0|0:0|0:0,0:0:0:0:
120,248,71600,1,8,0:0:0:0:
41,187,72073,6,0,B|14:144|41:103|41:103|14:63|41:18,2,179.999994506836,4|2|4,0:0|0:0|0:0,0:0:0:0:
233,141,74907,2,0,P|247:100|233:58,1,89.9999972534181,2|0,0:0|0:0,0:0:0:0:
256,192,75852,12,2,77742,0:0:0:0:
422,77,83411,6,0,P|474:83|508:114,1,89.9999972534181,4|8,0:0|0:0,0:0:0:0:
432,176,84356,2,0,P|464:217|466:262,1,89.9999972534181,2|8,0:0|0:0,0:0:0:0:
369,253,85301,2,0,P|335:331|250:334,1,179.999994506836,2|2,0:0|0:0,0:0:0:0:
180,262,86718,1,8,0:0:0:0:
82,241,87191,6,0,L|-22:252,2,89.9999972534181,2|8|2,0:0|0:0|0:0,0:0:0:0:
151,170,88608,1,8,0:0:0:0:
249,179,89080,2,0,B|301:181|332:152|332:152|397:215|397:215,2,179.999994506836,2|2|4,0:0|0:0|0:0,0:0:0:0:
196,260,91443,5,8,0:0:0:0:
98,276,91915,1,2,0:0:0:0:
13,224,92387,1,8,0:0:0:0:
0,125,92860,2,0,P|2:83|25:30,2,89.9999972534181,2|8|2,0:0|0:0|0:0,0:0:0:0:
13,224,94277,1,8,0:0:0:0:
107,193,94750,6,0,L|203:204,1,89.9999972534181,2|8,0:0|0:0,0:0:0:0:
288,239,95695,2,0,P|264:274|214:300,2,89.9999972534181,2|8|2,0:0|0:0|0:0,0:0:0:0:
325,147,97112,1,8,0:0:0:0:
386,69,97584,2,0,P|298:51|230:121,1,179.999994506836,2|4,0:0|0:0,0:0:0:0:
220,204,99002,1,8,0:0:0:0:
251,297,99474,6,0,P|298:264|315:222,2,89.9999972534181,2|8|2,0:0|0:0|0:0,0:0:0:0:
153,278,100891,1,8,0:0:0:0:
116,185,101364,2,0,L|103:91,1,89.9999972534181,2|8,0:0|0:0,0:0:0:0:
5,108,102309,6,0,L|17:197,1,89.9999972534181,2|8,0:0|0:0,0:0:0:0:
67,282,103254,2,0,P|111:304|167:304,1,89.9999972534181,2|8,0:0|0:0,0:0:0:0:
244,272,104199,2,0,P|282:263|348:273,1,89.9999972534181,2|8,0:0|0:0,0:0:0:0:
424,303,105143,2,0,P|457:230|411:139,1,179.999994506836,2|4,0:0|0:0,0:0:0:0:
339,86,106561,1,8,0:0:0:0:
253,135,107033,6,0,P|190:157|127:136,2,134.999995880127,2|2|8,0:0|0:0|0:0,0:0:0:0:
339,85,108923,2,0,L|432:46,1,89.9999972534181,2|8,0:0|0:0,0:0:0:0:
512,88,109868,5,2,0:0:0:0:
508,186,110340,1,8,0:0:0:0:
445,263,110813,2,0,P|386:273|290:204,1,179.999994506836,2|2,0:0|0:0,0:0:0:0:
264,112,112230,2,0,L|229:304,1,179.999994506836,8|8,0:0|0:0,0:0:0:0:
136,318,113647,6,0,L|119:222,1,89.9999972534181,4|8,0:0|0:0,0:0:0:0:
35,177,114592,2,0,P|21:217|28:270,2,89.9999972534181,2|8|2,0:0|0:0|0:0,0:0:0:0:
89,94,116010,1,8,0:0:0:0:
184,72,116482,2,0,P|243:148|243:240,1,179.999994506836,2|2,0:0|0:0,0:0:0:0:
208,320,117899,1,8,0:0:0:0:
306,314,118372,6,0,P|356:315|402:296,1,89.9999972534181,2|8,0:0|0:0,0:0:0:0:
434,211,119317,2,0,P|434:307|483:390,2,179.999994506836,2|2|4,0:0|0:0|2:0,0:0:0:0:
454,113,121679,1,8,0:0:0:0:
375,52,122151,6,0,L|275:47,1,89.9999972534181,2|8,0:0|0:0,0:0:0:0:
212,115,123096,2,0,L|122:119,1,89.9999972534181,2|8,0:0|0:0,0:0:0:0:
42,178,124041,2,0,P|82:211|134:218,1,89.9999972534181,2|8,0:0|0:0,0:0:0:0:
215,233,124986,5,4,0:0:0:0:
303,187,125458,1,8,0:0:0:0:
349,274,125931,1,2,0:0:0:0:
262,321,126403,1,8,0:0:0:0:
215,233,126876,2,0,L|29:242,2,179.999994506836,4|2|4,0:0|0:0|0:0,0:0:0:0:
304,191,129238,1,8,0:0:0:0:
395,153,129710,6,0,P|401:208|380:254,1,89.9999972534181,2|8,0:0|0:0,0:0:0:0:
318,309,130655,2,0,L|209:309,1,89.9999972534181,2|8,0:0|0:0,0:0:0:0:
133,281,131600,2,0,P|88:206|122:124,1,179.999994506836,2|2,0:0|0:0,0:0:0:0:
217,149,133017,1,8,0:0:0:0:
310,117,133490,6,0,L|407:110,2,89.9999972534181,2|8|2,0:0|0:0|0:0,0:0:0:0:
217,149,134907,1,8,0:0:0:0:
133,202,135380,2,0,L|36:209,1,89.9999972534181,2|8,0:0|0:0,0:0:0:0:
76,301,136324,2,0,L|173:294,1,89.9999972534181,4|8,0:0|0:0,0:0:0:0:
260,325,137269,6,0,P|335:330|399:249,2,179.999994506836,2|4|2,0:0|0:0|0:0,0:0:0:0:
166,295,139632,1,8,0:0:0:0:
109,214,140104,6,0,L|108:117,1,89.9999972534181,4|8,0:0|0:0,0:0:0:0:
45,45,141049,2,0,P|17:79|7:122,1,89.9999972534181,2|8,0:0|0:0,0:0:0:0:
3,221,141994,2,0,P|12:264|42:298,2,89.9999972534181,4|8|2,0:0|0:0|0:0,0:0:0:0:
7,122,143411,1,8,0:0:0:0:
67,42,143884,6,0,B|157:31|157:31|218:98|332:73,1,269.999991760254,4|8,0:0|0:0,0:0:0:0:
405,21,145773,2,0,P|420:87|338:173,1,179.999994506836,2|0,0:0|0:0,0:0:0:0:
257,182,147191,1,8,0:0:0:0:
186,252,147663,6,0,P|94:284|13:249,1,179.999994506836,2|0,0:0|0:0,0:0:0:0:
6,157,149080,1,8,0:0:0:0:
100,189,149553,2,0,L|100:380,2,179.999994506836,2|2|4,0:0|0:0|0:0,0:0:0:0:
165,115,151915,5,8,0:0:0:0:
230,189,152387,1,2,0:0:0:0:
296,115,152860,1,8,0:0:0:0:
361,189,153332,2,0,P|404:198|448:189,2,89.9999972534181,2|8|2,0:0|0:0|0:0,0:0:0:0:
296,115,154750,2,2,L|279:68,1,44.999998626709,8|8,0:0|0:0,0:0:0:0:
135,41,155695,6,0,B|115:129|115:129|133:190,1,134.999995880127,4|0,0:0|0:0,0:0:0:0:
256,192,156876,12,2,159002,0:0:0:0:
148,141,170340,6,0,P|69:135|22:46,2,179.999994506836,2|2|2,0:0|0:0|0:0,0:0:0:0:
236,96,172702,1,8,0:0:0:0:
323,141,173175,2,0,P|402:147|449:236,1,179.999994506836,2|4,0:0|0:0,0:0:0:0:
385,303,174592,1,8,0:0:0:0:
286,297,175065,6,0,L|187:297,2,89.9999972534181,2|8|2,0:0|0:0|0:0,0:0:0:0:
349,221,176482,1,8,0:0:0:0:
265,168,176954,2,0,B|183:168|183:168|127:168|103:117,1,179.999994506836,2|2,0:0|0:0,0:0:0:0:
182,58,178372,1,8,0:0:0:0:
279,74,178844,6,0,P|321:81|377:69,1,89.9999972534181,2|8,0:0|0:0,0:0:0:0:
460,107,179789,2,0,P|480:170|451:249,2,134.999995880127,4|4|8,0:0|0:0|0:0,0:0:0:0:
369,146,181679,6,0,L|271:140,1,89.9999972534181,2|8,0:0|0:0,0:0:0:0:
198,82,182624,2,0,P|183:171|248:236,2,179.999994506836,2|4|2,0:0|0:0|0:0,0:0:0:0:
290,45,184986,1,8,0:0:0:0:
381,82,185458,6,0,P|396:171|331:236,2,179.999994506836,4|2|4,0:0|0:0|0:0,0:0:0:0:
184,52,188293,2,0,L|46:57,1,134.999995880127,2|0,0:0|0:0,0:0:0:0:
256,192,189238,12,0,191600,0:0:0:0:
