osu file format v12

[General]
AudioFilename: ice.mp3
AudioLeadIn: 0
PreviewTime: 46008
Countdown: 0
SampleSet: Soft
StackLeniency: 0.7
Mode: 0
LetterboxInBreaks: 0
WidescreenStoryboard: 1

[Editor]
DistanceSpacing: 1.1
BeatDivisor: 4
GridSize: 4
TimelineZoom: 1

[Metadata]
Title:Bing Kuai
TitleUnicode:冰塊
Artist:Chou Huei
ArtistUnicode:周蕙
Creator:Flask
Version:Hard
Source:
Tags:Azure 自己的房間
BeatmapID:292622
BeatmapSetID:112589

[Difficulty]
HPDrainRate:5
CircleSize:4
OverallDifficulty:6
ApproachRate:7
SliderMultiplier:1.5
SliderTickRate:1

[Events]
//Background and Video events
0,0,"20130823200955.jpg",0,0
//Break Periods
2,75827,82286
2,158977,171105
//Storyboard Layer 0 (Background)
//Storyboard Layer 1 (Fail)
//Storyboard Layer 2 (Pass)
//Storyboard Layer 3 (Foreground)
//Storyboard Sound Samples
//Background Colour Transformations
3,100,163,162,255

[TimingPoints]
37,472.44094488189,4,2,2,30,1,0
15155,-166.666666666667,4,2,2,40,0,0
45391,-100,4,2,1,70,0,1
56375,-100,4,2,2,70,0,1
56611,-100,4,2,1,70,0,1
59328,-100,4,2,2,70,0,1
59446,-100,4,2,1,70,0,1
60391,-100,4,2,1,70,0,0
60509,-100,4,2,1,70,0,1
71021,-100,4,2,2,70,0,1
71257,-100,4,2,1,70,0,1
73147,-100,4,2,2,70,0,1
73383,-100,4,2,1,70,0,1
73737,-100,4,2,1,70,0,0
74682,-166.666666666667,4,2,2,50,0,0
75627,-100,4,2,1,50,0,1
75745,-100,4,2,1,50,0,0
89446,-100,4,2,2,50,0,0
90273,-100,4,2,1,50,0,0
97596,-100,4,2,2,50,0,0
97950,-100,4,2,1,50,0,0
111769,-100,4,2,1,30,0,0
112005,-100,4,2,1,40,0,0
112241,-100,4,2,1,50,0,0
113422,-100,4,2,1,70,0,1
124407,-100,4,2,2,70,0,1
124643,-100,4,2,1,70,0,1
127241,-100,4,2,2,70,0,1
127477,-100,4,2,1,70,0,1
128422,-100,4,2,1,70,0,0
128540,-100,4,2,1,70,0,1
139052,-100,4,2,2,70,0,1
139288,-100,4,2,1,70,0,1
141887,-100,4,2,2,70,0,1
142123,-100,4,2,1,70,0,1
143540,-100,4,2,1,70,0,0
143659,-100,4,2,1,50,0,1
143777,-100,4,2,1,50,0,0
155351,-100,4,2,2,50,0,0
156887,-100,4,2,2,30,0,0
172005,-100,4,2,1,60,0,0
172596,-100,4,2,2,60,0,0
172832,-100,4,2,1,60,0,0
173895,-100,4,2,1,70,0,1
184407,-100,4,2,2,70,0,1
184643,-100,4,2,1,70,0,1
186296,-100,4,2,2,70,0,1
186533,-100,4,2,1,70,0,1
187123,-100,4,2,1,70,0,0
188068,-166.666666666667,4,2,2,50,0,0
189013,-100,4,2,1,50,0,0

[Colours]
Combo1 : 255,255,77
Combo2 : 0,142,210
Combo3 : 255,153,255
Combo4 : 0,96,191
Combo5 : 130,255,130
SliderBorder : 255,255,255

[HitObjects]
128,96,15155,1,2,0:0:0:0:
128,96,15391,2,0,P|176:104|212:88,2,89.999997253418,0|2|0,0:0|0:0|0:0,0:0:0:0:
48,116,16808,2,0,P|32:160|36:208,1,89.999997253418,2|0,0:0|0:0,0:0:0:0:
52,268,17517,2,0,L|64:316,1,44.999998626709,0|0,0:0|0:0,0:0:0:0:
148,292,17989,2,0,L|124:200,1,89.999997253418,2|2,0:0|0:0,0:0:0:0:
192,188,18698,1,0,0:0:0:0:
220,252,18934,6,0,P|260:256|308:236,1,89.999997253418,2|0,0:0|0:0,0:0:0:0:
372,156,19879,2,0,P|368:180|368:208,1,44.999998626709,0|0,0:0|0:0,0:0:0:0:
372,268,20351,2,0,P|380:290|394:315,1,44.999998626709,0|0,0:0|0:0,0:0:0:0:
348,364,20824,2,0,P|388:380|436:364,2,89.9999972534181,2|2|2,0:0|0:0|0:0,0:0:0:0:
260,324,22005,1,2,0:0:0:0:
280,316,22123,1,2,0:0:0:0:
300,312,22241,2,0,P|324:296|348:292,1,44.999998626709,2|2,0:0|0:0,0:0:0:0:
200,360,22714,5,2,0:0:0:0:
200,360,22950,2,0,P|188:328|216:272,2,89.9999972534181,0|2|0,0:0|0:0|0:0,0:0:0:0:
64,352,24367,2,0,P|44:308|48:256,1,89.9999972534181,2|0,0:0|0:0,0:0:0:0:
67,203,25076,1,2,0:0:0:0:
78,136,25312,1,0,0:0:0:0:
0,19,25548,2,0,P|0:55|54:74,1,89.9999972534181,2|2,0:0|0:0,0:0:0:0:
113,77,26257,1,0,0:0:0:0:
131,182,26493,6,0,P|137:222|123:280,1,89.9999972534181,2|2,0:0|0:0,0:0:0:0:
120,284,27438,1,2,0:0:0:0:
184,264,27674,1,2,0:0:0:0:
236,308,27911,1,0,0:0:0:0:
296,276,28147,2,0,P|300:248|296:220,1,44.999998626709,2|0,0:0|0:0,0:0:0:0:
296,348,28619,5,2,0:0:0:0:
316,356,28737,1,0,0:0:0:0:
336,360,28855,1,0,0:0:0:0:
232,376,29092,1,0,0:0:0:0:
236,308,29328,1,2,0:0:0:0:
364,296,29564,2,0,P|408:300|452:272,1,89.9999972534181,0|2,0:0|0:0,0:0:0:0:
476,176,30273,6,0,P|432:172|388:200,1,89.9999972534181,4|2,0:0|0:0,0:0:0:0:
393,193,31218,1,2,0:0:0:0:
328,216,31454,2,0,L|280:224,1,44.999998626709,0|0,0:0|0:0,0:0:0:0:
220,248,31926,2,0,P|176:260|116:252,1,89.9999972534181,2|0,0:0|0:0,0:0:0:0:
68,236,32635,1,0,0:0:0:0:
68,236,33107,1,0,0:0:0:0:
56,304,33344,2,0,P|20:288|4:268,1,44.999998626709,2|0,0:0|0:0,0:0:0:0:
48,168,33816,6,0,P|96:172|128:196,1,89.9999972534181,2|2,0:0|0:0,0:0:0:0:
152,352,34761,2,0,P|131:308|136:268,1,89.9999972534181,0|2,0:0|0:0,0:0:0:0:
256,164,35706,2,0,P|228:203|191:219,1,89.9999972534181,2|2,0:0|0:0,0:0:0:0:
256,236,36414,1,0,0:0:0:0:
256,236,36887,1,2,0:0:0:0:
244,304,37123,1,2,0:0:0:0:
236,324,37241,1,2,0:0:0:0:
224,340,37359,1,2,0:0:0:0:
308,284,37596,1,2,0:0:0:0:
188,260,37832,6,0,P|152:252|96:264,1,89.9999972534181,4|2,0:0|0:0,0:0:0:0:
88,272,38777,1,2,0:0:0:0:
88,272,39013,2,0,P|92:240|88:212,1,44.999998626709,0|2,0:0|0:0,0:0:0:0:
92,100,39485,1,2,0:0:0:0:
116,164,39722,2,0,P|160:172|216:164,1,89.9999972534181,2|0,0:0|0:0,0:0:0:0:
332,120,40666,1,0,0:0:0:0:
372,176,40903,2,0,P|392:152|400:136,1,44.999998626709,2|0,0:0|0:0,0:0:0:0:
304,184,41375,5,2,0:0:0:0:
292,320,41848,1,0,0:0:0:0:
156,308,42320,1,0,0:0:0:0:
168,172,42792,1,2,0:0:0:0:
328,256,43265,5,2,0:0:0:0:
224,344,43737,1,2,0:0:0:0:
136,239,44210,1,2,0:0:0:0:
240,151,44682,2,0,P|248:112|240:56,1,89.9999972534181,2|2,0:0|0:0,0:0:0:0:
176,188,45391,6,0,P|240:224|304:188,1,150,4|8,0:0|0:0,0:0:0:0:
348,112,46099,1,0,0:0:0:0:
408,180,46336,2,0,P|412:224|400:268,1,75,2|2,0:0|0:0,0:0:0:0:
492,280,46808,2,0,P|473:320|441:352,1,75,8|0,0:0|0:0,0:0:0:0:
292,328,47281,6,0,P|224:312|144:332,1,150,2|8,0:0|0:0,0:0:0:0:
68,376,47989,1,0,0:0:0:0:
72,252,48225,2,0,P|68:212|72:172,2,75,0|2|8,0:0|0:0|0:0,0:0:0:0:
72,252,49170,6,0,P|128:240|220:252,1,150,2|8,0:0|0:0,0:0:0:0:
292,304,49879,1,0,0:0:0:0:
308,216,50115,2,0,P|312:178|308:141,1,75,2|2,0:0|0:0,0:0:0:0:
396,124,50588,2,0,P|381:89|359:59,1,75,8|0,0:0|0:0,0:0:0:0:
200,28,51060,6,0,P|124:40|100:104,1,150,2|8,0:0|0:0,0:0:0:0:
196,172,51769,1,0,0:0:0:0:
196,172,51887,1,0,0:0:0:0:
196,172,52005,2,0,P|192:128|172:96,1,75,2|2,0:0|0:0,0:0:0:0:
132,224,52477,2,0,P|192:252|268:216,2,150,8|4|8,0:0|0:0|0:0,0:0:0:0:
68,160,53659,5,0,0:0:0:0:
8,228,53895,1,2,0:0:0:0:
72,292,54131,2,0,P|104:320|144:332,1,75,2|8,0:0|0:0,0:0:0:0:
224,324,54603,5,0,0:0:0:0:
224,324,54722,1,0,0:0:0:0:
224,324,54840,2,0,P|284:316|376:336,1,150,0|8,0:0|0:0,0:0:0:0:
384,344,55785,1,0,0:0:0:0:
368,256,56021,2,0,P|356:212|368:168,1,75,2|8,0:0|0:0,0:0:0:0:
488,216,56493,1,8,0:0:0:0:
368,256,56729,6,0,L|276:264,1,75,4|0,0:0|0:0,0:0:0:0:
180,364,57202,2,0,L|219:280,1,75,8|0,0:0|0:0,0:0:0:0:
176,144,57674,2,0,L|228:219,1,75,0|8,0:0|0:0,0:0:0:0:
276,336,58147,2,0,L|292:372,3,37.5,2|2|2|2,0:0|0:0|0:0|0:0,0:0:0:0:
324,340,58619,6,0,P|364:348|408:336,1,75,4|8,0:0|0:0,0:0:0:0:
424,212,59092,1,0,0:0:0:0:
476,328,59328,1,8,0:0:0:0:
476,328,59446,1,2,0:0:0:0:
476,328,59564,1,2,0:0:0:0:
368,268,59800,1,8,0:0:0:0:
496,248,60037,5,8,0:0:0:0:
504,220,60155,1,8,0:0:0:0:
500,192,60273,1,8,0:0:0:0:
488,164,60391,1,8,0:0:0:0:
468,144,60509,6,0,P|404:132|344:192,1,150,4|8,0:0|0:0,0:0:0:0:
368,268,61218,1,0,0:0:0:0:
304,332,61454,2,0,P|264:344|224:344,1,75,2|2,0:0|0:0,0:0:0:0:
204,260,61926,2,0,P|176:228|159:192,1,75,8|0,0:0|0:0,0:0:0:0:
232,140,62399,6,0,P|260:96|352:96,1,150,2|8,0:0|0:0,0:0:0:0:
332,232,63107,1,0,0:0:0:0:
332,232,63225,1,2,0:0:0:0:
332,232,63344,2,0,P|316:200|308:160,1,75,2|0,0:0|0:0,0:0:0:0:
412,260,63816,2,0,P|388:304|292:308,2,150,8|2|8,0:0|0:0|0:0,0:0:0:0:
400,172,64997,5,0,0:0:0:0:
464,112,65233,2,0,P|432:92|392:88,1,75,2|2,0:0|0:0,0:0:0:0:
320,136,65706,2,0,P|284:140|236:132,1,75,8|0,0:0|0:0,0:0:0:0:
204,120,66060,5,0,0:0:0:0:
204,120,66178,2,0,P|212:196|200:288,1,150,2|8,0:0|0:0,0:0:0:0:
124,312,66887,1,0,0:0:0:0:
128,224,67123,1,2,0:0:0:0:
128,224,67241,1,2,0:0:0:0:
128,224,67359,1,2,0:0:0:0:
200,356,67596,2,0,B|244:372|244:372|308:384|348:336,2,150,8|4|8,0:0|0:0|0:0,0:0:0:0:
124,312,68777,5,0,0:0:0:0:
52,260,69013,2,0,P|44:224|56:176,1,75,2|2,0:0|0:0,0:0:0:0:
128,140,69485,2,0,P|163:151|198:185,1,75,8|0,0:0|0:0,0:0:0:0:
208,204,69840,5,0,0:0:0:0:
208,204,69958,2,0,L|224:120,1,75,4|2,0:0|0:0,0:0:0:0:
304,32,70430,1,8,0:0:0:0:
176,36,70666,2,0,B|136:48|96:32|96:32|68:60|72:108,1,150,4|8,0:0|0:0,0:0:0:0:
132,160,71375,1,2,0:0:0:0:
64,268,71611,5,2,0:0:0:0:
56,296,71729,1,2,0:0:0:0:
60,324,71848,2,0,B|88:352|88:352|132:336|164:352|164:352|200:328,1,150,4|8,0:0|0:0,0:0:0:0:
276,152,72556,2,0,P|236:184|260:280,1,150,2|0,0:0|0:0,0:0:0:0:
372,332,73265,2,0,L|412:336,4,37.5,8|2|2|2|4,0:0|0:0|0:0|0:0|0:0,0:0:0:0:
372,332,74682,6,0,P|328:300|376:256,1,134.999995880127,2|0,0:0|0:0,0:0:0:0:
448,296,75627,1,4,0:0:0:0:
120,80,83186,5,4,0:0:0:0:
116,168,83422,2,0,P|112:208|120:248,1,75,0|8,0:0|0:0,0:0:0:0:
196,288,83895,2,0,P|232:271|263:244,1,75,0|0,0:0|0:0,0:0:0:0:
264,160,84367,2,0,P|231:136|192:123,1,75,2|8,0:0|0:0,0:0:0:0:
120,80,84840,1,0,0:0:0:0:
40,124,85076,6,0,P|32:184|44:276,1,150,2|8,0:0|0:0,0:0:0:0:
116,324,85785,1,0,0:0:0:0:
36,364,86021,1,2,0:0:0:0:
196,368,86257,2,0,P|236:372|280:368,1,75,2|8,0:0|0:0,0:0:0:0:
356,348,86729,1,0,0:0:0:0:
308,176,86966,6,0,B|288:216|292:288|292:288|312:268|336:268,1,150,2|8,0:0|0:0,0:0:0:0:
322,269,87911,1,0,0:0:0:0:
411,277,88147,1,2,0:0:0:0:
468,208,88383,2,0,P|476:168|468:128,1,75,8|0,0:0|0:0,0:0:0:0:
300,96,88855,6,0,P|304:144|396:168,1,150,2|8,0:0|0:0,0:0:0:0:
436,92,89564,2,0,L|464:48,2,37.5,2|2|2,0:0|0:0|0:0,0:0:0:0:
364,40,90037,2,0,L|366:-12,2,37.5,0|2|8,0:0|0:0|0:0,0:0:0:0:
276,16,90509,1,0,0:0:0:0:
236,156,90745,5,4,0:0:0:0:
156,116,90981,2,0,P|116:108|72:116,1,75,0|8,0:0|0:0,0:0:0:0:
76,204,91454,2,0,P|51:236|40:280,1,75,0|0,0:0|0:0,0:0:0:0:
116,320,91926,2,0,P|135:355|169:384,1,75,2|8,0:0|0:0,0:0:0:0:
244,340,92399,6,0,P|300:344|384:296,1,150,0|0,0:0|0:0,0:0:0:0:
372,212,93107,1,8,0:0:0:0:
344,128,93344,2,0,P|352:72|432:32,1,150,0|2,0:0|0:0,0:0:0:0:
428,120,94052,1,8,0:0:0:0:
260,124,94288,5,0,0:0:0:0:
260,124,94407,1,0,0:0:0:0:
260,124,94525,2,0,P|220:120|176:124,1,75,0|0,0:0|0:0,0:0:0:0:
52,188,94997,2,0,P|92:184|136:188,1,75,8|0,0:0|0:0,0:0:0:0:
268,204,95470,1,0,0:0:0:0:
220,280,95706,1,2,0:0:0:0:
132,268,95942,1,8,0:0:0:0:
308,284,96178,6,0,L|352:296,2,37.5,0|0|2,0:0|0:0|0:0,0:0:0:0:
184,200,96651,1,8,0:0:0:0:
168,344,96887,1,8,0:0:0:0:
268,204,97123,1,8,0:0:0:0:
268,204,97241,1,2,0:0:0:0:
268,204,97359,2,0,P|288:164|288:132,1,75,0|8,0:0|0:0,0:0:0:0:
160,120,97832,1,8,0:0:0:0:
192,244,98068,5,8,0:0:0:0:
192,244,98186,1,8,0:0:0:0:
192,244,98304,2,0,P|240:284|336:252,1,150,4|8,0:0|0:0,0:0:0:0:
492,204,99249,1,0,0:0:0:0:
412,164,99485,2,0,P|404:208|420:248,1,75,2|8,0:0|0:0,0:0:0:0:
484,292,99958,1,0,0:0:0:0:
484,116,100194,6,0,P|424:80|340:112,1,150,2|8,0:0|0:0,0:0:0:0:
220,224,101139,1,0,0:0:0:0:
148,280,101375,2,0,P|128:236|132:200,1,75,0|8,0:0|0:0,0:0:0:0:
235,312,101848,6,0,P|216:343|184:363,1,75,0|4,0:0|0:0,0:0:0:0:
220,223,102320,2,0,P|257:224|289:242,1,75,0|8,0:0|0:0,0:0:0:0:
472,216,102792,2,0,P|404:220|336:156,1,150,0|2,0:0|0:0,0:0:0:0:
424,128,103501,1,8,0:0:0:0:
464,304,103737,1,0,0:0:0:0:
464,304,103855,1,0,0:0:0:0:
464,304,103974,1,2,0:0:0:0:
304,244,104210,6,0,P|268:240|224:248,1,75,0|8,0:0|0:0,0:0:0:0:
216,252,104918,1,0,0:0:0:0:
204,164,105155,2,0,P|200:120|208:76,1,75,2|8,0:0|0:0,0:0:0:0:
301,34,105627,1,0,0:0:0:0:
216,252,105863,6,0,P|152:256|60:252,1,150,4|8,0:0|0:0,0:0:0:0:
48,244,106808,1,0,0:0:0:0:
80,160,107044,2,0,P|84:120|80:80,1,75,2|8,0:0|0:0,0:0:0:0:
8,324,107517,6,0,B|16:360|16:360|68:384|136:364,1,150,2|0,0:0|0:0,0:0:0:0:
204,320,108225,1,8,0:0:0:0:
204,320,108698,1,0,0:0:0:0:
196,232,108934,2,0,P|192:188|196:156,1,75,2|8,0:0|0:0,0:0:0:0:
160,76,109407,6,0,P|204:72|236:76,1,75,0|2,0:0|0:0,0:0:0:0:
316,40,109879,2,0,P|320:84|316:116,1,75,0|8,0:0|0:0,0:0:0:0:
352,196,110351,2,0,P|308:200|276:196,1,75,0|2,0:0|0:0,0:0:0:0:
432,140,110824,2,0,P|484:180|428:236,1,150,8|8,0:0|0:0,0:0:0:0:
442,236,111769,5,0,1:0:0:0:
372,292,112005,1,0,1:0:0:0:
376,380,112241,1,0,1:0:0:0:
240,308,112477,1,8,0:0:0:0:
100,372,112714,1,8,0:0:0:0:
12,248,112950,2,0,L|0:208,3,37.5,8|8|8|8,0:0|0:0|0:0|0:0,0:0:0:0:
32,216,113422,6,0,P|28:144|80:72,1,150,4|8,0:0|0:0,0:0:0:0:
156,52,114131,1,0,0:0:0:0:
240,88,114367,2,0,P|284:96|324:88,1,75,2|2,0:0|0:0,0:0:0:0:
320,180,114840,2,0,P|362:164|392:138,1,75,8|0,0:0|0:0,0:0:0:0:
456,200,115312,6,0,P|480:148|428:68,1,150,2|8,0:0|0:0,0:0:0:0:
320,180,116021,1,0,0:0:0:0:
320,180,116139,1,0,0:0:0:0:
320,180,116257,2,0,P|362:164|392:138,1,75,2|2,0:0|0:0,0:0:0:0:
240,132,116729,2,0,B|208:184|240:240|240:240|236:288,2,150,8|2|8,0:0|0:0|0:0,0:0:0:0:
320,92,117911,5,0,0:0:0:0:
168,88,118147,2,0,P|124:84|88:64,1,75,2|2,0:0|0:0,0:0:0:0:
68,156,118619,2,0,P|112:160|148:180,1,75,8|0,0:0|0:0,0:0:0:0:
88,372,119092,6,0,P|60:320|84:236,1,150,2|8,0:0|0:0,0:0:0:0:
232,296,119800,1,0,0:0:0:0:
232,296,119918,1,0,0:0:0:0:
232,296,120037,2,0,B|204:296|204:296|176:308|176:308|144:308,1,75,0|2,0:0|0:0,0:0:0:0:
308,348,120509,2,0,B|368:348|368:348|408:360|408:360|468:360,2,150,8|4|8,0:0|0:0|0:0,0:0:0:0:
232,296,121690,5,0,0:0:0:0:
284,220,121926,1,2,0:0:0:0:
356,272,122162,2,0,P|372:236|368:192,1,75,0|8,0:0|0:0,0:0:0:0:
293,75,122635,5,2,0:0:0:0:
293,75,122753,1,2,0:0:0:0:
293,75,122871,2,0,P|272:146|284:220,1,150,2|8,0:0|0:0,0:0:0:0:
292,228,123816,1,2,0:0:0:0:
204,220,124052,2,0,P|168:216|120:224,1,75,2|8,0:0|0:0,0:0:0:0:
44,252,124525,1,8,0:0:0:0:
52,116,124761,6,0,P|37:80|40:36,1,75,4|0,0:0|0:0,0:0:0:0:
176,112,125233,2,0,P|180:74|205:36,1,75,8|0,0:0|0:0,0:0:0:0:
268,176,125706,2,0,P|291:145|331:125,1,75,2|8,0:0|0:0,0:0:0:0:
316,276,126178,2,0,P|351:261|396:264,1,75,2|2,0:0|0:0,0:0:0:0:
416,276,126533,5,2,0:0:0:0:
416,276,126651,1,2,0:0:0:0:
288,360,126887,1,8,0:0:0:0:
280,208,127123,1,8,0:0:0:0:
376,352,127359,5,8,0:0:0:0:
376,352,127477,1,2,0:0:0:0:
376,352,127596,1,2,0:0:0:0:
244,284,127832,1,8,0:0:0:0:
244,284,127950,1,8,0:0:0:0:
244,284,128068,2,0,L|204:292,3,37.5,8|8|8|8,0:0|0:0|0:0|0:0,0:0:0:0:
188,312,128540,6,0,P|156:236|168:164,1,150,4|8,0:0|0:0,0:0:0:0:
220,100,129249,1,0,0:0:0:0:
156,36,129485,2,0,P|120:32|80:40,1,75,2|2,0:0|0:0,0:0:0:0:
116,124,129958,2,0,P|82:138|52:165,1,75,8|0,0:0|0:0,0:0:0:0:
128,212,130430,6,0,B|96:272|128:328|128:328|164:332,1,150,2|8,0:0|0:0,0:0:0:0:
276,268,131139,1,0,0:0:0:0:
276,268,131257,1,0,0:0:0:0:
276,268,131375,2,0,P|240:260|196:264,1,75,2|2,0:0|0:0,0:0:0:0:
304,348,131848,2,0,P|348:312|344:220,2,150,8|2|8,0:0|0:0|0:0,0:0:0:0:
276,268,133029,5,0,0:0:0:0:
272,180,133265,2,0,P|304:152|344:144,1,75,2|2,0:0|0:0,0:0:0:0:
424,156,133737,2,0,P|459:179|477:216,1,75,8|0,0:0|0:0,0:0:0:0:
480,236,134092,5,2,0:0:0:0:
480,236,134210,2,0,P|504:156|492:84,1,150,2|8,0:0|0:0,0:0:0:0:
444,20,134918,1,0,0:0:0:0:
380,84,135155,2,0,L|388:132,2,37.5,2|2|2,0:0|0:0|0:0,0:0:0:0:
308,28,135627,2,0,P|236:12|164:40,2,150,8|4|8,0:0|0:0|0:0,0:0:0:0:
300,120,136808,5,0,0:0:0:0:
276,208,137044,2,0,P|272:248|280:288,1,75,2|2,0:0|0:0,0:0:0:0:
356,324,137517,2,0,P|392:307|423:280,1,75,8|2,0:0|0:0,0:0:0:0:
436,260,137871,5,2,0:0:0:0:
436,260,137989,1,4,0:0:0:0:
352,232,138225,1,2,0:0:0:0:
472,340,138462,1,8,0:0:0:0:
508,200,138698,1,4,0:0:0:0:
508,200,139170,5,8,0:0:0:0:
352,232,139407,1,8,0:0:0:0:
416,172,139643,1,2,0:0:0:0:
416,144,139761,1,2,0:0:0:0:
408,116,139879,2,0,P|376:76|288:96,1,150,4|8,0:0|0:0,0:0:0:0:
232,248,140588,1,2,0:0:0:0:
232,248,140706,1,2,0:0:0:0:
232,248,140824,2,0,P|256:208|260:164,1,75,8|0,0:0|0:0,0:0:0:0:
176,44,141296,5,8,0:0:0:0:
177,62,141414,1,0,0:0:0:0:
182,80,141533,1,2,0:0:0:0:
191,96,141651,1,2,0:0:0:0:
204,110,141769,1,4,0:0:0:0:
260,48,142005,1,8,0:0:0:0:
104,92,142241,1,8,0:0:0:0:
220,188,142477,5,8,0:0:0:0:
220,188,142596,1,8,0:0:0:0:
220,188,142714,2,0,L|232:240,3,37.5,2|2|2|2,0:0|0:0|0:0|0:0,0:0:0:0:
252,204,143186,2,0,L|288:243,3,37.5,2|2|2|2,0:0|0:0|0:0|0:0,0:0:0:0:
288,204,143659,6,0,P|328:184|364:184,1,75,4|0,0:0|0:0,0:0:0:0:
428,224,144131,1,8,0:0:0:0:
420,308,144367,2,0,P|492:284|508:212,1,150,0|2,0:0|0:0,0:0:0:0:
464,148,145076,1,8,0:0:0:0:
312,168,145312,6,0,B|272:176|240:160|240:160|204:144|152:156,1,150,0|0,0:0|0:0,0:0:0:0:
100,208,146021,1,8,0:0:0:0:
44,268,146257,2,0,P|96:292|160:264,1,112.5,2|0,0:0|0:0,0:0:0:0:
146,276,146729,2,0,L|184:352,1,75,0|8,0:0|0:0,0:0:0:0:
232,232,147202,2,0,L|302:278,1,75,0|0,0:0|0:0,0:0:0:0:
324,284,147556,5,2,0:0:0:0:
324,284,147674,1,2,0:0:0:0:
372,216,147911,1,8,0:0:0:0:
324,148,148147,2,0,P|284:88|332:32,1,150,0|0,0:0|0:0,0:0:0:0:
384,92,148855,1,8,0:0:0:0:
252,188,149092,6,0,P|184:196|104:184,1,150,0|0,0:0|0:0,0:0:0:0:
64,112,149800,1,8,0:0:0:0:
148,108,150037,1,2,0:0:0:0:
148,108,150155,1,2,0:0:0:0:
148,108,150273,1,2,0:0:0:0:
20,184,150509,1,0,0:0:0:0:
148,256,150745,2,0,L|168:288,3,37.5,8|8|8|8,0:0|0:0|0:0|0:0,0:0:0:0:
184,312,151218,5,4,0:0:0:0:
256,352,151454,1,0,0:0:0:0:
399,297,151690,2,0,P|364:300|320:320,1,75,8|0,0:0|0:0,0:0:0:0:
324,184,152162,2,0,P|294:203|266:243,1,75,8|2,0:0|0:0,0:0:0:0:
188,132,152635,2,0,P|172:163|167:211,1,75,8|0,0:0|0:0,0:0:0:0:
56,132,153107,2,0,P|58:167|78:211,1,75,8|2,0:0|0:0,0:0:0:0:
84,352,153580,5,8,0:0:0:0:
116,276,153816,1,0,0:0:0:0:
8,320,154052,2,0,L|-4:280,3,37.5,8|8|8|8,0:0|0:0|0:0|0:0,0:0:0:0:
4,244,154525,2,0,L|13:203,3,37.5,8|8|8|8,0:0|0:0|0:0|0:0,0:0:0:0:
4,244,155470,5,12,0:0:0:0:
4,244,155942,1,12,0:0:0:0:
133,211,156178,1,4,0:0:0:0:
57,180,156414,1,8,0:0:0:0:
127,294,156651,1,12,0:0:0:0:
256,192,156887,12,2,158777,0:0:0:0:
116,88,172005,5,4,0:0:0:0:
92,168,172241,1,8,0:0:0:0:
92,168,172359,1,8,0:0:0:0:
92,168,172477,1,8,0:0:0:0:
196,100,172714,2,0,P|192:56|164:24,1,75,8|0,0:0|0:0,0:0:0:0:
36,104,173186,1,2,0:0:0:0:
16,128,173304,1,2,0:0:0:0:
8,156,173422,2,0,P|8:188|16:208,3,37.5,8|8|8|8,0:0|0:0|0:0|0:0,0:0:0:0:
20,220,173895,6,0,P|36:264|16:376,1,150,4|8,0:0|0:0,0:0:0:0:
88,312,174603,1,0,0:0:0:0:
164,276,174840,2,0,P|204:264|244:272,1,75,2|2,0:0|0:0,0:0:0:0:
316,296,175312,2,0,P|352:300|388:288,1,75,8|0,0:0|0:0,0:0:0:0:
404,116,175785,6,0,P|352:132|364:236,1,150,2|8,0:0|0:0,0:0:0:0:
472,244,176493,1,0,0:0:0:0:
472,244,176611,1,0,0:0:0:0:
472,244,176729,2,0,P|448:208|416:192,1,75,2|2,0:0|0:0,0:0:0:0:
264,168,177202,2,0,P|200:176|136:112,2,150,8|2|8,0:0|0:0|0:0,0:0:0:0:
220,96,178383,5,0,0:0:0:0:
160,40,178619,2,0,P|116:40|84:56,1,75,2|2,0:0|0:0,0:0:0:0:
60,132,179092,2,0,P|41:171|42:207,1,75,8|2,0:0|0:0,0:0:0:0:
44,232,179446,5,2,0:0:0:0:
44,232,179564,2,0,B|64:276|52:328|52:328|-4:356,1,150,4|8,0:0|0:0,0:0:0:0:
152,328,180273,1,12,0:0:0:0:
152,328,180745,2,0,P|192:332|236:328,1,75,12|8,0:0|0:0,0:0:0:0:
384,304,181218,6,0,P|464:340|380:364,1,225,4|8,0:0|0:0,0:0:0:0:
300,328,182162,1,0,0:0:0:0:
320,240,182399,2,0,P|324:200|312:156,1,75,2|2,0:0|0:0,0:0:0:0:
236,124,182871,2,0,P|196:144|167:172,1,75,8|2,0:0|0:0,0:0:0:0:
156,188,183225,5,2,0:0:0:0:
156,188,183344,1,4,0:0:0:0:
148,316,183580,1,2,0:0:0:0:
20,308,183816,1,8,0:0:0:0:
28,180,184052,1,4,0:0:0:0:
28,180,184525,1,8,0:0:0:0:
4,92,184761,1,8,0:0:0:0:
108,140,184997,5,8,0:0:0:0:
108,140,185115,1,8,0:0:0:0:
108,140,185233,2,0,P|156:132|236:188,1,150,4|8,0:0|0:0,0:0:0:0:
244,276,185942,1,0,0:0:0:0:
116,240,186178,1,2,0:0:0:0:
144,236,186296,1,8,0:0:0:0:
172,240,186414,1,8,0:0:0:0:
304,344,186651,2,0,P|268:360|220:360,1,75,8|0,0:0|0:0,0:0:0:0:
172,240,187123,1,4,0:0:0:0:
172,240,188068,6,0,B|204:232|236:256|236:256|248:216|284:208,1,134.999995880127,2|0,0:0|0:0,0:0:0:0:
368,224,189013,1,4,0:0:0:0:
