osu file format v13

[General]
AudioFilename: mp3.mp3
AudioLeadIn: 0
PreviewTime: 168863
Countdown: 0
SampleSet: Soft
StackLeniency: 0.7
Mode: 0
LetterboxInBreaks: 0
WidescreenStoryboard: 0

[Editor]
Bookmarks: 119423
DistanceSpacing: 1.6
BeatDivisor: 4
GridSize: 4
TimelineZoom: 1.4

[Metadata]
Title:Xiao Ping Guo
TitleUnicode:小苹果
Artist:Chopsticks Bro.
ArtistUnicode:筷子兄弟
Creator:ZZHBOY
Version:Insane
Source:Old Boys: The Way of the Dragon
Tags:Regraz little apple single Kuai Zi Xiong Di 老男孩之猛龙过江
BeatmapID:459739
BeatmapSetID:193501

[Difficulty]
HPDrainRate:6
CircleSize:4
OverallDifficulty:6
ApproachRate:8
SliderMultiplier:1.8
SliderTickRate:1

[Events]
//Background and Video events
0,0,"bg.jpg",0,0
//Break Periods
2,78823,93233
//Storyboard Layer 0 (Background)
//Storyboard Layer 1 (Fail)
//Storyboard Layer 2 (Pass)
//Storyboard Layer 3 (Foreground)
//Storyboard Sound Samples
//Background Colour Transformations
3,100,163,162,255

[TimingPoints]
1823.53865187529,480,4,2,1,40,1,0
35903,-66.6666666666667,4,2,1,40,0,0
36143,-100,4,2,1,40,0,0
39743,-66.6666666666667,4,2,1,40,0,0
39983,-100,4,2,1,40,0,0
43583,-66.6666666666667,4,2,1,40,0,0
43823,-100,4,2,1,40,0,0
45983,-66.6666666666667,4,2,1,40,0,0
46343,-66.6666666666667,4,2,1,10,0,0
46463,-83.3333333333333,4,2,1,50,0,0
46943,-66.6666666666667,4,2,1,50,0,0
47423,-83.3333333333333,4,2,1,50,0,0
47903,-83.3333333333333,4,2,1,60,0,1
78623,-100,4,2,1,50,0,0
112703,-66.6666666666667,4,2,1,50,0,0
112943,-100,4,2,1,50,0,0
116543,-66.6666666666667,4,2,1,50,0,0
116783,-100,4,2,1,50,0,0
120383,-66.6666666666667,4,2,1,50,0,0
120623,-100,4,2,1,50,0,0
122783,-66.6666666666667,4,2,1,50,0,0
123143,-66.6666666666667,4,2,1,5,0,0
123263,-83.3333333333333,4,2,1,60,0,0
123743,-66.6666666666667,4,2,1,60,0,0
124103,-66.6666666666667,4,2,1,5,0,0
124223,-83.3333333333333,4,2,1,60,0,0
124703,-83.3333333333333,4,2,1,60,0,1
155423,-83.3333333333333,4,2,1,60,0,0
155423,-83.3333333333333,4,2,1,60,0,0
170783,-83.3333333333333,4,2,1,60,0,1
201503,-83.3333333333333,4,2,1,60,0,0

[Colours]
Combo1 : 207,207,207
Combo2 : 249,115,96
Combo3 : 3,221,233
Combo4 : 255,255,128

[HitObjects]
155,155,1823,6,0,P|198:170|243:167,1,90,2|0,0:0|0:0,0:0:0:0:
124,84,2303,1,8,0:0:0:0:
133,233,2543,2,0,L|128:277,1,45,0|0,0:0|0:0,0:0:0:0:
344,296,3023,2,0,L|340:206,1,90,0|8,0:0|0:0,0:0:0:0:
419,223,3503,1,0,0:0:0:0:
256,212,3743,5,2,0:0:0:0:
208,144,3983,1,0,0:0:0:0:
420,48,4223,1,8,0:0:0:0:
420,48,4463,2,0,L|241:72,1,180,0|0,0:0|0:0,0:0:0:0:
212,280,5183,1,8,0:0:0:0:
48,48,5663,6,0,L|64:136,1,90,2|0,0:0|0:0,0:0:0:0:
72,312,6143,1,8,0:0:0:0:
52,148,6383,2,0,L|60:192,1,45,0|0,0:0|0:0,0:0:0:0:
256,96,6863,1,0,0:0:0:0:
368,168,7103,1,8,0:0:0:0:
252,228,7343,1,0,0:0:0:0:
424,104,7583,6,0,P|449:140|451:184,1,90,2|0,0:0|0:0,0:0:0:0:
340,88,8063,1,8,0:0:0:0:
106,28,8303,2,0,B|130:80|189:101|189:101|256:95,1,180,0|0,0:0|0:0,0:0:0:0:
136,168,9023,2,0,B|127:212|127:212|132:256,1,90,8|0,0:0|0:0,0:0:0:0:
376,252,9503,6,0,B|384:207|384:207|379:163,1,90,2|0,0:0|0:0,0:0:0:0:
376,136,9863,1,0,0:0:0:0:
372,108,9983,2,0,P|316:88|276:88,1,90,8|0,0:0|0:0,0:0:0:0:
204,216,10463,1,0,0:0:0:0:
104,96,10703,1,0,0:0:0:0:
236,288,10943,1,8,0:0:0:0:
136,168,11183,1,0,0:0:0:0:
284,344,11423,6,0,L|376:344,1,90,2|0,0:0|0:0,0:0:0:0:
280,224,11903,1,8,0:0:0:0:
427,280,12143,2,0,P|448:194|407:116,1,180,0|0,0:0|0:0,0:0:0:0:
242,91,12863,2,0,L|332:84,1,90,8|0,0:0|0:0,0:0:0:0:
175,136,13343,6,0,P|167:179|180:221,1,90,2|0,0:0|0:0,0:0:0:0:
172,56,13823,1,8,0:0:0:0:
53,299,14063,1,0,0:0:0:0:
53,299,14183,2,0,B|106:317|106:317|153:321|183:307,1,135,0|0,0:0|0:0,0:0:0:0:
53,149,14783,1,8,0:0:0:0:
32,224,15023,1,0,0:0:0:0:
257,263,15263,5,2,0:0:0:0:
240,109,15503,1,0,0:0:0:0:
260,184,15743,1,8,0:0:0:0:
198,45,15983,2,0,B|238:25|281:35|304:70|304:70|335:79|378:75,1,180,0|0,0:0|0:0,0:0:0:0:
363,75,16703,2,0,L|361:165,1,90,8|0,0:0|0:0,0:0:0:0:
166,287,17183,6,0,L|168:197,1,90,2|0,0:0|0:0,0:0:0:0:
203,123,17663,1,8,0:0:0:0:
88,272,17903,1,0,0:0:0:0:
249,188,18143,1,0,0:0:0:0:
121,125,18383,1,0,0:0:0:0:
241,266,18623,1,8,0:0:0:0:
160,57,18863,1,0,0:0:0:0:
310,234,19103,6,0,P|356:228|401:193,1,90,2|0,0:0|0:0,0:0:0:0:
97,198,19583,1,8,0:0:0:0:
88,272,19823,1,0,0:0:0:0:
220,99,20063,1,0,0:0:0:0:
160,56,20303,1,0,0:0:0:0:
240,266,20543,1,8,0:0:0:0:
310,234,20783,1,0,0:0:0:0:
97,198,21023,6,0,L|8:208,1,90,2|0,0:0|0:0,0:0:0:0:
172,223,21503,2,0,P|174:179|151:142,1,90,8|0,0:0|0:0,0:0:0:0:
112,276,21983,1,0,0:0:0:0:
140,348,22223,1,0,0:0:0:0:
310,234,22463,1,8,0:0:0:0:
310,158,22703,1,0,0:0:0:0:
487,191,22943,6,0,L|472:280,1,90,2|0,0:0|0:0,0:0:0:0:
408,36,23423,2,0,L|408:126,1,90,8|0,0:0|0:0,0:0:0:0:
168,92,23903,2,0,L|257:100,1,90,0|0,0:0|0:0,0:0:0:0:
36,200,24383,2,0,L|125:189,1,90,8|0,0:0|0:0,0:0:0:0:
288,256,24863,6,0,L|199:267,1,90,2|0,0:0|0:0,0:0:0:0:
168,92,25343,1,8,0:0:0:0:
232,144,25583,1,0,0:0:0:0:
388,112,25823,2,0,L|365:24,1,90,0|0,0:0|0:0,0:0:0:0:
332,172,26303,2,0,P|384:196|436:176,1,90,8|0,0:0|0:0,0:0:0:0:
168,92,26783,6,0,L|136:176,1,90,2|0,0:0|0:0,0:0:0:0:
172,324,27263,1,8,0:0:0:0:
180,244,27503,1,0,0:0:0:0:
464,188,27743,2,0,L|380:220,1,90,0|0,0:0|0:0,0:0:0:0:
232,184,28223,1,8,0:0:0:0:
312,176,28463,1,0,0:0:0:0:
299,331,28703,6,0,B|279:292|279:292|279:248,1,90,2|0,0:0|0:0,0:0:0:0:
368,84,29183,2,0,B|388:123|388:123|388:167,1,90,8|0,0:0|0:0,0:0:0:0:
264,84,29663,1,0,0:0:0:0:
264,84,29903,1,0,0:0:0:0:
360,240,30143,1,8,0:0:0:0:
360,240,30383,1,0,0:0:0:0:
183,187,30623,6,0,P|141:175|110:143,1,90,2|0,0:0|0:0,0:0:0:0:
251,264,31103,2,0,P|239:306|207:337,1,90,8|0,0:0|0:0,0:0:0:0:
328,196,31583,2,0,P|370:208|401:240,1,90,2|0,0:0|0:0,0:0:0:0:
260,119,32063,2,0,P|272:77|304:46,1,90,8|0,0:0|0:0,0:0:0:0:
252,264,32543,5,2,0:0:0:0:
328,196,32783,1,0,0:0:0:0:
183,188,33023,2,0,P|156:223|147:267,1,90,8|0,0:0|0:0,0:0:0:0:
328,196,33503,2,0,P|355:231|364:275,1,90,0|0,0:0|0:0,0:0:0:0:
258,143,33983,2,0,L|261:53,1,90,8|0,0:0|0:0,0:0:0:0:
252,236,34463,6,0,L|248:325,1,90,2|0,0:0|0:0,0:0:0:0:
344,105,34943,2,0,P|316:69|275:53,1,90,8|0,0:0|0:0,0:0:0:0:
248,54,35303,1,0,0:0:0:0:
222,61,35423,2,0,P|177:66|132:56,1,90,0|0,0:0|0:0,0:0:0:0:
134,57,35903,6,0,B|140:113|140:113|134:142|134:142|138:191,1,135.000005149842,8|0,0:0|0:0,0:0:0:0:
162,268,36383,6,0,P|203:288|250:278,1,90,2|0,0:0|0:0,0:0:0:0:
91,247,36863,1,8,0:0:0:0:
213,211,37103,1,0,0:0:0:0:
238,46,37343,2,0,L|256:135,1,90,0|0,0:0|0:0,0:0:0:0:
376,32,37823,1,8,0:0:0:0:
316,204,38063,1,0,0:0:0:0:
168,291,38303,5,2,0:0:0:0:
188,93,38543,1,0,0:0:0:0:
316,204,38783,2,0,P|314:250|274:290,2,90,8|0|0,0:0|0:0|0:0,0:0:0:0:
188,92,39503,1,0,0:0:0:0:
240,224,39743,6,0,L|366:269,1,135.000005149842,8|0,0:0|0:0,0:0:0:0:
171,179,40223,6,0,P|153:220|160:264,1,90,2|0,0:0|0:0,0:0:0:0:
288,120,40703,1,8,0:0:0:0:
220,307,40943,1,0,0:0:0:0:
119,124,41183,2,0,L|30:140,2,90,0|0|8,0:0|0:0|0:0,0:0:0:0:
220,307,41903,1,0,0:0:0:0:
267,102,42143,6,0,L|266:191,1,90,2|0,0:0|0:0,0:0:0:0:
434,238,42623,2,0,L|434:148,1,90,8|0,0:0|0:0,0:0:0:0:
433,120,42983,1,0,0:0:0:0:
422,95,43103,2,0,P|369:68|324:72,1,90,0|0,0:0|0:0,0:0:0:0:
267,102,43583,6,0,L|265:236,1,135.000005149842,8|0,0:0|0:0,0:0:0:0:
215,301,44063,6,0,P|172:311|129:300,1,90,2|0,0:0|0:0,0:0:0:0:
77,238,44543,1,8,0:0:0:0:
96,159,44783,1,0,0:0:0:0:
297,92,45023,2,0,P|307:135|296:178,1,90,2|0,0:0|0:0,0:0:0:0:
233,230,45503,1,8,0:0:0:0:
152,216,45743,1,0,0:0:0:0:
297,92,45983,6,0,B|344:96|396:56|396:56|396:112|448:148,1,202.500007724762,2|0,0:0|2:0,0:0:0:0:
468,164,46463,2,0,L|466:290,1,107.999996704102,8|0,0:0|0:0,0:0:0:0:
356,300,46943,2,0,B|320:248|253:256|253:256|236:204|263:169,1,202.500007724762,2|0,0:0|0:0,0:0:0:0:
292,144,47423,2,0,L|184:140,1,107.999996704102,8|0,0:0|0:0,0:0:0:0:
121,276,47903,6,0,P|93:231|94:177,1,107.999996704102,2|0,0:0|0:0,0:0:0:0:
86,91,48383,1,8,0:0:0:0:
175,207,48623,1,0,0:0:0:0:
268,118,48863,2,0,L|161:125,1,107.999996704102,2|0,0:0|0:0,0:0:0:0:
327,167,49343,1,8,0:0:0:0:
86,91,49583,1,0,0:0:0:0:
86,91,49703,1,0,0:0:0:0:
85,91,49823,6,0,P|83:147|109:189,1,107.999996704102,2|0,0:0|0:0,0:0:0:0:
126,18,50303,2,0,L|12:17,1,107.999996704102,8|0,0:0|0:0,0:0:0:0:
165,87,50783,2,0,L|272:87,1,107.999996704102,2|0,0:0|0:0,0:0:0:0:
320,95,51143,1,0,0:0:0:0:
361,123,51263,2,0,P|384:187|368:240,1,107.999996704102,8|0,0:0|0:0,0:0:0:0:
249,299,51743,6,0,P|227:250|233:197,1,107.999996704102,2|0,0:0|0:0,0:0:0:0:
260,156,52103,1,0,0:0:0:0:
304,140,52223,1,8,0:0:0:0:
166,301,52463,1,0,0:0:0:0:
166,301,52583,1,0,0:0:0:0:
166,301,52703,2,0,L|59:306,2,107.999996704102,2|0|8,0:0|0:0|0:0,0:0:0:0:
17,241,53423,1,0,0:0:0:0:
221,227,53663,6,0,P|215:173|185:129,1,107.999996704102,2|0,0:0|0:0,0:0:0:0:
252,304,54143,2,0,P|301:325|353:311,1,107.999996704102,8|0,0:0|0:0,0:0:0:0:
380,284,54503,1,0,0:0:0:0:
388,244,54623,2,0,L|388:132,1,107.999996704102,2|0,0:0|0:0,0:0:0:0:
388,136,54983,1,0,0:0:0:0:
388,136,55103,1,8,0:0:0:0:
292,68,55343,1,0,0:0:0:0:
292,68,55463,1,0,0:0:0:0:
292,68,55583,6,0,L|184:60,1,107.999996704102,2|0,0:0|0:0,0:0:0:0:
160,80,55943,1,0,0:0:0:0:
132,100,56063,1,8,0:0:0:0:
76,200,56303,1,0,0:0:0:0:
80,232,56423,1,0,0:0:0:0:
84,264,56543,2,0,L|175:320,1,107.999996704102,2|0,0:0|0:0,0:0:0:0:
260,332,56903,1,0,0:0:0:0:
260,332,57023,2,0,P|336:304|368:264,1,107.999996704102,8|0,0:0|0:0,0:0:0:0:
368,208,57383,1,0,0:0:0:0:
368,208,57503,6,0,L|484:224,1,107.999996704102,2|0,0:0|0:0,0:0:0:0:
287,223,57983,2,0,P|295:171|333:133,1,107.999996704102,8|0,0:0|0:0,0:0:0:0:
333,133,58343,1,0,0:0:0:0:
333,133,58463,2,0,L|212:115,2,107.999996704102,2|0|8,0:0|0:0|0:0,0:0:0:0:
148,61,59183,1,0,0:0:0:0:
148,61,59303,1,0,0:0:0:0:
148,61,59423,6,0,P|131:116|144:168,1,107.999996704102,2|0,0:0|0:0,0:0:0:0:
195,325,59903,2,0,P|211:274|201:221,1,107.999996704102,8|0,0:0|0:0,0:0:0:0:
125,240,60383,1,2,0:0:0:0:
217,139,60623,1,0,0:0:0:0:
125,240,60863,1,8,0:0:0:0:
198,51,61103,1,0,0:0:0:0:
198,51,61223,1,0,0:0:0:0:
198,51,61343,6,0,L|383:53,1,161.999995056153,2|0,0:0|0:0,0:0:0:0:
433,97,61823,2,0,L|438:151,1,53.9999983520508,8|0,0:0|0:0,0:0:0:0:
351,154,62063,2,0,L|356:208,1,53.9999983520508,0|0,0:0|0:0,0:0:0:0:
269,208,62303,2,0,L|274:262,1,53.9999983520508,2|0,0:0|0:0,0:0:0:0:
187,265,62543,2,0,L|192:319,1,53.9999983520508,0|0,0:0|0:0,0:0:0:0:
192,319,62783,2,0,P|115:339|44:304,1,161.999995056153,8|0,0:0|0:0,0:0:0:0:
11,224,63263,6,0,L|34:106,1,107.999996704102,2|0,0:0|0:0,0:0:0:0:
49,72,63623,1,0,0:0:0:0:
89,44,63743,2,0,P|151:44|201:78,1,107.999996704102,8|0,0:0|0:0,0:0:0:0:
256,136,64223,2,0,L|263:243,1,107.999996704102,2|0,0:0|0:0,0:0:0:0:
296,279,64583,1,0,0:0:0:0:
336,306,64703,2,0,P|389:304|435:277,1,107.999996704102,8|0,0:0|0:0,0:0:0:0:
256,136,65183,6,0,L|149:154,1,107.999996704102,2|0,0:0|0:0,0:0:0:0:
296,58,65663,2,0,P|332:98|339:151,1,107.999996704102,8|0,0:0|0:0,0:0:0:0:
220,64,66143,1,2,0:0:0:0:
220,64,66263,1,0,0:0:0:0:
220,64,66383,1,0,0:0:0:0:
220,64,66503,1,0,0:0:0:0:
220,64,66623,2,0,L|166:64,1,53.9999983520508,8|0,0:0|0:0,0:0:0:0:
160,144,66863,2,0,L|100:160,1,53.9999983520508,0|0,0:0|0:0,0:0:0:0:
140,232,67103,6,0,L|132:339,1,107.999996704102,2|0,0:0|0:0,0:0:0:0:
216,204,67583,2,0,L|323:215,1,107.999996704102,8|0,0:0|0:0,0:0:0:0:
372,204,67943,1,0,0:0:0:0:
415,180,68063,2,0,P|431:129|419:77,1,107.999996704102,2|0,0:0|0:0,0:0:0:0:
272,128,68543,1,8,0:0:0:0:
256,284,68783,1,0,0:0:0:0:
256,284,68903,1,0,0:0:0:0:
256,284,69023,6,0,P|308:295|361:288,1,107.999996704102,2|0,0:0|0:0,0:0:0:0:
216,204,69503,2,0,P|172:248|168:304,1,107.999996704102,8|0,0:0|0:0,0:0:0:0:
272,128,69983,2,0,P|256:72|208:40,1,107.999996704102,2|0,0:0|0:0,0:0:0:0:
168,48,70343,1,0,0:0:0:0:
120,64,70463,2,0,L|80:176,1,107.999996704102,8|0,0:0|0:0,0:0:0:0:
60,312,70943,5,2,0:0:0:0:
60,312,71063,1,0,0:0:0:0:
60,312,71183,1,0,0:0:0:0:
60,312,71303,1,0,0:0:0:0:
60,312,71423,2,0,L|180:292,1,107.999996704102,8|0,0:0|0:0,0:0:0:0:
192,122,71903,2,0,P|222:166|228:219,1,107.999996704102,2|0,0:0|0:0,0:0:0:0:
208,36,72383,2,0,L|315:46,1,107.999996704102,8|0,0:0|0:0,0:0:0:0:
472,136,72863,6,0,L|366:160,1,107.999996704102,2|0,0:0|0:0,0:0:0:0:
328,192,73223,1,0,0:0:0:0:
308,236,73343,2,0,P|300:284|320:344,2,107.999996704102,8|0|2,0:0|0:0|0:0,0:0:0:0:
168,288,74063,1,0,0:0:0:0:
148,296,74183,1,0,0:0:0:0:
128,304,74303,2,0,L|121:196,1,107.999996704102,8|0,0:0|0:0,0:0:0:0:
143,108,74663,1,0,0:0:0:0:
143,108,74783,6,0,P|193:86|246:84,1,107.999996704102,2|0,0:0|0:0,0:0:0:0:
319,132,75143,1,0,0:0:0:0:
319,132,75263,2,0,L|440:132,1,107.999996704102,8|0,0:0|0:0,0:0:0:0:
508,184,75743,2,0,P|524:234|510:286,1,107.999996704102,2|0,0:0|0:0,0:0:0:0:
427,132,76223,2,0,P|410:81|424:29,1,107.999996704102,8|0,0:0|0:0,0:0:0:0:
319,131,76703,6,0,B|260:136|260:136|213:122,1,107.999996704102,2|0,0:0|0:0,0:0:0:0:
172,96,77063,1,0,0:0:0:0:
144,56,77183,1,8,0:0:0:0:
319,132,77423,1,0,0:0:0:0:
327,179,77543,1,0,0:0:0:0:
315,226,77663,1,2,0:0:0:0:
269,42,77903,1,0,0:0:0:0:
317,39,78023,1,0,0:0:0:0:
365,45,78143,2,0,P|390:62|404:81,1,53.9999983520508,8|0,0:0|0:0,0:0:0:0:
436,161,78383,2,0,P|436:193|429:224,1,53.9999983520508,0|0,0:0|0:0,0:0:0:0:
387,286,78623,1,2,0:0:0:0:
344,120,93983,6,0,L|336:209,1,90,2|0,0:0|0:0,0:0:0:0:
408,60,94463,1,8,0:0:0:0:
296,280,94703,1,0,0:0:0:0:
344,120,94943,1,0,0:0:0:0:
336,209,95183,1,0,0:0:0:0:
312,48,95423,2,0,P|267:49|226:67,1,90,8|0,0:0|0:0,0:0:0:0:
169,225,95903,6,0,L|180:136,1,90,2|0,0:0|0:0,0:0:0:0:
148,60,96383,1,8,0:0:0:0:
104,284,96623,1,0,0:0:0:0:
148,60,96863,2,0,L|74:111,1,90,0|0,0:0|0:0,0:0:0:0:
62,211,97343,2,0,P|70:255|104:284,1,90,8|0,0:0|0:0,0:0:0:0:
148,60,97823,5,2,0:0:0:0:
148,60,98063,1,0,0:0:0:0:
240,196,98303,1,8,0:0:0:0:
240,196,98543,1,0,0:0:0:0:
216,344,98783,2,0,L|304:329,1,90,0|0,0:0|0:0,0:0:0:0:
424,225,99263,2,0,L|336:240,1,90,8|0,0:0|0:0,0:0:0:0:
209,116,99743,6,0,P|213:160|240:196,1,90,2|0,0:0|0:0,0:0:0:0:
260,48,100223,1,8,0:0:0:0:
296,128,100463,1,0,0:0:0:0:
251,281,100703,2,0,P|207:277|172:251,1,90,2|0,0:0|0:0,0:0:0:0:
240,195,101183,1,8,0:0:0:0:
316,340,101423,1,0,0:0:0:0:
208,116,101663,6,0,L|119:134,1,90,2|0,0:0|0:0,0:0:0:0:
296,128,102143,1,8,0:0:0:0:
396,200,102383,1,0,0:0:0:0:
247,284,102623,2,0,L|240:195,2,90,0|0|8,0:0|0:0|0:0,0:0:0:0:
296,128,103343,1,0,0:0:0:0:
199,92,103583,6,0,P|155:92|111:81,1,90,2|0,0:0|0:0,0:0:0:0:
132,180,104063,2,0,L|132:270,1,90,8|0,0:0|0:0,0:0:0:0:
280,316,104543,1,0,0:0:0:0:
200,312,104783,1,0,0:0:0:0:
408,256,105023,1,8,0:0:0:0:
328,252,105263,1,0,0:0:0:0:
468,199,105503,6,0,P|476:156|461:114,1,90,2|0,0:0|0:0,0:0:0:0:
298,72,105983,2,0,L|388:76,1,90,8|0,0:0|0:0,0:0:0:0:
220,92,106463,2,0,L|133:115,1,90,0|0,0:0|0:0,0:0:0:0:
242,15,106943,1,8,0:0:0:0:
275,145,107183,1,0,0:0:0:0:
368,48,107423,6,0,B|416:48|416:48|455:61,2,90,2|0|8,0:0|0:0|0:0,0:0:0:0:
275,145,108143,1,0,0:0:0:0:
231,266,108383,2,0,B|192:247|192:247|169:209,2,90,0|0|8,0:0|0:0|0:0,0:0:0:0:
351,233,109103,1,0,0:0:0:0:
409,128,109343,6,0,L|349:60,1,90,2|0,0:0|0:0,0:0:0:0:
274,28,109823,2,0,P|230:32|193:58,1,90,8|0,0:0|0:0,0:0:0:0:
162,213,110303,1,0,0:0:0:0:
164,132,110543,1,0,0:0:0:0:
162,213,110783,1,8,0:0:0:0:
164,132,111023,1,0,0:0:0:0:
192,289,111263,6,0,P|235:299|279:293,1,90,2|0,0:0|0:0,0:0:0:0:
337,236,111743,2,0,P|381:230|425:240,2,90,8|0|0,0:0|0:0|0:0,0:0:0:0:
379,329,112463,1,0,0:0:0:0:
426,240,112703,6,0,B|439:183|439:183|431:160|431:160|438:108,1,135.000005149842,8|0,0:0|0:0,0:0:0:0:
385,47,113183,5,2,0:0:0:0:
304,52,113423,1,0,0:0:0:0:
223,61,113663,2,0,L|240:149,1,90,8|0,0:0|0:0,0:0:0:0:
264,253,114143,1,0,0:0:0:0:
345,248,114383,1,0,0:0:0:0:
426,239,114623,2,0,L|408:150,1,90,8|0,0:0|0:0,0:0:0:0:
505,252,115103,6,0,P|488:293|451:317,1,90,2|0,0:0|0:0,0:0:0:0:
264,253,115583,2,0,L|174:254,1,90,8|0,0:0|0:0,0:0:0:0:
139,233,115943,1,0,0:0:0:0:
113,202,116063,2,0,P|107:158|116:114,1,90,0|0,0:0|0:0,0:0:0:0:
311,74,116543,6,0,B|259:64|259:64|228:70|228:70|176:59,1,135.000005149842,8|0,0:0|0:0,0:0:0:0:
323,170,117023,6,0,P|366:160|397:128,1,90,2|0,0:0|0:0,0:0:0:0:
396,47,117503,1,8,0:0:0:0:
323,170,117743,1,0,0:0:0:0:
310,282,117983,2,0,P|266:272|235:240,1,90,0|0,0:0|0:0,0:0:0:0:
236,159,118463,1,8,0:0:0:0:
310,282,118703,1,0,0:0:0:0:
236,159,118943,6,0,L|147:164,1,90,2|0,0:0|0:0,0:0:0:0:
372,99,119423,2,0,P|400:133|407:177,1,90,8|0,0:0|0:0,0:0:0:0:
310,282,119903,1,0,0:0:0:0:
310,282,120143,1,0,0:0:0:0:
310,282,120383,6,0,B|251:278|251:278|220:294|220:294|179:289,1,135.000005149842,8|0,0:0|0:0,0:0:0:0:
156,56,120863,5,2,0:0:0:0:
156,56,121103,1,0,0:0:0:0:
156,56,121343,2,0,L|177:147,1,90,8|0,0:0|0:0,0:0:0:0:
310,282,121823,1,0,0:0:0:0:
310,282,122063,1,0,0:0:0:0:
310,282,122303,2,0,L|289:191,1,90,8|0,0:0|0:0,0:0:0:0:
156,56,122783,6,0,B|224:42|264:73|264:73|316:40|362:64,1,202.500007724762,2|0,0:0|0:0,0:0:0:0:
384,84,123263,2,0,P|378:136|335:166,1,107.999996704102,8|0,0:0|0:0,0:0:0:0:
156,56,123743,2,0,B|163:117|146:162|146:162|152:224|200:260,1,202.500007724762,2|0,0:0|0:0,0:0:0:0:
216,272,124223,2,0,B|269:271|269:271|312:240,1,107.999996704102,8|0,0:0|0:0,0:0:0:0:
156,56,124703,6,0,L|67:117,1,107.999996704102,2|0,0:0|0:0,0:0:0:0:
192,140,125183,2,0,L|281:201,1,107.999996704102,8|0,0:0|0:0,0:0:0:0:
281,201,125543,1,0,0:0:0:0:
281,201,125663,1,2,0:0:0:0:
480,88,125903,1,0,0:0:0:0:
480,88,126023,1,0,0:0:0:0:
480,88,126143,2,0,P|430:68|377:76,1,107.999996704102,8|0,0:0|0:0,0:0:0:0:
440,332,126623,6,0,L|421:225,1,107.999996704102,2|0,0:0|0:0,0:0:0:0:
378,76,127103,2,0,L|270:64,1,107.999996704102,8|0,0:0|0:0,0:0:0:0:
180,100,127463,1,0,0:0:0:0:
180,100,127583,2,0,P|164:150|182:200,1,107.999996704102,2|0,0:0|0:0,0:0:0:0:
264,240,127943,1,0,0:0:0:0:
264,240,128063,2,0,B|268:291|268:291|246:343,1,107.999996704102,8|0,0:0|0:0,0:0:0:0:
160,372,128423,1,0,0:0:0:0:
160,371,128543,6,0,B|107:367|107:367|68:331,1,107.999996704102,2|0,0:0|0:0,0:0:0:0:
48,240,128903,1,0,0:0:0:0:
48,240,129023,1,8,0:0:0:0:
176,88,129263,1,0,0:0:0:0:
176,88,129383,1,0,0:0:0:0:
176,88,129503,2,0,L|72:61,1,107.999996704102,2|0,0:0|0:0,0:0:0:0:
236,163,129983,2,0,P|234:217|255:266,1,107.999996704102,8|0,0:0|0:0,0:0:0:0:
300,292,130343,1,0,0:0:0:0:
348,304,130463,6,0,L|455:307,1,107.999996704102,2|0,0:0|0:0,0:0:0:0:
236,164,130943,1,8,0:0:0:0:
160,156,131183,1,0,0:0:0:0:
328,64,131423,2,0,L|434:48,2,107.999996704102,2|0|8,0:0|0:0|0:0,0:0:0:0:
368,188,132143,1,0,0:0:0:0:
368,188,132263,1,0,0:0:0:0:
368,188,132383,6,0,P|365:241|341:289,1,107.999996704102,2|0,0:0|0:0,0:0:0:0:
341,289,132743,1,0,0:0:0:0:
341,289,132863,2,0,P|288:296|244:326,1,107.999996704102,8|0,0:0|0:0,0:0:0:0:
244,326,133223,1,0,0:0:0:0:
244,326,133343,2,0,L|143:288,1,107.999996704102,2|0,0:0|0:0,0:0:0:0:
143,288,133703,1,0,0:0:0:0:
143,288,133823,2,0,B|125:238|125:238|129:184,1,107.999996704102,8|0,0:0|0:0,0:0:0:0:
384,52,134303,5,2,0:0:0:0:
220,72,134543,1,0,0:0:0:0:
384,52,134783,2,0,L|376:196,1,107.999996704102,8|0,0:0|0:0,0:0:0:0:
372,208,135143,1,0,0:0:0:0:
364,256,135263,2,0,P|316:284|260:272,1,107.999996704102,2|0,0:0|0:0,0:0:0:0:
232,240,135623,1,0,0:0:0:0:
204,200,135743,2,0,P|151:192|106:219,1,107.999996704102,8|0,0:0|0:0,0:0:0:0:
96,268,136103,1,0,0:0:0:0:
88,316,136223,6,0,L|6:245,1,107.999996704102,2|0,0:0|0:0,0:0:0:0:
36,48,136703,1,8,0:0:0:0:
20,144,136943,1,0,0:0:0:0:
127,16,137183,2,0,P|166:53|180:104,2,107.999996704102,2|0|8,0:0|0:0|0:0,0:0:0:0:
20,144,137903,1,0,0:0:0:0:
20,144,138023,1,0,0:0:0:0:
20,144,138143,6,0,L|103:282,1,161.999995056153,2|0,0:0|0:0,0:0:0:0:
160,348,138623,2,0,P|186:345|213:339,1,53.9999983520508,8|0,0:0|0:0,0:0:0:0:
260,268,138863,2,0,P|286:261|313:259,1,53.9999983520508,0|0,0:0|0:0,0:0:0:0:
340,180,139103,2,0,P|366:177|393:171,1,53.9999983520508,2|0,0:0|0:0,0:0:0:0:
440,100,139343,2,0,P|466:93|493:91,1,53.9999983520508,0|0,0:0|0:0,0:0:0:0:
328,56,139583,1,8,0:0:0:0:
144,96,139823,1,0,0:0:0:0:
144,96,139943,1,0,0:0:0:0:
144,96,140063,6,0,P|194:114|247:111,1,107.999996704102,2|0,0:0|0:0,0:0:0:0:
320,100,140423,1,0,0:0:0:0:
320,100,140543,2,0,L|335:206,1,107.999996704102,8|0,0:0|0:0,0:0:0:0:
328,280,140903,1,0,0:0:0:0:
328,279,141023,2,0,P|279:302|226:298,1,107.999996704102,2|0,0:0|0:0,0:0:0:0:
148,180,141503,2,0,P|196:157|249:161,1,107.999996704102,8|0,0:0|0:0,0:0:0:0:
88,240,141983,6,0,L|52:137,1,107.999996704102,2|0,0:0|0:0,0:0:0:0:
220,286,142463,2,0,L|328:280,1,107.999996704102,8|0,0:0|0:0,0:0:0:0:
324,72,142943,1,2,0:0:0:0:
324,72,143063,1,0,0:0:0:0:
324,72,143183,1,0,0:0:0:0:
324,72,143303,1,0,0:0:0:0:
324,72,143423,2,0,P|292:116|300:180,1,107.999996704102,8|0,0:0|0:0,0:0:0:0:
324,204,143783,1,0,0:0:0:0:
368,228,143903,6,0,L|356:336,2,107.999996704102,2|0|8,0:0|0:0|0:0,0:0:0:0:
416,84,144623,2,0,L|468:72,2,53.9999983520508,0|0|2,0:0|0:0|0:0,0:0:0:0:
272,64,145103,2,0,L|324:52,2,53.9999983520508,0|0|8,0:0|0:0|0:0,0:0:0:0:
144,44,145583,1,0,0:0:0:0:
144,44,145703,1,0,0:0:0:0:
144,44,145823,6,0,L|49:95,1,107.999996704102,2|0,0:0|0:0,0:0:0:0:
131,163,146303,2,0,P|140:217|127:269,1,107.999996704102,8|0,0:0|0:0,0:0:0:0:
127,268,146663,1,0,0:0:0:0:
127,268,146783,2,0,L|259:272,1,107.999996704102,2|0,0:0|0:0,0:0:0:0:
132,164,147263,1,8,0:0:0:0:
164,364,147503,1,0,0:0:0:0:
132,164,147743,6,0,L|28:192,1,107.999996704102,2|0,0:0|0:0,0:0:0:0:
220,220,148223,1,8,0:0:0:0:
37,48,148463,1,0,0:0:0:0:
37,48,148583,1,0,0:0:0:0:
37,48,148703,2,0,L|144:64,1,107.999996704102,2|0,0:0|0:0,0:0:0:0:
143,63,149063,1,0,0:0:0:0:
143,63,149183,2,0,L|251:63,1,107.999996704102,8|0,0:0|0:0,0:0:0:0:
304,264,149663,6,0,P|306:210|302:156,1,107.999996704102,2|0,0:0|0:0,0:0:0:0:
302,156,150023,1,0,0:0:0:0:
302,156,150143,2,0,L|410:150,1,107.999996704102,8|0,0:0|0:0,0:0:0:0:
400,24,150623,2,0,L|360:64,1,53.9999983520508,2|0,0:0|0:0,0:0:0:0:
292,36,150863,2,0,L|240:88,1,53.9999983520508,0|0,0:0|0:0,0:0:0:0:
184,104,151103,2,0,P|132:124|76:128,1,107.999996704102,8|0,0:0|0:0,0:0:0:0:
128,208,151583,6,0,P|140:256|124:320,2,107.999996704102,2|0|8,0:0|0:0|0:0,0:0:0:0:
40,264,152303,1,0,0:0:0:0:
220,160,152543,2,0,L|372:156,1,107.999996704102,2|0,0:0|0:0,0:0:0:0:
414,319,153023,2,0,P|423:267|408:216,1,107.999996704102,8|0,0:0|0:0,0:0:0:0:
407,215,153383,1,0,0:0:0:0:
407,215,153503,5,2,0:0:0:0:
220,160,153743,1,0,0:0:0:0:
220,160,153863,1,0,0:0:0:0:
220,160,153983,1,8,0:0:0:0:
256,344,154223,1,0,0:0:0:0:
256,344,154343,1,0,0:0:0:0:
256,344,154463,1,2,0:0:0:0:
256,344,154583,1,0,0:0:0:0:
256,344,154703,1,0,0:0:0:0:
256,344,154823,1,0,0:0:0:0:
256,344,154943,6,0,L|192:336,1,53.9999983520508,8|0,0:0|0:0,0:0:0:0:
124,268,155183,2,0,L|68:236,1,53.9999983520508,0|0,0:0|0:0,0:0:0:0:
64,136,155423,6,0,P|68:82|101:41,1,107.999996704102,2|0,0:0|0:0,0:0:0:0:
148,24,155783,1,0,0:0:0:0:
196,36,155903,2,0,L|300:96,1,107.999996704102,8|0,0:0|0:0,0:0:0:0:
216,192,156383,2,0,L|292:300,1,107.999996704102,2|0,0:0|0:0,0:0:0:0:
64,136,156863,2,0,L|92:244,1,107.999996704102,8|0,0:0|0:0,0:0:0:0:
281,131,157343,6,0,P|234:104|181:108,1,107.999996704102,2|0,0:0|0:0,0:0:0:0:
144,140,157703,1,0,0:0:0:0:
112,180,157823,2,0,L|140:288,1,107.999996704102,8|0,0:0|0:0,0:0:0:0:
281,131,158303,2,0,L|387:112,1,107.999996704102,2|0,0:0|0:0,0:0:0:0:
480,240,158783,2,0,L|373:258,1,107.999996704102,8|0,0:0|0:0,0:0:0:0:
224,236,159263,6,0,P|228:308|264:348,1,107.999996704102,2|0,0:0|0:0,0:0:0:0:
247,335,159623,1,0,0:0:0:0:
247,335,159743,2,0,L|141:351,1,107.999996704102,8|0,0:0|0:0,0:0:0:0:
48,176,160223,2,0,P|40:228|65:276,1,107.999996704102,2|0,0:0|0:0,0:0:0:0:
136,136,160703,2,0,P|143:83|118:35,1,107.999996704102,8|0,0:0|0:0,0:0:0:0:
224,144,161183,6,0,L|331:156,1,107.999996704102,2|0,0:0|0:0,0:0:0:0:
376,176,161543,1,0,0:0:0:0:
412,212,161663,2,0,P|421:264|401:314,1,107.999996704102,8|0,0:0|0:0,0:0:0:0:
212,256,162143,2,0,L|320:256,1,107.999996704102,2|0,0:0|0:0,0:0:0:0:
128,312,162623,2,0,P|108:262|120:210,1,107.999996704102,8|0,0:0|0:0,0:0:0:0:
264,48,163103,6,0,L|156:51,1,107.999996704102,2|0,0:0|0:0,0:0:0:0:
108,52,163463,1,0,0:0:0:0:
60,60,163583,2,0,B|44:112|44:112|72:176,1,107.999996704102,8|0,0:0|0:0,0:0:0:0:
280,172,164063,2,0,B|228:152|228:152|176:172,1,107.999996704102,2|0,0:0|0:0,0:0:0:0:
400,312,164543,2,0,B|416:260|416:260|388:208,1,107.999996704102,8|0,0:0|0:0,0:0:0:0:
268,56,165023,6,0,L|375:44,1,107.999996704102,2|0,0:0|0:0,0:0:0:0:
424,48,165383,1,0,0:0:0:0:
468,72,165503,2,0,B|488:124|488:124|481:175,1,107.999996704102,8|0,0:0|0:0,0:0:0:0:
204,176,165983,2,0,B|256:160|256:160|308:176,1,107.999996704102,2|0,0:0|0:0,0:0:0:0:
400,312,166463,2,0,B|348:328|348:328|296:312,1,107.999996704102,8|0,0:0|0:0,0:0:0:0:
104,256,166943,6,0,L|82:150,1,107.999996704102,2|0,0:0|0:0,0:0:0:0:
88,100,167303,1,0,0:0:0:0:
111,60,167423,2,0,P|162:43|212:61,1,107.999996704102,8|0,0:0|0:0,0:0:0:0:
304,177,167903,2,0,P|254:193|204:176,1,107.999996704102,2|0,0:0|0:0,0:0:0:0:
324,60,168383,2,0,P|374:43|424:61,1,107.999996704102,8|0,0:0|0:0,0:0:0:0:
480,192,168863,6,0,L|464:316,1,107.999996704102,2|0,0:0|0:0,0:0:0:0:
432,336,169223,1,0,0:0:0:0:
387,352,169343,2,0,P|334:343|285:321,1,107.999996704102,8|0,0:0|0:0,0:0:0:0:
324,60,169823,2,0,L|320:167,1,107.999996704102,2|0,0:0|0:0,0:0:0:0:
124,264,170303,1,8,0:0:0:0:
120,248,170423,1,0,0:0:0:0:
120,232,170543,1,0,0:0:0:0:
124,216,170663,1,0,0:0:0:0:
131,201,170783,6,0,P|183:185|235:194,1,107.999996704102,2|0,0:0|0:0,0:0:0:0:
280,284,171263,2,0,L|387:291,1,107.999996704102,8|0,0:0|0:0,0:0:0:0:
476,160,171743,2,0,L|368:167,1,107.999996704102,2|0,0:0|0:0,0:0:0:0:
240,65,172223,2,0,P|292:56|344:72,1,107.999996704102,8|0,0:0|0:0,0:0:0:0:
176,132,172703,6,0,L|68:128,2,107.999996704102,2|0|8,0:0|0:0|0:0,0:0:0:0:
324,184,173423,1,0,0:0:0:0:
196,276,173663,1,2,0:0:0:0:
196,276,173783,1,0,0:0:0:0:
196,276,173903,1,0,0:0:0:0:
196,276,174023,1,0,0:0:0:0:
196,276,174143,2,0,P|238:307|292:312,1,107.999996704102,8|0,0:0|0:0,0:0:0:0:
336,296,174503,1,0,0:0:0:0:
380,276,174623,6,0,L|487:279,1,107.999996704102,2|0,0:0|0:0,0:0:0:0:
462,86,175103,2,0,P|443:136|456:188,1,107.999996704102,8|0,0:0|0:0,0:0:0:0:
296,36,175583,2,0,L|404:24,1,107.999996704102,2|0,0:0|0:0,0:0:0:0:
232,107,176063,2,0,P|229:161|253:208,1,107.999996704102,8|0,0:0|0:0,0:0:0:0:
253,208,176423,1,0,0:0:0:0:
253,208,176543,6,0,L|252:316,1,107.999996704102,2|0,0:0|0:0,0:0:0:0:
336,140,177023,1,8,0:0:0:0:
312,44,177263,1,0,0:0:0:0:
403,67,177503,2,0,P|436:110|434:163,1,107.999996704102,2|0,0:0|0:0,0:0:0:0:
408,204,177863,1,0,0:0:0:0:
372,236,177983,2,0,L|357:342,1,107.999996704102,8|0,0:0|0:0,0:0:0:0:
208,288,178463,6,0,L|100:301,2,107.999996704102,2|0|8,0:0|0:0|0:0,0:0:0:0:
68,188,179183,1,0,0:0:0:0:
68,188,179303,1,0,0:0:0:0:
68,188,179423,2,0,P|52:136|61:84,1,107.999996704102,2|0,0:0|0:0,0:0:0:0:
148,40,179903,2,0,L|255:52,1,107.999996704102,8|0,0:0|0:0,0:0:0:0:
317,201,180383,6,0,P|340:153|340:100,1,107.999996704102,2|0,0:0|0:0,0:0:0:0:
244,132,180863,1,8,0:0:0:0:
416,240,181103,1,0,0:0:0:0:
416,240,181223,1,0,0:0:0:0:
416,240,181343,2,0,L|396:346,1,107.999996704102,2|0,0:0|0:0,0:0:0:0:
352,368,181703,1,0,0:0:0:0:
304,372,181823,2,0,P|248:352|208:300,1,107.999996704102,8|0,0:0|0:0,0:0:0:0:
204,236,182183,1,0,0:0:0:0:
204,236,182303,6,0,L|98:257,1,107.999996704102,2|0,0:0|0:0,0:0:0:0:
219,151,182783,2,0,P|266:176|287:225,1,107.999996704102,8|0,0:0|0:0,0:0:0:0:
236,72,183263,2,0,L|343:60,2,107.999996704102,2|0|8,0:0|0:0|0:0,0:0:0:0:
92,132,183983,1,0,0:0:0:0:
92,132,184103,1,0,0:0:0:0:
92,131,184223,6,0,P|79:209|130:268,1,161.999995056153,2|0,0:0|0:0,0:0:0:0:
212,296,184703,2,0,L|265:298,1,53.9999983520508,8|0,0:0|0:0,0:0:0:0:
266,213,184943,2,0,L|320:216,1,53.9999983520508,0|0,0:0|0:0,0:0:0:0:
312,124,185183,2,0,L|365:126,1,53.9999983520508,2|0,0:0|0:0,0:0:0:0:
366,41,185423,2,0,L|420:44,1,53.9999983520508,0|0,0:0|0:0,0:0:0:0:
276,36,185663,1,8,0:0:0:0:
100,92,185903,1,0,0:0:0:0:
100,92,186023,1,0,0:0:0:0:
100,91,186143,6,0,P|98:145|126:190,1,107.999996704102,2|0,0:0|0:0,0:0:0:0:
172,208,186503,1,0,0:0:0:0:
172,208,186623,2,0,L|172:316,1,107.999996704102,8|0,0:0|0:0,0:0:0:0:
260,156,187103,2,0,P|314:154|359:182,1,107.999996704102,2|0,0:0|0:0,0:0:0:0:
377,228,187463,1,0,0:0:0:0:
377,228,187583,2,0,L|485:228,1,107.999996704102,8|0,0:0|0:0,0:0:0:0:
392,316,188063,6,0,L|284:304,1,107.999996704102,2|0,0:0|0:0,0:0:0:0:
88,304,188543,2,0,L|195:297,1,107.999996704102,8|0,0:0|0:0,0:0:0:0:
376,228,189023,1,2,0:0:0:0:
376,228,189143,1,0,0:0:0:0:
376,228,189263,1,0,0:0:0:0:
376,228,189383,1,0,0:0:0:0:
376,228,189503,2,0,L|355:178,1,53.9999983520508,8|0,0:0|0:0,0:0:0:0:
272,156,189743,2,0,L|221:135,1,53.9999983520508,0|0,0:0|0:0,0:0:0:0:
136,152,189983,6,0,L|20:160,1,107.999996704102,2|0,0:0|0:0,0:0:0:0:
196,252,190463,2,0,P|197:305|172:352,1,107.999996704102,8|0,0:0|0:0,0:0:0:0:
136,152,190943,2,0,P|134:98|159:51,2,107.999996704102,2|0|8,0:0|0:0|0:0,0:0:0:0:
196,252,191663,1,0,0:0:0:0:
240,276,191783,1,0,0:0:0:0:
288,284,191903,6,0,L|394:267,1,107.999996704102,2|0,0:0|0:0,0:0:0:0:
484,112,192383,2,0,L|377:95,1,107.999996704102,8|0,0:0|0:0,0:0:0:0:
292,84,192743,1,0,0:0:0:0:
292,84,192863,2,0,L|238:78,1,53.9999983520508,2|0,0:0|0:0,0:0:0:0:
216,164,193103,2,0,L|232:232,1,53.9999983520508,0|0,0:0|0:0,0:0:0:0:
207,300,193343,2,0,P|159:323|106:322,1,107.999996704102,8|0,0:0|0:0,0:0:0:0:
116,128,193823,5,2,0:0:0:0:
116,128,193943,1,0,0:0:0:0:
116,128,194063,1,0,0:0:0:0:
116,128,194183,1,0,0:0:0:0:
116,128,194303,2,0,P|152:72|228:60,1,107.999996704102,8|0,0:0|0:0,0:0:0:0:
292,84,194783,2,0,L|368:168,1,107.999996704102,2|0,0:0|0:0,0:0:0:0:
404,240,195143,1,0,0:0:0:0:
404,240,195263,2,0,L|350:248,1,53.9999983520508,8|0,0:0|0:0,0:0:0:0:
264,232,195503,2,0,L|210:234,1,53.9999983520508,0|0,0:0|0:0,0:0:0:0:
128,216,195743,6,0,L|20:208,1,107.999996704102,2|0,0:0|0:0,0:0:0:0:
208,120,196223,1,8,0:0:0:0:
188,292,196463,2,0,P|231:322|284:325,1,107.999996704102,0|2,0:0|0:0,0:0:0:0:
332,268,196823,1,0,0:0:0:0:
332,268,196943,1,0,0:0:0:0:
408,64,197183,1,8,0:0:0:0:
424,72,197303,1,0,0:0:0:0:
436,84,197423,1,0,0:0:0:0:
444,96,197543,1,0,0:0:0:0:
452,111,197663,6,0,P|464:168|444:220,1,107.999996704102,2|0,0:0|0:0,0:0:0:0:
260,162,198143,2,0,L|368:160,1,107.999996704102,8|0,0:0|0:0,0:0:0:0:
176,207,198623,2,0,P|165:259|189:307,2,107.999996704102,2|0|8,0:0|0:0|0:0,0:0:0:0:
368,160,199343,1,0,0:0:0:0:
368,160,199463,1,0,0:0:0:0:
368,160,199583,6,0,L|368:268,2,107.999996704102,2|0|8,0:0|0:0|0:0,0:0:0:0:
164,68,200303,1,0,0:0:0:0:
164,68,200423,1,0,0:0:0:0:
164,68,200543,2,0,L|171:121,1,53.9999983520508,2|0,0:0|0:0,0:0:0:0:
176,208,200783,2,0,L|172:276,2,53.9999983520508,0|0|8,0:0|0:0|0:0,0:0:0:0:
372,84,201263,1,0,0:0:0:0:
372,84,201383,1,0,0:0:0:0:
372,84,201503,6,0,L|425:88,3,53.9999983520508,2|0|0|0,0:0|0:0|0:0|0:0,0:0:0:0:
404,172,201983,2,0,L|427:220,3,53.9999983520508,8|0|0|0,0:0|0:0|0:0|0:0,0:0:0:0:
344,244,202463,2,0,L|335:297,3,53.9999983520508,2|0|0|0,0:0|0:0|0:0|0:0,0:0:0:0:
256,260,202943,1,8,0:0:0:0:
80,144,203423,6,0,L|84:90,3,53.9999983520508,2|0|0|0,0:0|0:0|0:0|0:0,0:0:0:0:
168,112,203903,2,0,L|216:88,3,53.9999983520508,8|0|0|0,0:0|0:0|0:0|0:0,0:0:0:0:
240,172,204383,2,0,L|293:180,3,53.9999983520508,2|0|0|0,0:0|0:0|0:0|0:0,0:0:0:0:
256,260,204863,1,8,0:0:0:0:
396,64,205343,6,0,L|450:64,3,53.9999983520508,2|0|0|0,0:0|0:0|0:0|0:0,0:0:0:0:
328,132,205823,2,0,L|284:80,3,53.9999983520508,8|0|0|0,0:0|0:0|0:0|0:0,0:0:0:0:
420,152,206303,2,0,L|444:208,1,53.9999983520508,2|0,0:0|0:0,0:0:0:0:
356,219,206543,2,0,L|360:283,1,53.9999983520508
403,347,206783,1,8,0:0:0:0:
168,80,207263,6,0,L|120:128,3,53.9999983520508,2|0|0|0,0:0|0:0|0:0|0:0,0:0:0:0:
120,200,207743,2,0,L|72:248,3,53.9999983520508,8|0|0|0,0:0|0:0|0:0|0:0,0:0:0:0:
48,320,208223,2,0,L|124:332,1,53.9999983520508,2|0,0:0|0:0,0:0:0:0:
168,276,208463,2,0,L|248:272,1,53.9999983520508,0|0,0:0|0:0,0:0:0:0:
256,192,208703,1,8,0:0:0:0:
