osu file format v13

[General]
AudioFilename: xiaopingguo.mp3
AudioLeadIn: 0
PreviewTime: 47850
Countdown: 0
SampleSet: Soft
StackLeniency: 0.7
Mode: 0
LetterboxInBreaks: 1
WidescreenStoryboard: 1

[Editor]
DistanceSpacing: 1.2
BeatDivisor: 4
GridSize: 4
TimelineZoom: 1

[Metadata]
Title:Xiao Ping Guo
TitleUnicode:小苹果
Artist:Chopsticks Bro.
ArtistUnicode:筷子兄弟
Creator:EmingK
Version:Hard
Source:
Tags:Kuai Zi Xiong Di 肖央 王太利 老男孩猛龙过江
BeatmapID:443038
BeatmapSetID:184327

[Difficulty]
HPDrainRate:5
CircleSize:3.5
OverallDifficulty:5.5
ApproachRate:6.5
SliderMultiplier:1.6
SliderTickRate:1

[Events]
//Background and Video events
0,0,"bg.jpg",0,0
//Break Periods
2,78769,91035
//Storyboard Layer 0 (Background)
//Storyboard Layer 1 (Fail)
//Storyboard Layer 2 (Pass)
//Storyboard Layer 3 (Foreground)
//Storyboard Sound Samples
//Background Colour Transformations
3,100,163,162,255

[TimingPoints]
1770,480,4,2,1,50,1,0
17130,-100,4,2,1,60,0,0
32490,-100,4,2,1,70,0,0
47850,-83.3333333333333,4,2,1,80,0,1
78570,-100,4,2,1,60,0,0
109290,-100,4,2,1,70,0,0
124650,-83.3333333333333,4,2,1,80,0,1
155370,-100,4,2,1,70,0,0
170730,-83.3333333333333,4,2,1,80,0,1
201450,-100,4,2,1,60,0,0

[HitObjects]
126,269,1770,5,2,0:0:0:0:
206,331,2010,1,0,0:0:0:0:
293,283,2250,2,0,L|385:295,1,80,8|0,0:0|0:0,0:0:0:0:
410,276,2610,2,0,P|444:231|441:166,1,120,2|0,0:0|0:0,0:0:0:0:
378,91,3210,1,8,0:0:0:0:
285,128,3450,1,0,0:0:0:0:
195,82,3690,6,0,L|92:85,2,80,2|0|8,0:0|0:0|0:0,0:0:0:0:
285,128,4410,2,0,P|301:180|290:224,1,80,0|2,0:0|0:0,0:0:0:0:
255,297,4890,1,0,0:0:0:0:
174,353,5130,2,0,L|94:355,1,80,8|0,0:0|0:0,0:0:0:0:
30,231,5610,5,2,0:0:0:0:
108,168,5850,1,0,0:0:0:0:
194,221,6090,2,0,P|234:246|290:242,1,80,8|0,0:0|0:0,0:0:0:0:
300,222,6450,2,0,L|431:214,1,120,2|0,0:0|0:0,0:0:0:0:
491,280,7050,1,8,0:0:0:0:
430,360,7290,1,0,0:0:0:0:
285,297,7530,6,0,P|285:248|310:210,1,80,2|0,0:0|0:0,0:0:0:0:
363,148,8010,1,8,0:0:0:0:
286,70,8250,2,0,L|203:65,1,80,0|2,0:0|0:0,0:0:0:0:
148,160,8730,1,0,0:0:0:0:
148,160,8970,2,0,L|51:171,1,80,8|0,0:0|0:0,0:0:0:0:
15,273,9450,5,2,0:0:0:0:
100,333,9690,2,0,L|105:378,2,40,0|0|8,0:0|0:0|0:0,0:0:0:0:
197,290,10170,1,0,0:0:0:0:
290,245,10410,2,0,L|299:150,2,80,2|0|8,0:0|0:0|0:0,0:0:0:0:
377,308,11130,1,0,0:0:0:0:
454,180,11370,5,2,0:0:0:0:
499,269,11610,1,0,0:0:0:0:
369,215,11850,2,0,P|365:163|381:121,1,80,8|0,0:0|0:0,0:0:0:0:
430,62,12330,1,2,0:0:0:0:
454,180,12570,1,0,0:0:0:0:
304,138,12810,2,0,L|210:142,1,80,8|0,0:0|0:0,0:0:0:0:
134,232,13290,5,2,0:0:0:0:
201,313,13530,1,0,0:0:0:0:
311,245,13770,2,0,P|329:205|326:166,1,80,8|0,0:0|0:0,0:0:0:0:
304,138,14130,2,0,L|170:142,1,120,2|0,0:0|0:0,0:0:0:0:
134,232,14730,1,8,0:0:0:0:
72,123,14970,1,0,0:0:0:0:
190,72,15210,6,0,L|282:69,1,80,2|0,0:0|0:0,0:0:0:0:
353,125,15690,2,0,P|365:169|352:216,1,80,8|0,0:0|0:0,0:0:0:0:
296,283,16170,1,2,0:0:0:0:
227,198,16410,1,0,0:0:0:0:
143,257,16650,2,0,B|131:328|131:328|162:331|200:299,1,120,8|0,0:0|0:0,0:0:0:0:
216,294,17130,5,6,0:3:0:0:
154,184,17370,1,0,0:0:0:0:
237,109,17610,2,0,L|326:105,1,80,8|0,0:0|0:0,0:0:0:0:
403,174,18090,1,2,0:0:0:0:
318,258,18330,1,0,0:0:0:0:
231,188,18570,2,0,P|229:134|248:89,1,80,8|0,0:0|0:0,0:0:0:0:
307,37,19050,5,2,0:0:0:0:
408,68,19290,1,0,0:0:0:0:
403,174,19530,2,0,P|405:217|379:268,1,80,8|0,0:0|0:0,0:0:0:0:
343,348,20010,1,2,0:0:0:0:
287,251,20250,1,0,0:0:0:0:
393,251,20490,2,0,L|496:249,1,80,8|0,0:0|0:0,0:0:0:0:
343,348,20970,6,0,L|263:349,2,80,2|0|8,0:0|0:0|0:0,0:0:0:0:
393,251,21690,1,0,0:0:0:0:
331,166,21930,2,0,P|331:122|353:76,1,80,2|0,0:0|0:0,0:0:0:0:
443,55,22410,1,8,0:0:0:0:
492,148,22650,1,0,0:0:0:0:
393,251,22890,6,0,P|348:270|293:268,1,80,2|0,0:0|0:0,0:0:0:0:
209,212,23370,2,0,L|108:203,1,80,8|0,0:0|0:0,0:0:0:0:
93,303,23850,2,0,P|142:300|181:268,1,80,2|0,0:0|0:0,0:0:0:0:
251,170,24330,2,0,L|332:167,1,80,8|0,0:0|0:0,0:0:0:0:
421,265,24810,5,2,0:0:0:0:
363,355,25050,1,0,0:0:0:0:
267,313,25290,2,0,P|217:304|173:310,1,80,8|0,0:0|0:0,0:0:0:0:
90,339,25770,1,2,0:0:0:0:
42,255,26010,1,0,0:0:0:0:
132,184,26250,2,0,L|219:177,1,80,8|0,0:0|0:0,0:0:0:0:
188,76,26730,5,2,0:0:0:0:
92,41,26970,1,0,0:0:0:0:
28,126,27210,2,0,P|27:179|43:213,1,80,8|0,0:0|0:0,0:0:0:0:
126,273,27690,1,2,0:0:0:0:
213,216,27930,1,0,0:0:0:0:
302,158,28170,2,0,P|339:149|394:158,1,80,8|0,0:0|0:0,0:0:0:0:
449,243,28650,5,2,0:0:0:0:
495,147,28890,2,0,L|499:101,2,40,0|0|8,0:0|0:0|0:0,0:0:0:0:
354,248,29370,1,0,0:0:0:0:
302,158,29610,2,0,L|289:61,1,80,2|0,0:0|0:0,0:0:0:0:
380,21,30090,1,8,0:0:0:0:
468,71,30330,1,0,0:0:0:0:
420,181,30570,6,0,L|430:260,1,80,2|0,0:0|0:0,0:0:0:0:
341,324,31050,2,0,L|354:231,1,80,8|0,0:0|0:0,0:0:0:0:
260,181,31530,2,0,L|270:260,1,80,2|0,0:0|0:0,0:0:0:0:
181,324,32010,2,0,L|194:231,1,80,8|0,0:0|0:0,0:0:0:0:
115,169,32490,5,6,0:3:0:0:
195,68,32730,1,0,0:0:0:0:
260,182,32970,2,0,P|252:223|202:270,1,80,8|0,0:0|0:0,0:0:0:0:
125,315,33450,1,2,0:0:0:0:
22,259,33690,1,0,0:0:0:0:
115,169,33930,2,0,L|214:160,1,80,8|0,0:0|0:0,0:0:0:0:
285,239,34410,5,2,0:0:0:0:
389,201,34650,1,0,0:0:0:0:
368,85,34890,2,0,P|320:65|265:71,1,80,8|0,0:0|0:0,0:0:0:0:
261,88,35250,2,0,L|136:95,1,120,2|0,0:0|0:0,0:0:0:0:
51,40,35850,1,12,0:3:0:0:
24,266,36330,6,0,P|70:294|114:288,1,80,2|0,0:0|0:0,0:0:0:0:
188,224,36810,2,0,L|279:217,1,80,8|0,0:0|0:0,0:0:0:0:
363,277,37290,1,2,0:0:0:0:
448,203,37530,2,0,P|462:149|452:106,2,80,0|8|0,0:0|0:0|0:0,0:0:0:0:
356,144,38250,6,0,P|354:104|366:66,1,80,2|0,0:0|0:0,0:0:0:0:
466,30,38730,1,8,0:0:0:0:
459,126,38970,1,0,0:0:0:0:
372,227,39210,2,0,P|370:282|394:324,1,80,2|0,0:0|0:0,0:0:0:0:
465,359,39690,1,12,0:3:0:0:
259,248,40170,6,0,L|172:254,1,80,2|0,0:0|0:0,0:0:0:0:
95,316,40650,1,8,0:0:0:0:
31,234,40890,1,0,0:0:0:0:
118,168,41130,2,0,P|131:113|126:71,1,80,2|0,0:0|0:0,0:0:0:0:
216,23,41610,2,0,L|299:18,1,80,8|0,0:0|0:0,0:0:0:0:
401,142,42090,5,2,0:0:0:0:
323,222,42330,1,0,0:0:0:0:
221,160,42570,2,0,P|160:170|126:164,1,80,8|0,0:0|0:0,0:0:0:0:
107,160,42930,2,0,P|112:215|63:293,1,120,2|0,0:0|0:0,0:0:0:0:
16,349,43530,1,12,0:3:0:0:
226,260,44010,6,0,L|309:251,2,80,2|0|8,0:0|0:0|0:0,0:0:0:0:
148,336,44730,1,0,0:0:0:0:
102,189,44970,2,0,L|19:178,2,80,2|0|8,0:0|0:0|0:0,0:0:0:0:
166,99,45690,1,0,0:0:0:0:
267,127,45930,5,6,0:0:0:0:
330,291,46410,1,12,0:0:0:0:
165,354,46890,1,6,0:0:0:0:
102,190,47370,1,12,0:0:0:0:
266,50,47850,6,0,P|347:63|406:166,1,191.999994140625,6|8,0:0|0:0,0:0:0:0:
387,254,48570,1,0,0:0:0:0:
298,324,48810,2,0,L|185:329,1,95.9999970703126,2|0,0:0|0:0,0:0:0:0:
127,234,49290,2,0,L|222:229,1,95.9999970703126,8|0,0:0|0:0,0:0:0:0:
292,149,49770,5,2,0:0:0:0:
189,96,50010,1,0,0:0:0:0:
127,233,50250,2,0,P|118:288|132:342,1,95.9999970703126,8|0,0:0|0:0,0:0:0:0:
245,280,50730,2,0,B|265:220|245:171|245:171|279:195|330:198,1,191.999994140625,2|8,0:0|0:0,0:0:0:0:
414,136,51450,1,0,0:0:0:0:
332,50,51690,6,0,P|277:46|169:136,1,191.999994140625,2|8,0:0|0:0,0:0:0:0:
190,226,52410,1,0,0:0:0:0:
265,309,52650,2,0,L|363:320,1,95.9999970703126,2|0,0:0|0:0,0:0:0:0:
277,198,53130,2,0,P|230:200|190:226,1,95.9999970703126,8|0,0:0|0:0,0:0:0:0:
101,298,53610,5,2,0:0:0:0:
26,211,53850,1,0,0:0:0:0:
103,116,54090,2,0,L|204:122,1,95.9999970703126,8|0,0:0|0:0,0:0:0:0:
278,199,54570,2,0,P|344:233|459:182,1,191.999994140625,2|8,0:0|0:0,0:0:0:0:
458,86,55290,1,0,0:0:0:0:
364,141,55530,6,0,B|359:267|359:267|330:304|280:293,1,191.999994140625,2|8,0:0|0:0,0:0:0:0:
193,288,56250,1,0,0:0:0:0:
112,210,56490,2,0,B|72:151|135:94|135:94|206:105,1,191.999994140625,2|8,0:0|0:0,0:0:0:0:
430,210,57450,5,2,0:0:0:0:
370,311,57690,1,0,0:0:0:0:
259,253,57930,2,0,P|256:198|275:145,1,95.9999970703126,8|0,0:0|0:0,0:0:0:0:
349,95,58410,2,0,P|287:131|154:107,1,191.999994140625,2|8,0:0|0:0,0:0:0:0:
81,52,59130,1,0,0:0:0:0:
21,166,59370,6,0,P|8:225|74:353,1,191.999994140625,2|8,0:0|0:0,0:0:0:0:
255,217,60330,2,0,P|266:158|247:103,1,95.9999970703126,2|0,0:0|0:0,0:0:0:0:
158,57,60810,1,8,0:0:0:0:
173,166,61050,2,0,L|389:181,1,191.999994140625
445,265,61770,5,8,0:0:0:0:
365,355,62010,1,0,0:0:0:0:
266,288,62250,2,0,L|255:192,2,95.9999970703126,2|0|8,0:0|0:0|0:0,0:0:0:0:
40,196,63210,6,0,P|44:130|139:43,1,191.999994140625,6|8,0:0|0:0,0:0:0:0:
240,27,63930,1,0,0:0:0:0:
321,115,64170,2,0,L|311:224,1,95.9999970703126,2|0,0:0|0:0,0:0:0:0:
359,318,64650,2,0,P|400:347|472:337,1,95.9999970703126,8|0,0:0|0:0,0:0:0:0:
374,190,65130,6,0,L|273:200,1,95.9999970703126,2|0,0:0|0:0,0:0:0:0:
183,278,65610,1,8,0:0:0:0:
81,224,65850,1,0,0:0:0:0:
127,102,66090,2,0,P|201:85|303:146,1,191.999994140625,2|8,0:0|0:0,0:0:0:0:
129,332,67050,6,0,L|21:339,1,95.9999970703126,2|0,0:0|0:0,0:0:0:0:
162,240,67530,2,0,L|266:251,1,95.9999970703126,8|0,0:0|0:0,0:0:0:0:
367,302,68010,2,0,P|404:250|373:117,1,191.999994140625,2|8,0:0|0:0,0:0:0:0:
306,61,68730,1,0,0:0:0:0:
206,129,68970,6,0,L|105:135,2,95.9999970703126,2|0|8,0:0|0:0|0:0,0:0:0:0:
288,306,69930,2,0,P|356:351|463:313,1,191.999994140625,2|8,0:0|0:0,0:0:0:0:
451,209,70650,1,0,0:0:0:0:
343,162,70890,6,0,L|152:181,1,191.999994140625,2|8,0:0|0:0,0:0:0:0:
111,294,71610,1,0,0:0:0:0:
222,258,71850,2,0,P|246:200|181:68,1,191.999994140625,2|8,0:0|0:0,0:0:0:0:
40,261,72810,6,0,L|28:366,2,95.9999970703126,2|0|8,0:0|0:0|0:0,0:0:0:0:
245,139,73770,2,0,P|306:117|412:172,1,191.999994140625,2|8,0:0|0:0,0:0:0:0:
456,270,74490,1,0,0:0:0:0:
369,349,74730,6,0,L|272:340,1,95.9999970703126,2|0,0:0|0:0,0:0:0:0:
202,254,75210,2,0,P|145:249|84:286,1,95.9999970703126,8|0,0:0|0:0,0:0:0:0:
273,340,75690,2,0,P|305:279|265:159,1,191.999994140625,2|8,0:0|0:0,0:0:0:0:
173,130,76410,1,0,0:0:0:0:
102,213,76650,6,0,L|88:312,1,95.9999970703126,2|0,0:0|0:0,0:0:0:0:
183,366,77130,2,0,P|228:363|289:323,1,95.9999970703126,8|0,0:0|0:0,0:0:0:0:
301,230,77610,2,0,P|308:161|392:70,2,191.999994140625,2|8|6,0:0|0:0|0:3,0:0:0:0:
256,192,92010,12,8,93450,0:0:0:0:
287,133,93930,5,6,0:3:0:0:
347,216,94170,1,0,0:0:0:0:
272,302,94410,2,0,L|167:310,1,80,8|0,0:0|0:0,0:0:0:0:
93,351,94890,1,2,0:0:0:0:
18,284,95130,1,0,0:0:0:0:
88,203,95370,2,0,P|100:159|94:104,1,80,8|0,0:0|0:0,0:0:0:0:
59,37,95850,5,2,0:0:0:0:
184,71,96090,1,0,0:0:0:0:
250,172,96330,2,0,P|305:188|355:177,1,80,8|0,0:0|0:0,0:0:0:0:
416,135,96810,1,2,0:0:0:0:
310,81,97050,1,0,0:0:0:0:
270,252,97290,2,0,P|263:308|275:341,1,80,8|0,0:0|0:0,0:0:0:0:
391,371,97770,6,0,P|398:315|386:282,1,80,2|0,0:0|0:0,0:0:0:0:
341,198,98250,1,8,0:0:0:0:
416,135,98490,2,0,L|501:128,2,80,0|2|0,0:0|0:0|0:0,0:0:0:0:
313,46,99210,1,8,0:0:0:0:
223,101,99450,1,0,0:0:0:0:
248,215,99690,6,0,P|252:260|233:309,1,80,2|0,0:0|0:0,0:0:0:0:
124,241,100170,2,0,P|120:196|139:147,1,80,8|0,0:0|0:0,0:0:0:0:
223,101,100650,2,0,L|308:94,1,80,2|0,0:0|0:0,0:0:0:0:
248,215,101130,2,0,L|168:221,1,80,8|0,0:0|0:0,0:0:0:0:
59,174,101610,5,2,0:0:0:0:
129,87,101850,1,0,0:0:0:0:
169,222,102090,2,0,P|176:276|156:325,1,80,8|0,0:0|0:0,0:0:0:0:
84,362,102570,1,2,0:0:0:0:
76,263,102810,1,0,0:0:0:0:
223,318,103050,2,0,P|276:336|320:329,1,80,8|0,0:0|0:0,0:0:0:0:
372,266,103530,6,0,L|471:257,1,80,2|0,0:0|0:0,0:0:0:0:
362,179,104010,2,0,L|251:169,1,80,8|0,0:0|0:0,0:0:0:0:
188,220,104490,1,2,0:0:0:0:
243,308,104730,1,0,0:0:0:0:
282,172,104970,2,0,P|292:110|280:70,1,80,8|0,0:0|0:0,0:0:0:0:
198,35,105450,6,0,L|110:29,2,80,2|0|8,0:0|0:0|0:0,0:0:0:0:
290,94,106170,1,0,0:0:0:0:
197,189,106410,2,0,P|159:208|116:210,1,80,2|0,0:0|0:0,0:0:0:0:
36,158,106890,1,8,0:0:0:0:
63,57,107130,1,0,0:0:0:0:
178,71,107370,6,0,L|265:58,1,80,2|0,0:0|0:0,0:0:0:0:
197,189,107850,2,0,L|117:200,1,80,8|0,0:0|0:0,0:0:0:0:
292,149,108330,2,0,L|379:136,1,80,2|0,0:0|0:0,0:0:0:0:
311,267,108810,2,0,L|231:278,1,80,8|0,0:0|0:0,0:0:0:0:
128,217,109290,6,0,P|133:165|159:124,2,80,6|0|8,0:3|0:0|0:0,0:0:0:0:
155,320,110010,1,0,0:0:0:0:
246,233,110250,2,0,P|297:215|325:218,1,80,2|0,0:0|0:0,0:0:0:0:
405,281,110730,1,8,0:0:0:0:
336,366,110970,1,0,0:0:0:0:
236,322,111210,6,0,L|157:321,1,80,2|0,0:0|0:0,0:0:0:0:
66,253,111690,1,8,0:0:0:0:
120,158,111930,1,0,0:0:0:0:
223,187,112170,2,0,P|271:174|297:139,1,80,2|0,0:0|0:0,0:0:0:0:
332,55,112650,1,12,0:3:0:0:
288,264,113130,6,0,P|276:316|285:353,1,80,2|0,0:0|0:0,0:0:0:0:
383,314,113610,1,8,0:0:0:0:
360,194,113850,1,0,0:0:0:0:
288,265,114090,2,0,L|196:275,1,80,2|0,0:0|0:0,0:0:0:0:
116,320,114570,2,0,P|50:313|25:293,1,80,8|0,0:0|0:0,0:0:0:0:
16,206,115050,5,2,0:0:0:0:
109,138,115290,1,0,0:0:0:0:
210,191,115530,2,0,L|290:184,1,80,8|0,0:0|0:0,0:0:0:0:
325,168,115890,2,0,P|314:220|343:298,1,120,2|0,0:0|0:0,0:0:0:0:
406,361,116490,1,12,0:3:0:0:
445,123,116970,6,0,L|456:41,2,80,2|0|8,0:0|0:0|0:0,0:0:0:0:
370,193,117690,1,0,0:0:0:0:
288,126,117930,2,0,P|245:127|205:149,1,80,2|0,0:0|0:0,0:0:0:0:
124,201,118410,2,0,P|79:194|48:174,1,80,8|0,0:0|0:0,0:0:0:0:
25,77,118890,5,2,0:0:0:0:
105,23,119130,1,0,0:0:0:0:
177,94,119370,1,8,0:0:0:0:
257,40,119610,1,0,0:0:0:0:
323,117,119850,2,0,P|330:171|312:215,1,80,2|0,0:0|0:0,0:0:0:0:
258,279,120330,1,12,0:3:0:0:
407,109,120810,6,0,L|495:99,1,80,2|0,0:0|0:0,0:0:0:0:
404,202,121290,2,0,L|306:193,1,80,8|0,0:0|0:0,0:0:0:0:
258,279,121770,2,0,P|255:333|272:366,1,80,2|0,0:0|0:0,0:0:0:0:
359,373,122250,1,8,0:0:0:0:
438,311,122490,1,0,0:0:0:0:
422,208,122730,5,6,0:0:0:0:
258,145,123210,1,12,0:0:0:0:
195,310,123690,1,6,0:0:0:0:
359,373,124170,1,12,0:0:0:0:
237,213,124650,6,0,P|163:180|61:230,1,191.999994140625,6|8,0:0|0:0,0:0:0:0:
35,320,125370,1,0,0:0:0:0:
127,370,125610,2,0,L|222:358,1,95.9999970703126,2|0,0:0|0:0,0:0:0:0:
290,283,126090,2,0,P|334:263|394:275,1,95.9999970703126,8|0,0:0|0:0,0:0:0:0:
445,354,126570,5,2,0:0:0:0:
348,366,126810,1,0,0:0:0:0:
290,283,127050,2,0,P|291:219|324:174,1,95.9999970703126,8|0,0:0|0:0,0:0:0:0:
346,94,127530,2,0,B|352:62|320:33|320:33|271:79|203:82,1,191.999994140625,2|8,0:0|0:0,0:0:0:0:
112,60,128250,1,0,0:0:0:0:
44,149,128490,6,0,P|40:242|116:313,1,191.999994140625,2|8,0:0|0:0,0:0:0:0:
205,332,129210,1,0,0:0:0:0:
291,266,129450,2,0,P|333:240|398:251,1,95.9999970703126,2|0,0:0|0:0,0:0:0:0:
456,335,129930,2,0,L|360:327,1,95.9999970703126,8|0,0:0|0:0,0:0:0:0:
291,266,130410,5,2,0:0:0:0:
339,165,130650,1,0,0:0:0:0:
272,77,130890,2,0,P|224:64|177:76,1,95.9999970703126,8|0,0:0|0:0,0:0:0:0:
63,118,131370,2,0,P|112:179|241:179,1,191.999994140625,2|8,0:0|0:0,0:0:0:0:
339,165,132090,1,0,0:0:0:0:
272,78,132330,6,0,P|230:172|288:265,1,191.999994140625,2|8,0:0|0:0,0:0:0:0:
355,310,133050,1,0,0:0:0:0:
265,248,133290,2,0,P|174:261|117:342,1,191.999994140625,2|8,0:0|0:0,0:0:0:0:
355,310,134250,6,0,L|456:318,2,95.9999970703126,2|0|8,0:0|0:0|0:0,0:0:0:0:
240,104,135210,2,0,P|274:54|410:32,1,191.999994140625,2|8,0:0|0:0,0:0:0:0:
475,98,135930,1,0,0:0:0:0:
475,98,136170,6,0,L|456:306,1,191.999994140625,2|8,0:0|0:0,0:0:0:0:
232,362,137130,2,0,P|230:309|258:258,1,95.9999970703126,2|0,0:0|0:0,0:0:0:0:
324,195,137610,1,8,0:0:0:0:
263,110,137850,2,0,L|54:93,1,191.999994140625
3,175,138570,5,8,0:0:0:0:
62,266,138810,1,0,0:0:0:0:
167,233,139050,2,0,L|267:227,2,95.9999970703126,2|0|8,0:0|0:0|0:0,0:0:0:0:
378,300,140010,6,0,P|402:211|335:110,1,191.999994140625,6|8,0:0|0:0,0:0:0:0:
273,65,140730,1,0,0:0:0:0:
179,124,140970,2,0,L|74:132,1,95.9999970703126,2|0,0:0|0:0,0:0:0:0:
43,232,141450,2,0,L|138:224,1,95.9999970703126,8|0,0:0|0:0,0:0:0:0:
222,292,141930,5,2,0:0:0:0:
315,247,142170,1,0,0:0:0:0:
326,141,142410,2,0,P|317:89|272:56,1,95.9999970703126,8|0,0:0|0:0,0:0:0:0:
231,138,142890,2,0,L|445:146,1,191.999994140625,2|8,0:0|0:0,0:0:0:0:
480,237,143610,1,0,0:0:0:0:
410,323,143850,6,0,P|342:361|230:317,1,191.999994140625,2|8,0:0|0:0,0:0:0:0:
188,237,144570,1,0,0:0:0:0:
232,138,144810,2,0,B|309:124|340:186|340:186|372:153|367:105,1,191.999994140625,2|8,0:0|0:0,0:0:0:0:
312,46,145530,1,0,0:0:0:0:
263,221,145770,6,0,P|259:273|276:321,2,95.9999970703126,2|0|8,0:0|0:0|0:0,0:0:0:0:
446,62,146730,2,0,P|450:124|354:221,1,191.999994140625,2|8,0:0|0:0,0:0:0:0:
263,221,147450,1,0,0:0:0:0:
205,134,147690,2,0,B|179:90|179:90|95:119|115:211,1,191.999994140625,2|8,0:0|0:0,0:0:0:0:
146,307,148410,1,0,0:0:0:0:
257,287,148650,2,0,P|332:282|416:363,1,191.999994140625,2|8,0:0|0:0,0:0:0:0:
147,307,149610,6,0,L|121:197,2,95.9999970703126,2|0|8,0:0|0:0|0:0,0:0:0:0:
45,113,150570,2,0,P|108:148|223:130,1,191.999994140625,2|8,0:0|0:0,0:0:0:0:
289,50,151290,1,0,0:0:0:0:
376,129,151530,6,0,L|394:235,1,95.9999970703126,2|0,0:0|0:0,0:0:0:0:
280,288,152010,2,0,P|280:234|305:187,1,95.9999970703126,8|0,0:0|0:0,0:0:0:0:
461,182,152490,2,0,B|506:108|445:52|445:52|368:38,1,191.999994140625,2|8,0:0|0:0,0:0:0:0:
305,101,153210,1,0,0:0:0:0:
221,175,153450,2,0,P|217:235|241:281,1,95.9999970703126,2|0,0:0|0:0,0:0:0:0:
315,193,153930,2,0,P|319:133|295:87,1,95.9999970703126,8|0,0:0|0:0,0:0:0:0:
207,47,154410,2,0,L|14:33,2,191.999994140625,2|8|6,0:0|0:0|0:0,0:0:0:0:
306,100,155610,6,0,L|360:97,2,40,0|0|8,0:0|0:0|0:0,0:0:0:0:
240,171,156090,1,0,0:0:0:0:
249,269,156330,2,0,P|260:316|294:352,1,80,2|0,0:0|0:0,0:0:0:0:
339,266,156810,2,0,P|351:213|344:174,1,80,8|0,0:0|0:0,0:0:0:0:
240,171,157290,5,2,0:0:0:0:
154,237,157530,2,0,L|154:291,2,40,0|0|8,0:0|0:0|0:0,0:0:0:0:
64,192,158010,1,0,0:0:0:0:
129,97,158250,2,0,L|218:100,1,80,2|0,0:0|0:0,0:0:0:0:
288,168,158730,2,0,P|328:189|373:178,1,80,8|0,0:0|0:0,0:0:0:0:
441,115,159210,5,2,0:0:0:0:
366,54,159450,2,0,L|360:2,2,40,0|0|8,0:0|0:0|0:0,0:0:0:0:
362,185,159930,1,0,0:0:0:0:
298,251,160170,2,0,L|288:343,1,80,2|0,0:0|0:0,0:0:0:0:
374,291,160650,2,0,L|364:383,1,80,8|0,0:0|0:0,0:0:0:0:
449,329,161130,5,2,0:0:0:0:
492,235,161370,1,0,0:0:0:0:
492,235,161490,1,0,0:0:0:0:
492,235,161610,2,0,P|499:178|486:146,1,80,8|0,0:0|0:0,0:0:0:0:
406,100,162090,2,0,L|307:91,1,80,2|0,0:0|0:0,0:0:0:0:
272,186,162570,2,0,L|369:178,1,80,8|0,0:0|0:0,0:0:0:0:
420,250,163050,5,2,0:0:0:0:
345,322,163290,2,0,L|364:378,2,40,0|0|8,0:0|0:0|0:0,0:0:0:0:
243,312,163770,1,0,0:0:0:0:
179,233,164010,2,0,P|182:181|210:140,1,80,2|0,0:0|0:0,0:0:0:0:
292,117,164490,2,0,P|292:73|269:33,1,80,8|0,0:0|0:0,0:0:0:0:
179,22,164970,5,2,0:0:0:0:
96,93,165210,2,0,L|47:98,2,40,0|0|8,0:0|0:0|0:0,0:0:0:0:
145,181,165690,1,0,0:0:0:0:
235,131,165930,2,0,P|283:116|329:127,1,80,2|0,0:0|0:0,0:0:0:0:
365,204,166410,2,0,P|317:219|271:208,1,80,8|0,0:0|0:0,0:0:0:0:
197,260,166890,5,0,0:0:0:0:
268,333,167130,2,0,L|260:385,2,40,0|0|8,0:0|0:0|0:0,0:0:0:0:
372,301,167610,1,0,0:0:0:0:
430,207,167850,2,0,L|413:107,1,80,2|0,0:0|0:0,0:0:0:0:
335,173,168330,2,0,L|318:73,1,80,8|0,0:0|0:0,0:0:0:0:
237,37,168810,5,2,0:0:0:0:
179,130,169050,1,0,0:0:0:0:
179,130,169170,1,0,0:0:0:0:
179,130,169290,2,0,P|162:172|173:220,1,80,8|0,0:0|0:0,0:0:0:0:
234,296,169770,1,10,0:0:0:0:
234,296,170010,1,8,0:0:0:0:
333,256,170250,2,0,L|377:255,3,40,8|8|8|8,0:0|0:0|0:0|0:0,0:0:0:0:
404,244,170730,6,0,P|440:186|393:56,1,191.999994140625,6|8,0:0|0:0,0:0:0:0:
317,34,171450,1,0,0:0:0:0:
240,106,171690,2,0,L|132:118,1,95.9999970703126,2|0,0:0|0:0,0:0:0:0:
217,206,172170,2,0,P|266:230|325:225,1,95.9999970703126,8|0,0:0|0:0,0:0:0:0:
398,196,172650,5,2,0:0:0:0:
332,119,172890,1,0,0:0:0:0:
399,37,173130,2,0,L|500:30,1,95.9999970703126,8|0,0:0|0:0,0:0:0:0:
461,132,173610,2,0,B|439:194|474:255|474:255|457:298|405:285,1,191.999994140625,2|8,0:0|0:0,0:0:0:0:
327,255,174330,1,0,0:0:0:0:
223,275,174570,6,0,B|170:296|152:356|152:356|105:335|98:291,1,191.999994140625,2|8,0:0|0:0,0:0:0:0:
120,201,175290,1,0,0:0:0:0:
216,144,175530,2,0,L|313:147,1,95.9999970703126,2|0,0:0|0:0,0:0:0:0:
374,63,176010,2,0,L|278:60,1,95.9999970703126,8|0,0:0|0:0,0:0:0:0:
228,222,176490,5,2,0:0:0:0:
304,304,176730,1,0,0:0:0:0:
401,245,176970,2,0,P|428:193|415:143,1,95.9999970703126,8|0,0:0|0:0,0:0:0:0:
374,63,177450,2,0,L|171:55,1,191.999994140625,2|8,0:0|0:0,0:0:0:0:
103,120,178170,1,0,0:0:0:0:
168,204,178410,6,0,P|189:262|85:362,1,191.999994140625,2|8,0:0|0:0,0:0:0:0:
24,337,179130,1,0,0:0:0:0:
97,271,179370,2,0,L|296:308,1,191.999994140625,2|8,0:0|0:0,0:0:0:0:
466,151,180330,6,0,P|482:97|464:36,2,95.9999970703126,2|0|8,0:0|0:0|0:0,0:0:0:0:
210,121,181290,2,0,P|94:122|49:196,1,191.999994140625,2|8,0:0|0:0,0:0:0:0:
73,273,182010,1,0,0:0:0:0:
149,344,182250,6,0,B|186:379|186:379|226:342|216:279|216:279|254:257,1,191.999994140625,2|8,0:0|0:0,0:0:0:0:
447,148,183210,2,0,P|439:82|394:36,1,95.9999970703126,2|0,0:0|0:0,0:0:0:0:
322,38,183690,1,8,0:0:0:0:
254,134,183930,2,0,P|169:200|60:180,1,191.999994140625
16,105,184650,5,8,0:0:0:0:
97,23,184890,1,0,0:0:0:0:
149,146,185130,2,0,L|135:248,2,95.9999970703126,2|0|8,0:0|0:0|0:0,0:0:0:0:
393,42,186090,6,0,P|443:77|428:222,1,191.999994140625,6|8,0:0|0:0,0:0:0:0:
376,278,186810,1,0,0:0:0:0:
286,218,187050,2,0,L|274:111,1,95.9999970703126,2|0,0:0|0:0,0:0:0:0:
180,210,187530,2,0,L|161:333,1,95.9999970703126,8|0,0:0|0:0,0:0:0:0:
90,375,188010,5,2,0:0:0:0:
70,269,188250,1,0,0:0:0:0:
246,274,188490,2,0,P|294:284|337:334,1,95.9999970703126,8|0,0:0|0:0,0:0:0:0:
431,294,188970,2,0,P|453:216|394:108,1,191.999994140625,2|8,0:0|0:0,0:0:0:0:
314,64,189690,1,0,0:0:0:0:
236,147,189930,6,0,L|23:160,1,191.999994140625,2|8,0:0|0:0,0:0:0:0:
3,256,190650,1,0,0:0:0:0:
107,225,190890,2,0,B|151:151|98:95|98:95|172:67,1,191.999994140625,2|8,0:0|0:0,0:0:0:0:
246,45,191610,1,0,0:0:0:0:
339,118,191850,6,0,L|441:127,2,95.9999970703126,2|0|8,0:0|0:0|0:0,0:0:0:0:
204,292,192810,2,0,P|249:357|370:336,1,191.999994140625,2|8,0:0|0:0,0:0:0:0:
433,271,193530,1,0,0:0:0:0:
340,193,193770,6,0,L|144:208,1,191.999994140625,2|8,0:0|0:0,0:0:0:0:
56,273,194490,1,0,0:0:0:0:
15,170,194730,2,0,P|28:104|156:46,1,191.999994140625,2|8,0:0|0:0,0:0:0:0:
225,271,195690,6,0,L|233:373,2,95.9999970703126,2|0|8,0:0|0:0|0:0,0:0:0:0:
298,59,196650,2,0,B|363:29|424:76|424:76|433:118|420:154,1,191.999994140625,2|8,0:0|0:0,0:0:0:0:
369,219,197370,1,0,0:0:0:0:
384,310,197610,6,0,P|436:337|495:317,1,95.9999970703126,2|0,0:0|0:0,0:0:0:0:
369,219,198090,2,0,P|317:242|296:299,1,95.9999970703126,8|0,0:0|0:0,0:0:0:0:
218,353,198570,2,0,P|125:344|66:260,1,191.999994140625,2|8,0:0|0:0,0:0:0:0:
110,164,199290,1,0,0:0:0:0:
198,223,199530,6,0,L|391:232,1,191.999994140625,2|8,0:0|0:0,0:0:0:0:
472,302,200250,1,0,0:0:0:0:
493,184,200490,2,0,P|492:138|469:90,2,95.9999970703126,2|0|8,0:0|0:0|0:0,0:0:0:0:
343,349,201450,5,2,0:0:0:0:
246,308,201690,1,0,0:0:0:0:
302,209,201930,2,0,P|315:162|297:112,1,80,8|0,0:0|0:0,0:0:0:0:
232,62,202410,2,0,L|138:51,2,80,2|0|8,0:0|0:0|0:0,0:0:0:0:
115,243,203370,5,2,0:0:0:0:
189,324,203610,1,0,0:0:0:0:
275,246,203850,2,0,L|371:240,1,80,8|0,0:0|0:0,0:0:0:0:
442,181,204330,2,0,P|457:136|444:87,2,80,2|0|8,0:0|0:0|0:0,0:0:0:0:
208,91,205290,5,2,0:0:0:0:
117,154,205530,1,0,0:0:0:0:
180,248,205770,2,0,P|193:291|174:341,1,80,8|0,0:0|0:0,0:0:0:0:
101,369,206250,2,0,P|88:326|107:276,2,80,2|0|8,0:0|0:0|0:0,0:0:0:0:
322,307,207210,5,2,0:0:0:0:
271,223,207450,1,0,0:0:0:0:
359,147,207690,2,0,L|369:61,1,80,8|0,0:0|0:0,0:0:0:0:
279,19,208170,2,0,P|231:21|176:44,2,80,2|0|8,0:0|0:0|0:0,0:0:0:0:
