osu file format v13

[General]
AudioFilename: xiaopingguo.mp3
AudioLeadIn: 0
PreviewTime: 47850
Countdown: 0
SampleSet: Soft
StackLeniency: 0.7
Mode: 0
LetterboxInBreaks: 1
WidescreenStoryboard: 0

[Editor]
Bookmarks: 131250
DistanceSpacing: 1.2
BeatDivisor: 4
GridSize: 4
TimelineZoom: 1

[Metadata]
Title:Xiao Ping Guo
TitleUnicode:小苹果
Artist:Chopsticks Bro.
ArtistUnicode:筷子兄弟
Creator:EmingK
Version:Apple
Source:
Tags:Kuai Zi Xiong Di 肖央 王太利 老男孩猛龙过江
BeatmapID:441319
BeatmapSetID:184327

[Difficulty]
HPDrainRate:7
CircleSize:4
OverallDifficulty:7.5
ApproachRate:8.2
SliderMultiplier:2
SliderTickRate:1

[Events]
//Background and Video events
0,0,"bg.jpg",0,0
//Break Periods
2,78769,91290
//Storyboard Layer 0 (Background)
//Storyboard Layer 1 (Fail)
//Storyboard Layer 2 (Pass)
//Storyboard Layer 3 (Foreground)
//Storyboard Sound Samples
//Background Colour Transformations
3,100,163,162,255

[TimingPoints]
1770,480,4,2,1,50,1,0
2370,-100,4,2,1,10,0,0
2490,-100,4,2,1,50,0,0
6210,-100,4,2,1,10,0,0
6330,-100,4,2,1,50,0,0
13890,-100,4,2,1,10,0,0
14010,-100,4,2,1,50,0,0
17010,-100,4,2,1,10,0,0
17130,-100,4,2,1,60,0,0
32490,-100,4,2,1,70,0,0
47850,-83.3333333333333,4,2,1,80,0,1
61890,-83.3333333333333,4,2,1,10,0,1
62010,-83.3333333333333,4,2,1,80,0,1
62130,-83.3333333333333,4,2,1,10,0,1
62250,-83.3333333333333,4,2,1,80,0,1
62370,-83.3333333333333,4,2,1,10,0,1
62490,-83.3333333333333,4,2,1,80,0,1
62610,-83.3333333333333,4,2,1,10,0,1
62730,-83.3333333333333,4,2,1,80,0,1
78570,-100,4,2,1,60,0,0
109290,-100,4,2,1,70,0,0
124650,-83.3333333333333,4,2,1,80,0,1
138690,-83.3333333333333,4,2,1,10,0,1
138810,-83.3333333333333,4,2,1,80,0,1
138930,-83.3333333333333,4,2,1,10,0,1
139050,-83.3333333333333,4,2,1,80,0,1
139170,-83.3333333333333,4,2,1,10,0,1
139290,-83.3333333333333,4,2,1,80,0,1
139410,-83.3333333333333,4,2,1,10,0,1
139530,-83.3333333333333,4,2,1,80,0,1
155370,-100,4,2,1,70,0,0
170730,-83.3333333333333,4,2,1,80,0,1
184770,-83.3333333333333,4,2,1,10,0,1
184890,-83.3333333333333,4,2,1,80,0,1
185010,-83.3333333333333,4,2,1,10,0,1
185130,-83.3333333333333,4,2,1,80,0,1
185250,-83.3333333333333,4,2,1,10,0,1
185370,-83.3333333333333,4,2,1,80,0,1
185490,-83.3333333333333,4,2,1,10,0,1
185610,-83.3333333333333,4,2,1,80,0,1
201450,-100,4,2,1,60,0,0

[HitObjects]
224,318,1770,5,2,0:0:0:0:
321,135,2010,1,0,0:0:0:0:
441,284,2250,2,0,L|510:280,1,50,8|0,0:0|0:0,0:0:0:0:
441,284,2490,1,0,0:0:0:0:
374,255,2610,2,0,P|314:239|233:287,1,150
400,359,3210,1,8,0:0:0:0:
321,135,3450,1,0,0:0:0:0:
174,69,3690,6,0,L|63:83,1,100,2|0,0:0|0:0,0:0:0:0:
10,213,4170,1,8,0:0:0:0:
248,258,4410,1,0,0:0:0:0:
248,258,4890,1,0,0:0:0:0:
174,69,5130,2,0,L|63:83,1,100,8|0,0:0|0:0,0:0:0:0:
152,214,5610,5,2,0:0:0:0:
287,57,5850,1,0,0:0:0:0:
428,173,6090,2,0,L|489:168,1,50,8|0,0:0|0:0,0:0:0:0:
428,173,6330,1,0,0:0:0:0:
373,220,6450,2,0,P|363:295|410:360,1,150
481,222,7050,1,8,0:0:0:0:
285,154,7290,1,0,0:0:0:0:
152,214,7530,6,0,P|94:203|49:167,1,100,2|0,0:0|0:0,0:0:0:0:
221,90,8010,1,8,0:0:0:0:
275,311,8250,1,0,0:0:0:0:
275,311,8730,1,0,0:0:0:0:
383,203,8970,2,0,L|503:225,1,100,8|0,0:0|0:0,0:0:0:0:
354,72,9450,6,0,P|281:67|250:81,1,100,2|0,0:0|0:0,0:0:0:0:
221,90,9810,1,0,0:0:0:0:
191,113,9930,2,0,L|85:104,1,100,8|0,0:0|0:0,0:0:0:0:
176,302,10410,2,0,L|275:310,1,100,2|0,0:0|0:0,0:0:0:0:
423,372,10890,1,8,0:0:0:0:
339,196,11130,1,0,0:0:0:0:
192,209,11370,5,2,0:0:0:0:
107,346,11610,1,0,0:0:0:0:
25,210,11850,2,0,P|33:153|68:97,1,100,8|0,0:0|0:0,0:0:0:0:
52,115,12570,1,0,0:0:0:0:
174,54,12810,2,0,L|279:58,1,100,8|0,0:0|0:0,0:0:0:0:
392,116,13290,5,2,0:0:0:0:
192,210,13530,1,0,0:0:0:0:
394,269,13770,2,0,L|444:288,1,50,8|0,0:0|0:0,0:0:0:0:
394,269,14010,1,0,0:0:0:0:
322,278,14130,2,0,P|273:293|224:384,1,150
416,353,14730,1,8,0:0:0:0:
345,179,14970,1,0,0:0:0:0:
183,243,15210,6,0,L|69:233,1,100,2|0,0:0|0:0,0:0:0:0:
29,113,15690,1,8,0:0:0:0:
239,42,15930,1,0,0:0:0:0:
239,42,16410,1,0,0:0:0:0:
323,175,16650,2,0,B|352:211|346:252|346:252|341:282|295:274|302:241|331:242,1,150,8|0,0:0|0:0,0:0:0:0:
410,260,17130,5,6,0:3:0:0:
268,354,17370,1,0,0:0:0:0:
154,252,17610,2,0,P|144:192|157:146,1,100,8|0,0:0|0:0,0:0:0:0:
239,42,18090,1,2,0:0:0:0:
323,175,18330,1,0,0:0:0:0:
154,252,18570,2,0,L|50:244,1,100,8|0,0:0|0:0,0:0:0:0:
230,138,19050,5,2,0:0:0:0:
388,67,19290,1,0,0:0:0:0:
468,237,19530,2,0,P|462:295|423:342,1,100,8|0,0:0|0:0,0:0:0:0:
263,277,20010,1,2,0:0:0:0:
346,147,20250,1,0,0:0:0:0:
310,356,20490,2,0,P|246:366|200:342,1,100,8|0,0:0|0:0,0:0:0:0:
114,238,20970,5,2,0:0:0:0:
63,70,21210,1,0,0:0:0:0:
114,238,21450,1,8,0:0:0:0:
237,152,21690,1,0,0:0:0:0:
114,238,21930,2,0,P|54:261|1:249,1,100,2|0,0:0|0:0,0:0:0:0:
139,68,22410,1,8,0:0:0:0:
237,152,22650,1,0,0:0:0:0:
154,331,22890,5,2,0:0:0:0:
289,264,23130,1,0,0:0:0:0:
289,264,23250,1,0,0:0:0:0:
289,264,23370,2,0,P|352:247|405:265,1,100,8|0,0:0|0:0,0:0:0:0:
477,318,23850,2,0,L|453:206,1,100,2|0,0:0|0:0,0:0:0:0:
401,160,24210,1,0,0:0:0:0:
401,160,24330,2,0,L|416:41,1,100,8|0,0:0|0:0,0:0:0:0:
307,172,24810,6,0,P|254:195|206:189,1,100,2|0,0:0|0:0,0:0:0:0:
161,36,25290,1,8,0:0:0:0:
349,95,25530,1,0,0:0:0:0:
300,277,25770,1,2,0:0:0:0:
181,346,26010,1,0,0:0:0:0:
76,245,26250,2,0,P|69:183|98:131,1,100,8|0,0:0|0:0,0:0:0:0:
207,94,26730,6,0,P|214:156|185:208,1,100,2|0,0:0|0:0,0:0:0:0:
65,313,27210,1,8,0:0:0:0:
82,149,27450,1,0,0:0:0:0:
198,273,27690,1,2,0:0:0:0:
311,164,27930,1,0,0:0:0:0:
438,248,28170,2,0,P|431:307|385:349,1,100,8|0,0:0|0:0,0:0:0:0:
273,370,28650,5,2,0:0:0:0:
326,236,28890,2,0,L|376:223,1,50
326,236,29130,2,0,P|266:228|228:201,1,100,8|0,0:0|0:0,0:0:0:0:
321,100,29610,1,2,0:0:0:0:
159,46,29850,1,0,0:0:0:0:
42,159,30090,2,0,P|23:212|34:261,1,100,8|0,0:0|0:0,0:0:0:0:
127,349,30570,5,2,0:0:0:0:
187,181,30810,1,0,0:0:0:0:
187,358,31050,1,8,0:0:0:0:
187,181,31290,1,0,0:0:0:0:
247,347,31530,1,2,0:0:0:0:
187,181,31770,1,0,0:0:0:0:
300,316,32010,1,8,0:0:0:0:
187,181,32250,1,0,0:0:0:0:
284,69,32490,6,0,L|386:62,1,100,6|0,0:3|0:0,0:0:0:0:
457,190,32970,1,8,0:0:0:0:
312,163,33210,1,0,0:0:0:0:
200,254,33450,2,0,P|179:305|184:358,1,100,2|0,0:0|0:0,0:0:0:0:
297,251,33930,1,8,0:0:0:0:
221,98,34170,1,0,0:0:0:0:
111,234,34410,2,0,L|4:246,1,100,2|0,0:0|0:0,0:0:0:0:
84,145,34890,2,0,L|183:133,1,100,8|0,0:0|0:0,0:0:0:0:
221,98,35250,2,0,P|277:66|368:109,1,150,0|0,0:0|0:0,0:0:0:0:
431,272,35850,5,12,0:3:0:0:
478,160,36090,1,0,0:0:0:0:
307,190,36330,6,0,P|254:219|230:263,1,100,2|0,0:0|0:0,0:0:0:0:
432,272,36810,1,8,0:0:0:0:
322,98,37050,1,0,0:0:0:0:
284,318,37290,1,2,0:0:0:0:
159,344,37530,1,0,0:0:0:0:
54,262,37770,2,0,P|43:206|67:143,1,100,8|0,0:0|0:0,0:0:0:0:
163,35,38250,5,2,0:0:0:0:
322,98,38490,1,0,0:0:0:0:
176,84,38730,1,8,0:0:0:0:
354,57,38970,1,0,0:0:0:0:
469,160,39210,2,0,P|480:216|456:279,1,100,2|0,0:0|0:0,0:0:0:0:
332,352,39690,5,12,0:3:0:0:
231,254,39930,1,0,0:0:0:0:
292,135,40170,6,0,L|406:119,1,100,2|0,0:0|0:0,0:0:0:0:
231,254,40650,2,0,L|131:267,1,100,8|0,0:0|0:0,0:0:0:0:
30,175,41130,1,2,0:0:0:0:
142,43,41370,1,0,0:0:0:0:
292,135,41610,2,0,P|292:202|261:249,1,100,8|0,0:0|0:0,0:0:0:0:
158,347,42090,5,2,0:0:0:0:
172,167,42330,1,0,0:0:0:0:
322,67,42570,2,0,L|422:59,1,100,8|0,0:0|0:0,0:0:0:0:
479,103,42930,2,0,P|499:159|456:255,1,150
332,319,43530,5,12,0:3:0:0:
367,169,43770,1,0,0:0:0:0:
223,71,44010,6,0,L|106:65,1,100,2|0,0:0|0:0,0:0:0:0:
19,182,44490,1,8,0:0:0:0:
170,286,44730,1,0,0:0:0:0:
268,178,44970,2,0,L|392:166,1,100,2|0,0:0|0:0,0:0:0:0:
488,268,45450,1,8,0:0:0:0:
339,355,45690,1,0,0:0:0:0:
221,180,45930,6,0,B|199:163|165:163|131:196|142:230|233:264|142:298|210:332|255:287|255:287|300:332|357:298|278:264|357:230|368:196|334:163|300:163|277:180|277:180|255:196|255:196|247:133|283:95,1,600,2|12,0:0|0:0,0:0:0:0:
268,113,47850,6,0,B|201:63|130:92|130:92|140:122|176:134,1,179.999994506836,6|0,0:0|0:0,0:0:0:0:
232,176,48330,2,0,L|366:170,1,119.999996337891,8|0,0:0|0:0,0:0:0:0:
422,228,48690,1,0,0:0:0:0:
422,228,48810,2,0,B|419:249|397:265|397:265|373:204|408:131,1,179.999994506836,2|0,0:0|0:0,0:0:0:0:
359,80,49290,2,0,L|239:85,1,119.999996337891,8|0,0:0|0:0,0:0:0:0:
140,216,49770,5,2,0:0:0:0:
55,39,50010,1,0,0:0:0:0:
140,216,50250,1,8,0:0:0:0:
239,85,50490,1,0,0:0:0:0:
352,243,50730,2,0,P|354:311|315:358,1,119.999996337891,2|0,0:0|0:0,0:0:0:0:
270,280,51090,1,0,0:0:0:0:
270,280,51210,2,0,L|402:273,1,119.999996337891,8|0,0:0|0:0,0:0:0:0:
446,95,51690,6,0,B|396:40|339:55|339:55|334:90|313:107,1,179.999994506836,2|0,0:0|0:0,0:0:0:0:
246,131,52170,2,0,L|119:138,1,119.999996337891,8|0,0:0|0:0,0:0:0:0:
107,206,52530,1,0,0:0:0:0:
107,206,52650,2,0,P|168:195|172:82,1,179.999994506836,2|0,0:0|0:0,0:0:0:0:
133,35,53130,2,0,L|13:41,1,119.999996337891,8|0,0:0|0:0,0:0:0:0:
127,137,53610,5,2,0:0:0:0:
332,49,53850,1,0,0:0:0:0:
419,213,54090,2,0,P|356:245|291:228,1,119.999996337891,8|0,0:0|0:0,0:0:0:0:
249,191,54450,1,0,0:0:0:0:
249,191,54570,2,0,L|114:199,1,119.999996337891,2|0,0:0|0:0,0:0:0:0:
12,309,55050,5,8,0:0:0:0:
204,373,55290,1,0,0:0:0:0:
348,251,55530,2,0,P|365:183|338:123,1,119.999996337891,2|0,0:0|0:0,0:0:0:0:
301,78,55890,1,0,0:0:0:0:
301,78,56010,2,0,L|432:89,1,119.999996337891,8|0,0:0|0:0,0:0:0:0:
458,264,56490,2,0,B|452:317|452:317|405:384|332:366,1,179.999994506836,2|0,0:0|0:0,0:0:0:0:
283,333,56970,1,8,0:0:0:0:
101,366,57210,1,0,0:0:0:0:
227,195,57450,6,0,L|354:185,1,119.999996337891,2|0,0:0|0:0,0:0:0:0:
228,64,57930,2,0,P|159:44|97:74,1,119.999996337891,8|0,0:0|0:0,0:0:0:0:
59,114,58290,1,0,0:0:0:0:
59,114,58410,2,0,B|35:187|35:187|48:239,2,119.999996337891,2|0|8,0:0|0:0|0:0,0:0:0:0:
325,149,59130,5,0,0:0:0:0:
286,293,59370,2,0,P|209:343|116:315,1,179.999994506836,2|0,0:0|0:0,0:0:0:0:
77,273,59850,2,0,B|60:252|60:252|176:245,1,119.999996337891,8|0,0:0|0:0,0:0:0:0:
218,205,60210,1,0,0:0:0:0:
218,205,60330,2,0,P|242:140|228:88,1,119.999996337891,2|0,0:0|0:0,0:0:0:0:
80,50,60810,1,8,0:0:0:0:
154,246,61050,1,0,0:0:0:0:
158,251,61170,1,0,0:0:0:0:
162,256,61290,2,0,P|213:300|327:295,1,179.999994506836,2|0,0:0|0:0,0:0:0:0:
379,251,61770,6,0,L|370:183,1,59.9999981689454,8|0,0:0|0:0,0:0:0:0:
408,222,62010,2,0,L|376:161,1,59.9999981689454
426,181,62250,2,0,L|375:134,1,59.9999981689454,2|2,0:0|0:0,0:0:0:0:
429,135,62490,2,0,L|365:108,1,59.9999981689454
417,92,62730,2,0,P|348:114|281:91,1,119.999996337891,8|0,0:0|0:0,0:0:0:0:
121,66,63210,6,0,B|61:60|61:60|10:116|50:177,1,179.999994506836,6|0,0:0|0:0,0:0:0:0:
105,215,63690,2,0,B|145:247|183:189|236:224,1,119.999996337891,8|0,0:0|0:0,0:0:0:0:
289,246,64050,1,0,0:0:0:0:
289,246,64170,2,0,B|304:214|291:181|291:181|341:185|377:262,1,179.999994506836,2|0,0:0|0:0,0:0:0:0:
332,317,64650,2,0,P|282:355|211:348,1,119.999996337891,8|0,0:0|0:0,0:0:0:0:
167,211,65130,5,2,0:0:0:0:
32,355,65370,1,0,0:0:0:0:
167,211,65610,1,8,0:0:0:0:
226,354,65850,1,0,0:0:0:0:
288,191,66090,2,0,P|299:115|273:57,1,119.999996337891,2|0,0:0|0:0,0:0:0:0:
215,34,66450,1,0,0:0:0:0:
215,34,66570,2,0,L|72:27,1,119.999996337891,8|0,0:0|0:0,0:0:0:0:
211,146,67050,6,0,P|279:162|386:110,1,179.999994506836,2|0,0:0|0:0,0:0:0:0:
433,71,67530,2,0,L|421:197,1,119.999996337891,8|0,0:0|0:0,0:0:0:0:
442,264,67890,1,0,0:0:0:0:
442,264,68010,2,0,B|380:260|349:330|349:330|307:282,1,179.999994506836,2|0,0:0|0:0,0:0:0:0:
250,244,68490,2,0,P|187:248|137:297,1,119.999996337891,8|0,0:0|0:0,0:0:0:0:
292,350,68970,5,2,0:0:0:0:
218,151,69210,1,0,0:0:0:0:
373,113,69450,2,0,P|424:145|448:210,1,119.999996337891,8|0,0:0|0:0,0:0:0:0:
413,267,69810,1,0,0:0:0:0:
413,267,69930,2,0,L|279:280,1,119.999996337891,2|0,0:0|0:0,0:0:0:0:
218,151,70410,5,8,0:0:0:0:
295,53,70650,1,0,0:0:0:0:
266,250,70890,2,0,P|204:283|89:259,1,179.999994506836,2|0,0:0|0:0,0:0:0:0:
40,214,71370,1,8,0:0:0:0:
225,81,71610,1,0,0:0:0:0:
266,250,71850,2,0,L|255:371,1,119.999996337891,2|0,0:0|0:0,0:0:0:0:
341,345,72210,1,0,0:0:0:0:
341,345,72330,2,0,L|351:225,1,119.999996337891,8|0,0:0|0:0,0:0:0:0:
299,48,72810,5,2,0:0:0:0:
141,233,73050,1,0,0:0:0:0:
184,133,73290,2,0,P|251:116|317:145,1,119.999996337891,8|0,0:0|0:0,0:0:0:0:
363,180,73650,1,0,0:0:0:0:
363,180,73770,2,0,L|492:171,1,119.999996337891,2|0,0:0|0:0,0:0:0:0:
437,60,74250,1,8,0:0:0:0:
371,283,74490,5,0,0:0:0:0:
239,251,74730,2,0,P|146:254|82:328,1,179.999994506836,2|0,0:0|0:0,0:0:0:0:
33,363,75210,2,0,L|47:238,1,119.999996337891,8|0,0:0|0:0,0:0:0:0:
206,108,75690,2,0,P|261:155|317:149,1,119.999996337891,2|0,0:0|0:0,0:0:0:0:
281,77,76050,1,0,0:0:0:0:
281,77,76170,2,0,L|154:71,1,119.999996337891,8|0,0:0|0:0,0:0:0:0:
51,205,76650,6,0,B|57:269|120:286|120:286|139:258|174:246,1,179.999994506836,2|0,0:0|0:0,0:0:0:0:
240,219,77130,2,0,P|299:208|355:236,1,119.999996337891,8|0,0:0|0:0,0:0:0:0:
228,346,77610,2,0,P|169:357|113:329,1,119.999996337891,2|0,0:0|0:0,0:0:0:0:
69,273,77970,1,0,0:0:0:0:
69,273,78090,2,0,L|54:141,2,119.999996337891,8|0|6,0:0|0:0|0:3,0:0:0:0:
256,192,92010,12,8,93450,0:0:0:0:
296,138,93930,5,6,0:3:0:0:
391,301,94170,1,0,0:0:0:0:
249,274,94410,2,0,P|173:283|150:303,1,100,8|0,0:0|0:0,0:0:0:0:
313,348,94890,1,2,0:0:0:0:
392,204,95130,1,0,0:0:0:0:
268,48,95370,2,0,P|192:57|169:77,1,100,8|0,0:0|0:0,0:0:0:0:
306,216,95850,5,2,0:0:0:0:
419,129,96090,1,0,0:0:0:0:
453,317,96330,2,0,P|381:315|338:290,1,100,8|0,0:0|0:0,0:0:0:0:
231,259,96810,1,2,0:0:0:0:
114,337,97050,1,0,0:0:0:0:
37,217,97290,2,0,L|52:107,1,100,8|0,0:0|0:0,0:0:0:0:
235,100,97770,6,0,P|199:140|141:157,1,100,2|0,0:0|0:0,0:0:0:0:
195,23,98250,1,8,0:0:0:0:
338,109,98490,1,0,0:0:0:0:
241,223,98730,2,0,P|239:279|259:326,1,100,2|0,0:0|0:0,0:0:0:0:
390,372,99210,1,8,0:0:0:0:
485,261,99450,1,0,0:0:0:0:
313,170,99690,6,0,L|213:167,1,100,2|0,0:0|0:0,0:0:0:0:
100,255,100170,1,8,0:0:0:0:
243,352,100410,1,0,0:0:0:0:
361,231,100650,2,0,L|343:116,1,100,2|0,0:0|0:0,0:0:0:0:
450,40,101130,1,8,0:0:0:0:
426,177,101370,1,0,0:0:0:0:
265,268,101610,5,2,0:0:0:0:
238,131,101850,1,0,0:0:0:0:
112,70,102090,2,0,P|60:82|27:116,1,100,8|0,0:0|0:0,0:0:0:0:
164,198,102570,1,2,0:0:0:0:
292,51,102810,1,0,0:0:0:0:
389,156,103050,2,0,L|378:258,1,100,8|0,0:0|0:0,0:0:0:0:
224,349,103530,5,2,0:0:0:0:
114,272,103770,1,0,0:0:0:0:
218,161,104010,2,0,L|327:156,1,100,8|0,0:0|0:0,0:0:0:0:
263,274,104490,1,2,0:0:0:0:
169,78,104730,1,0,0:0:0:0:
45,182,104970,2,0,P|25:237|39:294,1,100,8|0,0:0|0:0,0:0:0:0:
180,364,105450,5,2,0:0:0:0:
308,203,105690,1,0,0:0:0:0:
460,261,105930,2,0,P|403:280|352:268,1,100,8|0,0:0|0:0,0:0:0:0:
283,135,106410,2,0,L|171:143,1,100,2|0,0:0|0:0,0:0:0:0:
270,268,106890,1,8,0:0:0:0:
417,156,107130,1,0,0:0:0:0:
279,38,107370,6,0,P|273:102|288:143,1,100,2|0,0:0|0:0,0:0:0:0:
422,253,107850,2,0,P|428:189|413:148,1,100,8|0,0:0|0:0,0:0:0:0:
132,150,108330,2,0,P|126:214|141:255,1,100,2|0,0:0|0:0,0:0:0:0:
275,365,108810,2,0,P|281:301|266:260,1,100,8|0,0:0|0:0,0:0:0:0:
141,322,109290,5,6,0:3:0:0:
46,202,109530,1,0,0:0:0:0:
180,82,109770,2,0,L|283:77,1,100,8|0,0:0|0:0,0:0:0:0:
424,186,110250,1,2,0:0:0:0:
318,291,110490,1,0,0:0:0:0:
330,140,110730,1,8,0:0:0:0:
414,331,110970,1,0,0:0:0:0:
243,358,111210,6,0,P|182:349|134:309,1,100,2|0,0:0|0:0,0:0:0:0:
320,215,111690,1,8,0:0:0:0:
358,368,111930,1,0,0:0:0:0:
458,218,112170,2,0,P|470:156|448:96,1,100,2|0,0:0|0:0,0:0:0:0:
319,43,112650,5,12,0:3:0:0:
237,167,112890,1,0,0:0:0:0:
274,297,113130,6,0,L|382:299,1,100,2|0,0:0|0:0,0:0:0:0:
238,167,113610,2,0,L|138:165,1,100,8|0,0:0|0:0,0:0:0:0:
197,288,114090,1,2,0:0:0:0:
260,91,114330,1,0,0:0:0:0:
361,161,114570,2,0,P|368:222|339:270,1,100,8|0,0:0|0:0,0:0:0:0:
239,360,115050,5,2,0:0:0:0:
157,226,115290,1,0,0:0:0:0:
299,248,115530,2,0,L|405:262,1,100,8|0,0:0|0:0,0:0:0:0:
468,223,115890,2,0,P|494:143|457:67,1,150
279,23,116490,5,12,0:3:0:0:
179,121,116730,1,0,0:0:0:0:
299,248,116970,6,0,L|405:262,1,100,2|0,0:0|0:0,0:0:0:0:
314,142,117450,2,0,P|254:151|212:189,1,100,8|0,0:0|0:0,0:0:0:0:
243,335,117930,1,2,0:0:0:0:
409,198,118170,1,0,0:0:0:0:
260,67,118410,2,0,L|152:59,1,100,8|0,0:0|0:0,0:0:0:0:
110,192,118890,6,0,P|159:178|198:130,1,100,2|0,0:0|0:0,0:0:0:0:
52,116,119370,1,8,0:0:0:0:
21,328,119610,1,0,0:0:0:0:
165,283,119850,2,0,P|216:276|277:289,1,100,2|0,0:0|0:0,0:0:0:0:
441,340,120330,5,12,0:3:0:0:
403,211,120570,1,0,0:0:0:0:
263,284,120810,6,0,P|267:337|300:377,2,100,2|0|8,0:0|0:0|0:0,0:0:0:0:
336,82,121530,1,0,0:0:0:0:
276,173,121770,2,0,P|221:188|154:175,1,100,2|0,0:0|0:0,0:0:0:0:
208,49,122250,1,8,0:0:0:0:
284,234,122490,1,0,0:0:0:0:
221,180,122730,6,0,B|199:163|165:163|131:196|142:230|233:264|142:298|210:332|255:287|255:287|300:332|357:298|278:264|357:230|368:196|334:163|300:163|277:180|277:180|255:196|255:196|247:133|283:95,1,600,2|12,0:0|0:0,0:0:0:0:
268,113,124650,6,0,P|348:144|444:96,1,179.999994506836,6|0,0:0|0:0,0:0:0:0:
492,66,125130,2,0,L|471:197,1,119.999996337891,8|0,0:0|0:0,0:0:0:0:
454,256,125490,1,0,0:0:0:0:
454,256,125610,2,0,B|421:294|367:278|367:278|332:229|272:245,1,179.999994506836,2|0,0:0|0:0,0:0:0:0:
232,278,126090,2,0,L|105:290,1,119.999996337891,8|0,0:0|0:0,0:0:0:0:
16,174,126570,5,2,0:0:0:0:
210,77,126810,1,0,0:0:0:0:
16,174,127050,1,8,0:0:0:0:
112,289,127290,1,0,0:0:0:0:
274,202,127530,2,0,P|344:220|372:262,1,119.999996337891,2|0,0:0|0:0,0:0:0:0:
332,327,127890,1,0,0:0:0:0:
332,327,128010,2,0,L|206:332,1,119.999996337891,8|0,0:0|0:0,0:0:0:0:
90,147,128490,6,0,P|132:82|243:62,1,179.999994506836,2|0,0:0|0:0,0:0:0:0:
288,111,128970,2,0,L|414:102,1,119.999996337891,8|0,0:0|0:0,0:0:0:0:
467,155,129330,1,0,0:0:0:0:
467,155,129450,2,0,B|426:195|426:195|361:183|356:106,1,179.999994506836,2|0,0:0|0:0,0:0:0:0:
386,35,129930,1,8,0:0:0:0:
484,246,130170,1,0,0:0:0:0:
316,355,130410,5,2,0:0:0:0:
186,249,130650,1,0,0:0:0:0:
288,111,130890,2,0,L|414:102,1,119.999996337891,8|0,0:0|0:0,0:0:0:0:
378,189,131250,1,0,0:0:0:0:
378,189,131370,2,0,L|258:197,1,119.999996337891,2|0,0:0|0:0,0:0:0:0:
133,106,131850,5,8,0:0:0:0:
11,228,132090,1,0,0:0:0:0:
114,326,132330,2,0,P|177:347|286:284,1,179.999994506836,2|0,0:0|0:0,0:0:0:0:
324,242,132810,1,8,0:0:0:0:
277,49,133050,1,0,0:0:0:0:
231,220,133290,2,0,P|258:293|365:323,1,179.999994506836,2|0,0:0|0:0,0:0:0:0:
420,286,133770,2,0,L|426:152,1,119.999996337891,8|0,0:0|0:0,0:0:0:0:
277,49,134250,5,2,0:0:0:0:
172,269,134490,1,0,0:0:0:0:
91,153,134730,2,0,L|216:162,1,119.999996337891,8|0,0:0|0:0,0:0:0:0:
275,215,135090,1,0,0:0:0:0:
275,215,135210,2,0,P|336:241|405:223,1,119.999996337891,2|0,0:0|0:0,0:0:0:0:
436,163,135570,1,0,0:0:0:0:
436,163,135690,1,8,0:0:0:0:
265,36,135930,5,0,0:0:0:0:
186,278,136170,2,0,B|140:337|65:309|65:309|38:249,1,179.999994506836,2|0,0:0|0:0,0:0:0:0:
90,195,136650,2,0,P|110:138|85:58,1,119.999996337891,8|0,0:0|0:0,0:0:0:0:
41,29,137010,1,0,0:0:0:0:
41,29,137130,2,0,L|166:40,1,119.999996337891,2|0,0:0|0:0,0:0:0:0:
275,210,137610,1,8,0:0:0:0:
150,313,137850,1,0,0:0:0:0:
150,313,137970,1,0,0:0:0:0:
150,313,138090,2,0,P|114:240|145:124,1,179.999994506836,2|0,0:0|0:0,0:0:0:0:
199,110,138570,6,0,L|266:122,1,59.9999981689454,8|0,0:0|0:0,0:0:0:0:
229,81,138810,2,0,L|288:116,1,59.9999981689454
271,66,139050,2,0,L|315:119,1,59.9999981689454,2|0,0:0|0:0,0:0:0:0:
317,65,139290,2,0,L|340:130,1,59.9999981689454
359,79,139530,2,0,P|333:146|352:214,1,119.999996337891,8|0,0:0|0:0,0:0:0:0:
438,341,140010,6,0,B|360:309|326:389|244:346,1,179.999994506836,6|0,0:0|0:0,0:0:0:0:
197,313,140490,2,0,P|169:251|185:197,1,119.999996337891,8|0,0:0|0:0,0:0:0:0:
234,142,140850,1,0,0:0:0:0:
234,142,140970,2,0,B|99:137|99:137|147:106,1,179.999994506836,2|0,0:0|0:0,0:0:0:0:
182,202,141450,2,0,P|169:267|118:311,1,119.999996337891,8|0,0:0|0:0,0:0:0:0:
10,202,141930,5,2,0:0:0:0:
234,142,142170,1,0,0:0:0:0:
10,202,142410,1,8,0:0:0:0:
132,303,142650,1,0,0:0:0:0:
273,252,142890,2,0,P|330:236|399:268,1,119.999996337891,2|0,0:0|0:0,0:0:0:0:
446,308,143250,1,0,0:0:0:0:
446,308,143370,2,0,L|430:184,1,119.999996337891,8|0,0:0|0:0,0:0:0:0:
224,35,143850,6,0,P|187:113|229:206,1,179.999994506836,2|0,0:0|0:0,0:0:0:0:
274,252,144330,2,0,L|399:255,1,119.999996337891,8|0,0:0|0:0,0:0:0:0:
446,308,144690,1,0,0:0:0:0:
446,308,144810,2,0,P|396:360|350:371,1,119.999996337891,2|0,0:0|0:0,0:0:0:0:
282,337,145170,1,0,0:0:0:0:
282,337,145290,2,0,L|148:347,1,119.999996337891,8|0,0:0|0:0,0:0:0:0:
35,228,145770,5,2,0:0:0:0:
166,50,146010,1,0,0:0:0:0:
210,270,146250,2,0,P|146:292|86:272,1,119.999996337891,8|0,0:0|0:0,0:0:0:0:
35,228,146610,1,0,0:0:0:0:
35,228,146730,2,0,L|18:100,1,119.999996337891,2|0,0:0|0:0,0:0:0:0:
166,50,147210,5,8,0:0:0:0:
210,269,147450,1,0,0:0:0:0:
313,184,147690,2,0,P|382:188|424:231,1,119.999996337891,2|0,0:0|0:0,0:0:0:0:
451,293,148050,1,0,0:0:0:0:
451,293,148170,1,8,0:0:0:0:
337,371,148410,1,0,0:0:0:0:
248,242,148650,2,0,P|228:188|252:119,1,119.999996337891,2|0,0:0|0:0,0:0:0:0:
303,74,149010,1,0,0:0:0:0:
303,74,149130,2,0,L|434:63,1,119.999996337891,8|0,0:0|0:0,0:0:0:0:
327,256,149610,5,2,0:0:0:0:
179,132,149850,1,0,0:0:0:0:
40,224,150090,2,0,P|29:289|65:353,1,119.999996337891,8|0,0:0|0:0,0:0:0:0:
119,369,150450,1,0,0:0:0:0:
119,369,150570,2,0,B|176:369|214:324|214:324|238:349|282:355,1,179.999994506836,2|0,0:0|0:0,0:0:0:0:
356,368,151050,1,8,0:0:0:0:
265,129,151290,5,0,0:0:0:0:
156,240,151530,2,0,B|143:301|177:356|177:356|134:375|106:366,1,179.999994506836,2|0,0:0|0:0,0:0:0:0:
52,331,152010,1,8,0:0:0:0:
143,127,152250,1,0,0:0:0:0:
270,230,152490,2,0,P|277:295|230:352,1,119.999996337891,2|0,0:0|0:0,0:0:0:0:
201,272,152850,1,0,0:0:0:0:
201,272,152970,2,0,L|334:261,1,119.999996337891,8|0,0:0|0:0,0:0:0:0:
424,117,153450,6,0,B|418:53|355:36|355:36|336:64|301:76,1,179.999994506836,2|0,0:0|0:0,0:0:0:0:
235,103,153930,2,0,L|101:87,1,119.999996337891,8|0,0:0|0:0,0:0:0:0:
48,294,154410,2,0,P|114:274|156:217,1,119.999996337891,2|0,0:0|0:0,0:0:0:0:
137,162,154770,1,0,0:0:0:0:
137,162,154890,2,0,P|128:95|155:33,1,119.999996337891,8|0,0:0|0:0,0:0:0:0:
341,178,155370,6,0,P|352:225|328:292,1,100,6|0,0:0|0:0,0:0:0:0:
294,330,155730,1,0,0:0:0:0:
294,330,155850,1,8,0:0:0:0:
206,224,156090,1,0,0:0:0:0:
342,61,156330,2,0,L|457:53,1,100,2|0,0:0|0:0,0:0:0:0:
300,143,156810,2,0,L|415:135,1,100,8|0,0:0|0:0,0:0:0:0:
172,197,157290,6,0,P|161:150|185:83,1,100,2|0,0:0|0:0,0:0:0:0:
219,45,157650,1,0,0:0:0:0:
219,45,157770,1,8,0:0:0:0:
292,226,158010,1,0,0:0:0:0:
183,322,158250,2,0,L|66:306,1,100,2|0,0:0|0:0,0:0:0:0:
292,226,158730,2,0,L|410:209,1,100,8|0,0:0|0:0,0:0:0:0:
208,118,159210,6,0,P|151:124|111:161,1,100,2|0,0:0|0:0,0:0:0:0:
77,211,159570,1,0,0:0:0:0:
77,211,159690,1,8,0:0:0:0:
248,308,159930,1,0,0:0:0:0:
356,162,160170,2,0,L|351:54,1,100,2|0,0:0|0:0,0:0:0:0:
441,206,160650,2,0,L|436:98,1,100,8|0,0:0|0:0,0:0:0:0:
253,167,161130,6,0,P|241:215|265:283,1,100,2|0,0:0|0:0,0:0:0:0:
306,314,161490,1,0,0:0:0:0:
306,314,161610,1,8,0:0:0:0:
390,138,161850,1,0,0:0:0:0:
267,58,162090,2,0,L|165:43,1,100,2|0,0:0|0:0,0:0:0:0:
67,207,162570,2,0,L|182:191,1,100,8|0,0:0|0:0,0:0:0:0:
356,194,163050,6,0,P|406:210|446:251,1,100,2|0,0:0|0:0,0:0:0:0:
470,309,163410,1,0,0:0:0:0:
470,309,163530,1,8,0:0:0:0:
272,358,163770,1,0,0:0:0:0:
197,231,164010,2,0,L|207:125,1,100,2|0,0:0|0:0,0:0:0:0:
116,260,164490,2,0,L|126:154,1,100,8|0,0:0|0:0,0:0:0:0:
319,43,164970,6,0,P|329:87|301:149,1,100,2|0,0:0|0:0,0:0:0:0:
253,184,165330,1,0,0:0:0:0:
253,184,165450,1,8,0:0:0:0:
173,81,165690,1,0,0:0:0:0:
397,116,165930,2,0,L|501:132,1,100,2|0,0:0|0:0,0:0:0:0:
326,251,166410,2,0,L|227:268,1,100,8|0,0:0|0:0,0:0:0:0:
57,198,166890,6,0,P|35:140|45:84,1,100,2|0,0:0|0:0,0:0:0:0:
89,47,167250,1,0,0:0:0:0:
89,47,167370,1,8,0:0:0:0:
256,164,167610,1,0,0:0:0:0:
135,286,167850,2,0,L|31:305,1,100,2|0,0:0|0:0,0:0:0:0:
193,353,168330,2,0,L|89:372,1,100,8|0,0:0|0:0,0:0:0:0:
147,202,168810,6,0,P|205:192|260:214,1,100,2|0,0:0|0:0,0:0:0:0:
314,240,169170,1,0,0:0:0:0:
314,240,169290,2,0,P|362:252|410:241,1,100,8|0,0:0|0:0,0:0:0:0:
364,122,169770,5,10,0:0:0:0:
269,348,170010,1,8,0:0:0:0:
153,261,170250,1,8,0:0:0:0:
128,217,170370,1,8,0:0:0:0:
119,168,170490,1,8,0:0:0:0:
128,119,170610,1,8,0:0:0:0:
152,76,170730,6,0,P|231:97|342:82,1,179.999994506836,6|0,0:0|0:0,0:0:0:0:
393,131,171210,2,0,P|420:186|406:254,1,119.999996337891,8|0,0:0|0:0,0:0:0:0:
361,308,171570,1,0,0:0:0:0:
361,308,171690,2,0,B|249:303|249:303|214:315|214:315|187:288,1,179.999994506836,2|0,0:0|0:0,0:0:0:0:
142,233,172170,2,0,P|75:231|27:267,1,119.999996337891,8|0,0:0|0:0,0:0:0:0:
183,346,172650,5,2,0:0:0:0:
245,148,172890,1,0,0:0:0:0:
183,346,173130,1,8,0:0:0:0:
142,233,173370,1,0,0:0:0:0:
317,220,173610,2,0,P|382:242|420:311,1,119.999996337891,2|0,0:0|0:0,0:0:0:0:
381,353,173970,1,0,0:0:0:0:
381,353,174090,2,0,L|248:361,1,119.999996337891,8|0,0:0|0:0,0:0:0:0:
139,144,174570,6,0,B|103:82|165:36|165:36|244:49,1,179.999994506836,2|0,0:0|0:0,0:0:0:0:
276,102,175050,2,0,P|330:127|388:119,1,119.999996337891,8|0,0:0|0:0,0:0:0:0:
456,78,175410,1,0,0:0:0:0:
456,78,175530,2,0,B|421:113|443:163|443:163|488:194|474:243,1,179.999994506836,2|0,0:0|0:0,0:0:0:0:
427,298,176010,1,8,0:0:0:0:
218,190,176250,1,0,0:0:0:0:
81,325,176490,5,2,0:0:0:0:
287,328,176730,1,0,0:0:0:0:
197,115,176970,2,0,P|138:99|77:116,1,119.999996337891,8|0,0:0|0:0,0:0:0:0:
37,181,177330,1,0,0:0:0:0:
37,181,177450,2,0,L|23:308,1,119.999996337891,2|0,0:0|0:0,0:0:0:0:
171,251,177930,5,8,0:0:0:0:
121,50,178170,1,0,0:0:0:0:
327,112,178410,2,0,P|347:171|287:299,1,179.999994506836,2|0,0:0|0:0,0:0:0:0:
247,332,178890,1,8,0:0:0:0:
218,150,179130,1,0,0:0:0:0:
373,62,179370,2,0,L|501:49,1,119.999996337891,2|0,0:0|0:0,0:0:0:0:
352,239,179850,2,0,P|281:241|223:197,1,119.999996337891,8|0,0:0|0:0,0:0:0:0:
370,133,180330,5,2,0:0:0:0:
446,347,180570,1,0,0:0:0:0:
213,275,180810,2,0,P|202:207|231:152,1,119.999996337891,8|0,0:0|0:0,0:0:0:0:
275,99,181170,1,0,0:0:0:0:
275,99,181290,2,0,L|408:86,1,119.999996337891,2|0,0:0|0:0,0:0:0:0:
482,222,181770,1,8,0:0:0:0:
339,371,182010,5,0,0:0:0:0:
274,226,182250,2,0,P|179:195|86:220,1,179.999994506836,2|0,0:0|0:0,0:0:0:0:
33,248,182730,1,8,0:0:0:0:
176,351,182970,1,0,0:0:0:0:
231,149,183210,2,0,L|213:20,1,119.999996337891,2|0,0:0|0:0,0:0:0:0:
121,237,183690,1,8,0:0:0:0:
272,348,183930,1,0,0:0:0:0:
414,243,184170,2,0,P|434:184|381:75,1,179.999994506836,2|0,0:0|0:0,0:0:0:0:
310,54,184650,6,0,L|231:38,1,59.9999981689454,8|0,0:0|0:0,0:0:0:0:
219,125,184890,2,0,L|139:136,1,59.9999981689454
171,222,185130,2,0,L|100:260,1,59.9999981689454,2|0,0:0|0:0,0:0:0:0:
171,330,185370,2,0,L|117:390,1,59.9999981689454,0|0,0:0|0:0,0:0:0:0:
265,373,185610,2,0,P|274:298|238:247,1,119.999996337891,8|0,0:0|0:0,0:0:0:0:
45,187,186090,6,0,P|56:125|152:55,1,179.999994506836,6|0,0:0|0:0,0:0:0:0:
210,108,186570,2,0,P|268:140|326:136,1,119.999996337891,8|0,0:0|0:0,0:0:0:0:
389,93,186930,1,0,0:0:0:0:
389,93,187050,2,0,B|328:86|328:86|303:153|368:208,1,179.999994506836,2|0,0:0|0:0,0:0:0:0:
398,261,187530,2,0,L|277:280,1,119.999996337891,8|0,0:0|0:0,0:0:0:0:
176,185,188010,5,2,0:0:0:0:
88,366,188250,1,0,0:0:0:0:
176,185,188490,1,8,0:0:0:0:
279,279,188730,1,0,0:0:0:0:
370,168,188970,2,0,P|385:108|351:39,1,119.999996337891,2|0,0:0|0:0,0:0:0:0:
292,21,189330,1,0,0:0:0:0:
292,21,189450,2,0,L|170:16,1,119.999996337891,8|0,0:0|0:0,0:0:0:0:
52,215,189930,6,0,B|108:212|163:163|163:163|174:192|201:212,1,179.999994506836,2|0,0:0|0:0,0:0:0:0:
265,244,190410,2,0,P|325:232|365:182,1,119.999996337891,8|0,0:0|0:0,0:0:0:0:
359,110,190770,1,0,0:0:0:0:
359,110,190890,2,0,P|331:198|363:289,1,179.999994506836,2|0,0:0|0:0,0:0:0:0:
412,340,191370,1,8,0:0:0:0:
472,201,191610,5,0,0:0:0:0:
265,244,191850,2,0,P|238:305|248:357,1,119.999996337891,2|0,0:0|0:0,0:0:0:0:
390,249,192330,1,8,0:0:0:0:
280,58,192570,1,0,0:0:0:0:
181,162,192810,2,0,L|55:175,1,119.999996337891,2|0,0:0|0:0,0:0:0:0:
202,309,193290,5,8,0:0:0:0:
310,141,193530,1,0,0:0:0:0:
377,362,193770,2,0,P|304:373|257:356,1,119.999996337891,2|0,0:0|0:0,0:0:0:0:
202,309,194130,1,0,0:0:0:0:
202,309,194250,2,0,L|174:186,1,119.999996337891,8|0,0:0|0:0,0:0:0:0:
332,41,194730,2,0,P|349:114|284:217,1,179.999994506836,2|0,0:0|0:0,0:0:0:0:
236,248,195210,1,8,0:0:0:0:
94,137,195450,1,0,0:0:0:0:
332,41,195690,6,0,L|455:36,2,119.999996337891,2|0|8,0:0|0:0|0:0,0:0:0:0:
236,248,196410,1,0,0:0:0:0:
436,332,196650,2,0,P|458:245|416:148,1,179.999994506836,2|0,0:0|0:0,0:0:0:0:
352,139,197130,1,8,0:0:0:0:
188,340,197370,5,0,0:0:0:0:
70,244,197610,2,0,L|78:115,1,119.999996337891,2|0,0:0|0:0,0:0:0:0:
130,61,197970,1,0,0:0:0:0:
130,61,198090,2,0,P|200:37|254:46,1,119.999996337891,8|0,0:0|0:0,0:0:0:0:
296,223,198570,2,0,P|355:227|410:204,1,119.999996337891,2|0,0:0|0:0,0:0:0:0:
455,139,198930,1,0,0:0:0:0:
455,139,199050,2,0,B|437:204|437:204|454:277,1,119.999996337891,8|0,0:0|0:0,0:0:0:0:
337,357,199530,6,0,B|280:366|252:328|252:328|197:315|159:362,1,179.999994506836,2|0,0:0|0:0,0:0:0:0:
96,323,200010,2,0,P|78:262|99:201,1,119.999996337891,8|0,0:0|0:0,0:0:0:0:
229,34,200490,2,0,P|247:95|226:156,1,119.999996337891,2|0,0:0|0:0,0:0:0:0:
168,198,200850,1,0,0:0:0:0:
168,198,200970,2,0,L|37:216,1,119.999996337891,8|0,0:0|0:0,0:0:0:0:
161,334,201450,5,2,0:0:0:0:
188,352,201570,1,0,0:0:0:0:
221,358,201690,1,0,0:0:0:0:
253,350,201810,1,0,0:0:0:0:
300,289,201930,5,8,0:0:0:0:
327,270,202050,1,0,0:0:0:0:
360,263,202170,1,0,0:0:0:0:
391,269,202290,1,0,0:0:0:0:
459,302,202410,6,0,L|436:189,1,100,2|0,0:0|0:0,0:0:0:0:
435,349,202890,1,8,0:0:0:0:
157,190,203370,5,2,0:0:0:0:
147,159,203490,1,0,0:0:0:0:
147,126,203610,1,0,0:0:0:0:
158,95,203730,1,0,0:0:0:0:
231,59,203850,5,8,0:0:0:0:
260,76,203970,1,0,0:0:0:0:
292,83,204090,1,0,0:0:0:0:
326,81,204210,1,0,0:0:0:0:
394,47,204330,6,0,L|502:58,1,100,2|0,0:0|0:0,0:0:0:0:
363,69,204810,1,8,0:0:0:0:
219,333,205290,5,2,0:0:0:0:
207,301,205410,1,0,0:0:0:0:
209,268,205530,1,0,0:0:0:0:
224,239,205650,1,0,0:0:0:0:
288,199,205770,5,8,0:0:0:0:
303,170,205890,1,0,0:0:0:0:
306,137,206010,1,0,0:0:0:0:
294,105,206130,1,0,0:0:0:0:
243,49,206250,6,0,L|138:34,1,100,2|0,0:0|0:0,0:0:0:0:
273,73,206730,1,8,0:0:0:0:
416,321,207210,5,2,0:0:0:0:
384,330,207330,1,0,0:0:0:0:
350,329,207450,1,0,0:0:0:0:
319,319,207570,1,0,0:0:0:0:
258,271,207690,5,8,0:0:0:0:
225,268,207810,1,0,0:0:0:0:
192,274,207930,1,0,0:0:0:0:
163,290,208050,1,0,0:0:0:0:
107,344,208170,6,0,L|124:230,1,100,2|0,0:0|0:0,0:0:0:0:
69,374,208650,1,8,0:0:0:0:
