osu file format v10

[General]
AudioFilename: Shoji Meguro - Chopin - '.mp3
AudioLeadIn: 2000
PreviewTime: 7806
Countdown: 0
SampleSet: Soft
StackLeniency: 0.7
Mode: 0
LetterboxInBreaks: 0

[Editor]
DistanceSpacing: 1
BeatDivisor: 4
GridSize: 4

[Metadata]
Title:Revolutionary Etude
TitleUnicode:Revolutionary Etude
Artist:Chopin
ArtistUnicode:Chopin
Creator:Louis Cyphre
Version:Prestissimo
Source:Catherine
Tags:Frederic Francois Classical Classic Fryderyk Franciszek Szopen Nicolas piano fortepiano grand Franz Ferencz ritter von liszt Ludwig van Beethoven Bombardment of Warsaw son ami Virtuoso Atlus shin megami tensei SMT PS3 Playstation Xbox 360 Deep Silver horror Vincent Brookes Kyasarin insento Burukkusu Kenichi Tsuchiya Atsushi Kitajoh Pablo de Sarasate Shoji Meguro
BeatmapID:193647
BeatmapSetID:66350

[Difficulty]
HPDrainRate:7
CircleSize:4
OverallDifficulty:8
ApproachRate:9
SliderMultiplier:1.8
SliderTickRate:2

[Events]
//Background and Video events
0,0,"BG RE copy.png"
//Break Periods
//Storyboard Layer 0 (Background)
//Storyboard Layer 1 (Fail)
//Storyboard Layer 2 (Pass)
//Storyboard Layer 3 (Foreground)
//Storyboard Sound Samples
//Background Colour Transformations
3,100,163,162,255

[TimingPoints]
979,413.793103448276,4,2,1,70,1,0
1599,-100,4,2,1,60,0,0
1651,-100,4,2,1,57,0,0
1754,-100,4,2,1,55,0,0
1858,-100,4,2,1,53,0,0
2013,-100,4,2,1,50,0,0
2065,-100,4,2,1,47,0,0
2168,-100,4,2,1,45,0,0
2272,-100,4,2,1,42,0,0
2427,-100,4,2,1,40,0,0
2479,-100,4,2,1,37,0,0
2582,-100,4,2,1,35,0,0
2685,-100,4,2,1,32,0,0
2841,-100,4,2,1,30,0,0
2996,-100,4,2,1,25,0,0
3875,-100,4,2,1,50,0,0
4496,-100,4,2,1,70,0,0
4547,-100,4,2,1,67,0,0
4651,-100,4,2,1,65,0,0
4754,-100,4,2,1,63,0,0
4910,-100,4,2,1,60,0,0
4961,-100,4,2,1,57,0,0
5065,-100,4,2,1,55,0,0
5168,-100,4,2,1,53,0,0
5323,-100,4,2,1,50,0,0
5375,-100,4,2,1,47,0,0
5479,-100,4,2,1,45,0,0
5582,-100,4,2,1,43,0,0
5737,-100,4,2,1,40,0,0
5789,-100,4,2,1,47,0,0
5892,-100,4,2,1,35,0,0
5996,-100,4,2,1,43,0,0
6151,-100,4,2,1,30,0,0
6565,-100,4,2,1,25,0,0
7185,-100,4,2,1,50,0,0
7806,-100,4,2,1,85,0,0
7858,-100,4,2,1,83,0,0
7961,-100,4,2,1,80,0,0
8065,-100,4,2,1,78,0,0
8220,-100,4,2,1,75,0,0
8323,-100,4,2,1,72,0,0
8427,-100,4,2,1,70,0,0
8530,-100,4,2,1,67,0,0
8634,-100,4,2,1,65,0,0
8737,-100,4,2,1,63,0,0
8841,-100,4,2,1,60,0,0
8944,-100,4,2,1,57,0,0
9047,-100,4,2,1,55,0,0
9151,-100,4,2,1,53,0,0
9254,-100,4,2,1,50,0,0
9358,-100,4,2,1,47,0,0
9461,-100,4,2,1,45,0,0
9565,-100,4,2,1,43,0,0
9668,-100,4,2,1,40,0,0
9772,-100,4,2,1,37,0,0
9875,-100,4,2,1,35,0,0
9979,-100,4,2,1,33,0,0
10289,-100,4,2,1,30,0,0
10496,-100,4,2,1,28,0,0
10754,-100,4,2,1,27,0,0
10910,-100,4,2,1,26,0,0
11116,-100,4,2,1,35,0,0
11323,-100,4,2,1,37,0,0
11530,-100,4,2,1,40,0,0
11737,-100,4,2,1,43,0,0
11944,-100,4,2,1,45,0,0
12151,-100,4,2,1,50,0,0
12358,-100,4,2,1,55,0,0
12565,-100,4,2,1,60,0,0
12772,-100,4,2,1,65,0,0
12979,-100,4,2,1,67,0,0
13185,-100,4,2,1,70,0,0
13392,-100,4,2,1,73,0,0
13599,-100,4,2,1,75,0,0
13806,-100,4,2,1,80,0,0
14427,-100,4,2,1,35,0,0
14608,-100,4,2,1,42,0,0
14763,-100,4,2,1,50,0,0
14892,-100,4,2,1,57,0,0
15047,-100,4,2,1,65,0,0
15203,-100,4,2,1,57,0,0
15332,-100,4,2,1,42,0,0
15668,-100,4,2,1,35,0,0
15875,-100,4,2,1,30,0,0
16134,-100,4,2,1,40,0,0
16289,-100,4,2,1,50,0,0
16392,-100,4,2,1,40,0,0
16703,-100,4,2,1,30,0,0
17013,-100,4,2,1,45,0,0
17737,-100,4,2,1,35,0,0
17918,-100,4,2,1,42,0,0
18073,-100,4,2,1,50,0,0
18202,-100,4,2,1,57,0,0
18357,-100,4,2,1,65,0,0
18513,-100,4,2,1,57,0,0
18642,-100,4,2,1,45,0,0
19082,-100,4,2,1,30,0,0
20323,-100,4,2,1,45,0,0
21047,-100,4,2,1,35,0,0
21228,-100,4,2,1,42,0,0
21383,-100,4,2,1,50,0,0
21512,-100,4,2,1,57,0,0
21667,-100,4,2,1,65,0,0
21823,-100,4,2,1,57,0,0
21952,-100,4,2,1,45,0,0
22392,-100,4,2,1,30,0,0
22496,-100,4,2,1,30,0,0
22755,-100,4,2,1,40,0,0
22910,-100,4,2,1,50,0,0
23013,-100,4,2,1,40,0,0
23324,-100,4,2,1,30,0,0
24151,-100,4,2,1,50,0,0
24565,-100,4,2,1,30,0,0
24616,-100,4,2,1,50,0,0
27668,-100,4,2,1,15,0,0
27772,-100,4,2,1,18,0,0
27875,-100,4,2,1,21,0,0
27979,-100,4,2,1,24,0,0
28082,-100,4,2,1,27,0,0
28185,-100,4,2,1,30,0,0
28289,-100,4,2,1,33,0,0
28392,-100,4,2,1,36,0,0
28496,-100,4,2,1,39,0,0
28599,-100,4,2,1,42,0,0
28703,-100,4,2,1,45,0,0
28806,-100,4,2,1,48,0,0
28910,-100,4,2,1,49,0,0
29013,-100,4,2,1,40,0,0
29116,-100,4,2,1,50,0,0
29120,-100,4,2,1,50,0,0
29737,-100,4,2,1,50,0,0
29841,-100,4,2,1,47,0,0
29944,-100,4,2,1,44,0,0
30047,-100,4,2,1,41,0,0
30151,-100,4,2,1,38,0,0
30254,-100,4,2,1,35,0,0
30358,-100,4,2,1,32,0,0
30461,-100,4,2,1,29,0,0
30565,-100,4,2,1,26,0,0
30668,-100,4,2,1,23,0,0
30772,-100,4,2,1,20,0,0
30979,-100,4,2,1,35,0,0
31160,-100,4,2,1,42,0,0
31315,-100,4,2,1,50,0,0
31444,-100,4,2,1,57,0,0
31599,-100,4,2,1,65,0,0
31755,-100,4,2,1,57,0,0
31884,-100,4,2,1,42,0,0
32220,-100,4,2,1,35,0,0
32427,-100,4,2,1,30,0,0
32685,-100,4,2,1,40,0,0
32840,-100,4,2,1,50,0,0
32943,-100,4,2,1,40,0,0
33254,-100,4,2,1,30,0,0
33564,-100,4,2,1,45,0,0
34288,-100,4,2,1,35,0,0
34469,-100,4,2,1,42,0,0
34624,-100,4,2,1,50,0,0
34753,-100,4,2,1,57,0,0
34908,-100,4,2,1,65,0,0
35064,-100,4,2,1,57,0,0
35193,-100,4,2,1,45,0,0
35633,-100,4,2,1,30,0,0
36874,-100,4,2,1,45,0,0
37598,-100,4,2,1,35,0,0
37779,-100,4,2,1,42,0,0
37934,-100,4,2,1,50,0,0
38063,-100,4,2,1,57,0,0
38218,-100,4,2,1,65,0,0
38374,-100,4,2,1,57,0,0
38503,-100,4,2,1,45,0,0
38943,-100,4,2,1,30,0,0
39047,-100,4,2,1,30,0,0
39410,-100,4,2,1,40,0,0
39565,-100,4,2,1,50,0,0
39668,-100,4,2,1,40,0,0
39979,-100,4,2,1,30,0,0
40289,-100,4,2,1,60,0,0
40703,-200,4,2,1,15,0,0
41116,-200,4,2,1,25,0,0
41323,-166.666666666667,4,2,1,25,0,0
41530,-166.666666666667,4,2,1,35,0,0
41944,-166.666666666667,4,2,1,45,0,0
42151,-142.857142857143,4,2,1,45,0,0
42358,-142.857142857143,4,2,1,55,0,0
42565,-125,4,2,1,55,0,0
42979,-111.111111111111,4,2,1,55,0,0
43392,-100,4,2,1,60,0,0
43599,-100,4,2,1,65,0,0
43806,-100,4,2,1,70,0,0
44013,-100,4,2,1,75,0,0
44220,-100,4,2,1,30,0,0
44323,-100,4,2,1,36,0,0
44427,-100,4,2,1,42,0,0
44530,-100,4,2,1,48,0,0
44634,-100,4,2,1,54,0,0
44737,-100,4,2,1,60,0,0
44841,-100,4,2,1,65,0,0
45875,-100,4,2,1,35,0,0
47220,-100,4,2,1,35,0,0
47323,-100,4,2,2,50,0,0
47349,-100,4,2,1,50,0,0
48875,-100,4,2,1,35,0,0
48979,-100,4,2,2,50,0,0
49004,-100,4,2,1,35,0,0
50530,-100,4,2,1,35,0,0
50634,-100,4,2,2,50,0,0
50660,-100,4,2,1,35,0,0
52185,-100,4,2,1,35,0,0
52289,-100,4,2,2,50,0,0
52315,-100,4,2,1,35,0,0
53841,-100,4,2,1,40,0,0
53944,-100,4,2,1,40,0,0
54151,-100,4,2,1,50,0,0
54254,-100,4,2,1,55,0,0
54358,-100,4,2,1,60,0,0
54461,-100,4,2,1,55,0,0
54565,-100,4,2,1,50,0,0
54668,-100,4,2,1,45,0,0
54772,-100,4,2,1,35,0,0
54875,-100,4,2,1,30,0,0
54979,-100,4,2,1,25,0,0
55082,-100,4,2,1,20,0,0
55185,-100,4,2,1,60,0,0
55496,-100,4,2,1,50,0,0
55599,-100,4,2,1,60,0,0
55806,-100,4,2,1,55,0,0
55910,-100,4,2,1,60,0,0
56013,-100,4,2,1,65,0,0
56116,-100,4,2,1,60,0,0
56220,-100,4,2,1,55,0,0
56323,-100,4,2,1,50,0,0
56427,-100,4,2,1,45,0,0
56530,-100,4,2,1,40,0,0
56634,-100,4,2,1,35,0,0
56737,-100,4,2,1,30,0,0
56841,-100,4,2,1,70,0,0
57151,-100,4,2,1,60,0,0
57254,-100,4,2,1,70,0,0
57461,-100,4,2,1,70,0,0
57565,-100,4,2,1,75,0,0
57668,-100,4,2,1,80,0,0
57772,-100,4,2,1,77,0,0
57875,-100,4,2,1,74,0,0
57979,-100,4,2,1,71,0,0
58082,-100,4,2,1,68,0,0
58185,-100,4,2,1,70,0,0
58289,-100,4,2,1,65,0,0
58392,-100,4,2,1,62,0,0
58496,-100,4,2,1,59,0,0
58599,-100,4,2,1,56,0,0
58703,-100,4,2,1,53,0,0
58806,-100,4,2,1,50,0,0
58910,-100,4,2,1,47,0,0
59013,-100,4,2,1,44,0,0
59116,-100,4,2,1,41,0,0
59220,-100,4,2,1,38,0,0
59323,-100,4,2,1,35,0,0
59427,-100,4,2,1,32,0,0
59530,-100,4,2,1,29,0,0
59634,-100,4,2,1,26,0,0
59737,-100,4,2,1,23,0,0
59841,-100,4,2,1,20,0,0
59944,-100,4,2,1,17,0,0
60047,-100,4,2,1,14,0,0
60151,-100,4,2,1,13,0,0
60254,-100,4,2,1,12,0,0
60358,-100,4,2,1,11,0,0
60461,-100,4,2,1,10,0,0
60565,-100,4,2,2,75,0,0
60591,-100,4,2,1,75,0,0
63875,-100,4,2,2,75,0,0
63901,-100,4,2,1,75,0,0
66772,-100,4,2,2,75,0,0
66875,-100,4,2,1,75,0,0
67392,-100,4,2,1,70,0,0
67496,-100,4,2,1,67,0,0
67599,-100,4,2,1,64,0,0
67703,-100,4,2,1,61,0,0
67806,-100,4,2,1,58,0,0
67910,-100,4,2,1,55,0,0
68013,-100,4,2,1,52,0,0
68116,-100,4,2,1,49,0,0
68220,-100,4,2,1,46,0,0
68323,-100,4,2,1,43,0,0
68427,-100,4,2,1,40,0,0
68530,-100,4,2,1,37,0,0
68634,-100,4,2,1,34,0,0
68737,-100,4,2,1,31,0,0
68841,-100,4,2,1,28,0,0
68944,-100,4,2,1,25,0,0
69047,-100,4,2,1,22,0,0
69151,-100,4,2,1,21,0,0
69668,-100,4,2,1,20,0,0
70082,-100,4,2,1,50,0,0
70702,-100,4,2,1,70,0,0
70806,-100,4,2,1,67,0,0
70909,-100,4,2,1,64,0,0
71013,-100,4,2,1,61,0,0
71116,-100,4,2,1,58,0,0
71220,-100,4,2,1,55,0,0
71323,-100,4,2,1,52,0,0
71426,-100,4,2,1,49,0,0
71530,-100,4,2,1,46,0,0
71633,-100,4,2,1,43,0,0
71737,-100,4,2,1,40,0,0
71840,-100,4,2,1,37,0,0
71944,-100,4,2,1,34,0,0
72047,-100,4,2,1,31,0,0
72151,-100,4,2,1,28,0,0
72254,-100,4,2,1,25,0,0
72357,-100,4,2,1,22,0,0
72461,-100,4,2,1,21,0,0
73392,-100,4,2,1,45,0,0
74013,-100,4,2,1,85,0,0
74065,-100,4,2,1,83,0,0
74168,-100,4,2,1,80,0,0
74272,-100,4,2,1,78,0,0
74427,-100,4,2,1,75,0,0
74530,-100,4,2,1,72,0,0
74634,-100,4,2,1,70,0,0
74737,-100,4,2,1,67,0,0
74841,-100,4,2,1,65,0,0
74944,-100,4,2,1,63,0,0
75048,-100,4,2,1,60,0,0
75151,-100,4,2,1,57,0,0
75254,-100,4,2,1,55,0,0
75358,-100,4,2,1,53,0,0
75461,-100,4,2,1,50,0,0
75565,-100,4,2,1,47,0,0
75668,-100,4,2,1,45,0,0
75772,-100,4,2,1,43,0,0
75875,-100,4,2,1,40,0,0
75979,-100,4,2,1,37,0,0
76082,-100,4,2,1,35,0,0
76186,-100,4,2,1,33,0,0
76496,-100,4,2,1,30,0,0
76703,-100,4,2,1,28,0,0
76961,-100,4,2,1,27,0,0
77117,-100,4,2,1,26,0,0
77323,-100,4,2,1,35,0,0
77530,-100,4,2,1,37,0,0
77737,-100,4,2,1,40,0,0
77944,-100,4,2,1,43,0,0
78151,-100,4,2,1,45,0,0
78358,-100,4,2,1,50,0,0
78565,-100,4,2,1,55,0,0
78772,-100,4,2,1,60,0,0
78979,-100,4,2,1,65,0,0
79186,-100,4,2,1,67,0,0
79392,-100,4,2,1,70,0,0
79599,-100,4,2,1,73,0,0
79806,-100,4,2,1,75,0,0
80013,-100,4,2,1,80,0,0

[Colours]
Combo1 : 221,179,34
Combo2 : 253,2,58
Combo3 : 102,0,51
Combo4 : 244,122,0

[HitObjects]
40,44,978,1,4,1:1:0
128,36,1185,5,0,2:2:0
136,68,1289,1,0,2:2:0
140,100,1392,2,0,P|140:148,1,45
224,112,1599,5,0,2:2:0
218,141,1703,1,0,2:2:0
210,169,1806,2,0,P|212:216,1,45,8|0,2:2|2:2,2:2:0
303,202,2013,5,0,2:2:0
288,228,2116,1,0,2:2:0
269,255,2220,2,0,P|248:300,1,45,8|0,2:2|2:2,2:2:0
316,336,2427,5,0,2:2:0
332,328,2530,1,0,2:2:0
344,320,2634,2,0,P|384:300,3,45,8|0|0|0,2:2|2:2|2:2|2:2,0:0:0
480,256,3047,2,0,P|440:235,3,45,8|0|0|0,2:2|2:2|2:2|2:2,0:0:0
368,220,3461,5,8,2:2:0
364,204,3565,1,0,2:2:0
360,192,3668,1,0,2:2:0
356,180,3772,1,0,2:2:0
352,168,3875,1,0,1:1:0
32,36,4185,5,0,1:1:0
32,36,4289,1,4,1:1:0
24,128,4496,5,0,2:2:0
28,156,4599,1,0,2:2:0
32,184,4703,2,0,P|40:232,1,45,8|0,2:2|2:2,2:2:0
108,184,4910,5,0,2:2:0
112,212,5013,1,0,2:2:0
116,240,5116,2,0,P|124:288,1,45,8|0,2:2|2:2,2:2:0
192,244,5323,5,0,2:2:0
196,272,5427,1,0,2:2:0
200,300,5530,2,0,P|204:348,1,45,8|0,2:2|2:2,2:2:0
284,328,5737,5,0,2:2:0
304,320,5841,1,0,2:2:0
324,312,5944,2,0,P|366:296,3,45,8|0|0|0,2:2|2:2|2:2|2:2,2:2:0
456,248,6358,2,0,P|412:232,3,45,8|0|0|0,0:0|0:0|0:0|0:0,0:0:0
344,204,6772,5,0,0:0:0
348,196,6875,1,0,0:0:0
352,188,6978,1,0,0:0:0
356,180,7082,1,0,0:0:0
360,172,7185,1,0,1:1:0
48,56,7496,5,0,1:1:0
48,56,7599,1,4,1:1:0
32,144,7806,5,0,0:0:0
20,224,7910,1,0,0:0:0
36,304,8013,2,0,P|56:352,1,45,8|0,0:0|0:0,0:0:0
136,336,8220,5,0,0:0:0
104,256,8323,1,0,0:0:0
120,176,8427,2,0,P|128:120,1,45,8|0,0:0|0:0,0:0:0
200,188,8634,5,0,0:0:0
192,260,8737,1,0,0:0:0
224,328,8841,2,0,P|256:364,1,45,8|0,0:0|0:0,0:0:0
292,292,9047,5,0,0:0:0
272,248,9151,1,0,0:0:0
276,200,9254,2,0,P|292:156,1,45,8|0,0:0|0:0,0:0:0
356,208,9461,1,0,0:0:0
352,232,9565,1,0,0:0:0
360,256,9668,2,0,P|380:300,1,45,8|0,0:0|0:0,0:0:0
428,232,9875,5,0,0:0:0
424,228,9978,1,0,0:0:0
424,220,10082,2,0,P|428:176,1,45,8|0,0:0|0:0,0:0:0
500,200,10289,5,0,0:0:0
500,196,10392,1,0,0:0:0
500,192,10496,1,8,0:0:0
500,188,10599,1,0,0:0:0
500,184,10703,1,0,0:0:0
500,180,10806,1,0,0:0:0
500,176,10910,2,0,P|500:120,1,45,8|0,0:0|0:0,0:0:0
336,32,11116,5,0,0:0:0
328,52,11220,1,0,0:0:0
320,72,11323,1,8,0:0:0
312,92,11427,1,0,0:0:0
304,112,11530,1,0,0:0:0
296,132,11634,1,0,0:0:0
288,152,11737,2,0,P|268:200,1,45,8|0,0:0|0:0,0:0:0
144,264,11944,5,0,0:0:0
156,236,12047,1,0,0:0:0
168,208,12151,1,8,0:0:0
180,180,12254,1,0,0:0:0
192,152,12358,1,0,0:0:0
204,124,12461,1,0,0:0:0
216,96,12565,2,0,P|236:48,1,45,8|0,0:0|0:0,0:0:0
128,28,12772,5,0,0:0:0
112,68,12875,1,0,0:0:0
96,108,12978,1,8,0:0:0
80,144,13082,1,0,0:0:0
64,184,13185,1,0,0:0:0
48,224,13289,1,0,0:0:0
36,260,13392,6,0,P|16:312,1,45
96,352,13599,2,0,P|116:300,1,45,0|0,0:0|0:0,0:0:0
208,272,13806,2,0,P|192:320,1,45,8|0,0:0|0:0,0:0:0
280,364,14013,2,0,P|296:316,1,45
376,296,14220,5,4,1:0:0
448,96,14427,5,0,0:0:0
416,108,14530,2,0,P|368:128,2,45,0|8|0,0:0|0:0|0:0,0:0:0
328,48,14841,5,0,0:0:0
276,104,14944,1,0,0:0:0
208,140,15047,2,0,P|152:156,1,45,8|0,0:0|0:0,0:0:0
96,236,15254,2,0,P|148:224,1,45
224,232,15461,1,8,0:0:0
228,236,15565,1,0,0:0:0
232,240,15668,1,0,0:0:0
408,208,15875,5,8,0:0:0
256,308,16082,1,0,0:0:0
260,312,16185,1,0,0:0:0
264,316,16289,1,8,0:0:0
268,320,16392,1,0,0:0:0
272,324,16496,1,0,0:0:0
408,208,16703,2,0,P|428:168|424:124,1,90,8|0,0:0|0:0,0:0:0
420,108,17013,6,0,P|368:124,1,45,0|0,1:1|1:1,1:1:0
52,56,17427,1,0,1:1:0
52,56,17530,1,4,1:1:0
44,244,17737,5,0,0:0:0
48,224,17841,1,0,0:0:0
52,208,17944,1,8,0:0:0
56,192,18047,1,0,0:0:0
60,176,18151,2,0,P|72:132,1,45
224,64,18358,6,0,P|212:116,1,45,8|0,0:0|0:0,0:0:0
208,128,18565,1,0,0:0:0
204,144,18668,5,0,1:1:0
200,160,18772,2,0,P|232:208|232:208|312:208,1,135,0|0,1:1|1:1,1:1:0
340,144,19185,2,0,P|308:200|304:264|324:320,1,180,4|8,0:0|0:0,0:0:0
408,280,19806,1,0,0:0:0
492,316,20013,1,10,0:0:0
316,140,20323,5,0,1:1:0
312,128,20427,1,0,1:1:0
44,48,20737,1,0,1:1:0
48,64,20841,1,4,1:1:0
28,152,21047,5,0,0:0:0
32,168,21151,1,0,0:0:0
36,184,21254,1,8,0:0:0
40,200,21358,1,0,0:0:0
44,216,21461,2,0,P|56:268,1,45
200,288,21668,6,0,P|180:240,2,45,8|0|0,0:0|0:0|0:0,0:0:0
302,308,21978,5,0,1:1:0
296,296,22082,2,0,P|312:232|292:168,1,135,0|0,1:1|0:0,0:0:0
456,92,22496,6,0,P|372:68|284:92,1,180,12|8,2:2|0:0,0:0:0
196,104,23116,1,0,0:0:0
160,21,23323,2,0,P|108:45|108:45|73:99|105:162,1,180,8|8,0:0|0:0,0:0:0
34,218,23944,1,0,0:0:0
112,264,24151,6,0,P|157:268|201:280,1,90,2|0,0:0|0:0,0:0:0
344,128,24565,2,0,P|316:212|344:296,1,180,0|8,1:0|0:0,0:0:0
448,212,25289,5,0,0:0:0
336,116,25392,1,0,1:0:0
64,172,25703,5,0,2:0:0
176,268,25806,1,0,1:0:0
452,100,26013,5,2,0:0:0
60,284,26220,1,8,0:0:0
256,192,26634,5,8,0:0:0
32,68,26944,5,0,0:0:0
64,172,27047,1,0,1:0:0
480,316,27358,5,0,0:0:0
448,212,27461,1,0,1:0:0
124,348,27668,6,0,P|80:356,1,45,0|0,0:0|0:0,0:0:0
144,312,27875,2,0,P|100:312,1,45,8|0,0:0|0:0,0:0:0
176,280,28082,2,0,P|128:276,1,45
208,256,28289,2,0,P|164:248,1,45,8|0,0:0|0:0,0:0:0
240,240,28496,2,0,P|196:224,1,45,0|0,0:0|0:0,0:0:0
276,236,28703,2,0,P|244:204,2,45,8|0|0,0:0|0:0|0:0,0:0:0
440,220,29013,5,0,1:0:0
440,196,29116,2,0,P|400:136|424:36,1,180,0|8,1:0|0:0,1:0:0
272,68,29737,5,0,0:0:0
254,88,29841,1,0,0:0:0
236,108,29944,1,8,0:0:0
218,128,30047,1,0,0:0:0
200,148,30151,1,0,0:0:0
183,168,30254,1,0,0:0:0
165,189,30358,1,8,0:0:0
148,209,30461,1,0,0:0:0
131,230,30565,1,0,0:0:0
114,251,30668,1,0,0:0:0
97,272,30772,1,8,0:0:0
180,336,30978,5,0,0:0:0
204,324,31082,1,0,0:0:0
228,316,31185,1,8,0:0:0
256,312,31289,1,0,0:0:0
284,312,31392,2,0,P|336:312,1,45
481,192,31599,6,0,P|436:192,1,45,8|0,0:0|0:0,0:0:0
408,192,31806,1,0,0:0:0
380,188,31910,1,0,0:0:0
356,180,32013,1,8,0:0:0
340,168,32116,1,0,0:0:0
324,152,32220,1,0,0:0:0
402,101,32427,5,8,0:0:0
208,29,32634,1,0,0:0:0
211,46,32737,1,0,0:0:0
214,63,32841,1,8,0:0:0
217,80,32944,1,0,0:0:0
220,97,33047,1,0,0:0:0
392,100,33254,1,8,0:0:0
157,145,33461,1,0,0:0:0
160,162,33565,5,0,1:0:0
164,182,33668,1,0,1:0:0
428,304,33979,5,0,1:0:0
424,284,34082,1,4,1:0:0
220,304,34289,6,0,P|175:307,1,45
88,252,34496,2,0,P|132:248,1,45,8|0,0:0|0:0,0:0:0
232,152,34703,2,0,P|172:160,1,45
44,120,34910,2,0,P|96:116,1,45,8|0,0:0|0:0,0:0:0
240,36,35116,2,0,P|192:44,1,45,0|0,0:0|1:0,0:0:0
304,96,35323,6,0,P|364:104|420:152,1,135,0|0,1:0|1:0,0:0:0
512,144,35737,2,0,P|412:172|376:244,1,180,4|8,2:0|0:0,0:0:0
292,256,36358,1,0,0:0:0
212,216,36565,1,10,0:0:0
108,304,36875,5,0,1:0:0
96,296,36979,1,0,1:0:0
40,44,37289,5,0,1:0:0
52,52,37393,1,4,0:0:0
200,40,37599,6,0,P|176:84,1,45
225,154,37806,2,0,P|249:110,1,45,8|0,0:0|0:0,0:0:0
336,44,38013,2,0,P|312:88,1,45,0|0,0:0|0:0,0:0:0
284,220,38220,2,0,P|305:180,1,45,8|0,0:0|0:0,0:0:0
472,44,38427,2,0,P|448:88,1,45,0|0,0:0|1:0,0:0:0
420,196,38634,6,0,P|440:264|404:324,1,135,2|0,2:0|1:0,1:0:0
283,221,39047,2,0,P|263:153|292:100,1,135,4|0,1:0|0:0,0:0:0
336,40,39461,5,8,0:0:0
340,40,39565,1,0,0:0:0
344,40,39668,1,0,0:0:0
336,164,39875,1,8,0:0:0
452,128,40082,5,0,0:0:0
456,128,40186,1,0,0:0:0
460,128,40289,1,8,0:0:0
460,128,40392,1,0,0:0:0
464,128,40496,1,0,0:0:0
468,288,40703,6,0,P|376:288,1,90,10|8,0:0|0:0,0:0:0
176,336,41323,2,0,P|212:296|220:244,1,107.999996704102,2|2,0:0|0:0,0:0:0
180,160,41944,1,8,0:0:0
40,52,42151,6,0,P|104:52,1,62.9999980773926,2|8,0:0|0:0,0:0:0
272,276,42565,2,0,P|248:260|224:224,1,72,2|8,0:0|0:0,0:0:0
402,38,42979,2,0,P|440:60|456:96,1,80.9999975280763,2|8,0:0|0:0,0:0:0
456,244,43392,5,2,0:0:0
328,256,43599,1,10,0:0:0
164,224,43806,1,2,0:0:0
84,60,44013,1,10,0:0:0
172,68,44220,5,0,0:0:0
188,60,44323,2,0,P|228:36,2,45,0|8|0,0:0|0:0|0:0,0:0:0
340,56,44634,2,0,P|292:88,1,45
164,144,44841,5,10,0:0:0
180,160,44944,1,0,0:0:0
192,180,45047,2,0,P|208:224,1,45
352,204,45254,5,10,0:0:0
336,220,45357,1,0,0:0:0
324,240,45460,2,0,P|308:284,1,45,0|2,0:0|0:0,0:0:0
276,124,45668,5,6,0:0:0
84,236,45875,5,0,0:0:0
60,240,45979,1,0,0:0:0
40,244,46082,1,8,0:0:0
192,256,46289,5,0,0:0:0
168,260,46393,1,0,0:0:0
148,264,46496,1,8,0:0:0
304,276,46703,5,0,0:0:0
280,280,46807,1,0,0:0:0
260,284,46910,1,8,0:0:0
420,284,47116,5,0,0:0:0
396,288,47220,1,0,0:0:0
376,292,47323,2,0,P|324:220|324:132,1,180,2|8,0:0|0:0,0:0:0
408,96,47944,1,0,0:0:0
336,44,48151,2,0,P|292:48|244:44,1,90
188,112,48565,6,0,P|220:152|232:240,1,135,2|0,0:0|2:0,0:0:0
152,268,48979,2,0,P|232:242|328:230,1,180,2|8,0:0|0:0,0:0:0
388,296,49599,1,0,0:0:0
420,212,49806,2,0,P|468:132,1,90
436,48,50220,6,0,P|380:80|308:80,1,135,2|0,0:0|0:0,0:0:0
120,56,50634,2,0,P|184:100|208:196,1,180,2|8,0:0|0:0,0:0:0
136,252,51254,1,0,0:0:0
220,288,51461,2,0,P|256:316|288:348,1,90,0|0,0:0|0:0,0:0:0
376,332,51875,6,0,P|412:268|464:236,1,135,2|0,0:0|0:0,0:0:0
320,32,52289,2,0,P|314:121|336:208,1,180,2|8,0:0|0:0,0:0:0
304,292,52910,1,0,0:0:0
240,228,53116,2,0,P|176:164,1,90
32,36,53530,6,0,P|56:84|56:168,1,135,10|0,0:0|1:0,0:0:0
20,300,53944,1,4,1:0:0
396,344,54151,5,2,0:0:0
388,324,54254,1,0,0:0:0
380,304,54358,1,8,0:0:0
372,284,54461,1,0,0:0:0
364,264,54565,1,0,0:0:0
356,244,54668,1,0,0:0:0
348,224,54772,1,0,0:0:0
340,204,54875,1,0,0:0:0
332,184,54979,1,0,0:0:0
324,164,55082,1,0,0:0:0
316,144,55185,6,0,P|292:92|292:92|209:92,1,135,2|0,2:0|1:0,0:0:0
68,44,55599,1,4,1:0:0
36,332,55806,6,0,P|76:308,1,45,2|0,0:0|0:0,0:0:0
216,208,56013,2,0,P|176:232,1,45,4|0,1:0|0:0,0:0:0
172,248,56220,1,0,0:0:0
172,265,56323,1,0,0:0:0
173,282,56427,1,8,0:0:0
177,299,56530,1,0,0:0:0
184,315,56634,1,0,0:0:0
193,330,56737,1,0,0:0:0
204,344,56841,6,0,P|268:340|340:344,1,135,2|0,0:0|0:0,0:0:0
456,224,57254,1,4,1:0:0
256,140,57461,6,0,P|288:108,1,45
160,56,57668,2,0,P|128:88,1,45,4|0,1:0|0:0,0:0:0
116,100,57875,1,0,0:0:0
108,116,57979,1,0,0:0:0
104,132,58082,2,0,P|96:180,1,45,8|0,0:0|0:0,0:0:0
32,231,58289,5,0,0:0:0
36,248,58392,1,0,0:0:0
40,265,58496,2,0,P|53:313,1,45,8|0,0:0|0:0,0:0:0
128,284,58703,5,0,0:0:0
144,300,58806,1,0,0:0:0
160,316,58910,2,0,P|196:352,1,45,8|0,0:0|0:0,0:0:0
262,306,59116,5,0,0:0:0
288,312,59219,1,0,0:0:0
316,316,59323,2,0,P|364:324,1,45,8|0,0:0|0:0,0:0:0
374,239,59530,5,0,0:0:0
404,224,59633,1,0,0:0:0
432,212,59737,2,0,P|478:191,1,45,8|0,0:0|0:0,0:0:0
424,128,59944,5,0,0:0:0
444,96,60047,1,0,0:0:0
464,64,60151,2,0,P|492:16,1,45,8|0,0:0|0:0,0:0:0
308,104,60358,2,0,P|320:60,1,45
188,200,60565,6,0,P|176:108,1,90,2|0,0:0|0:0,0:0:0
96,68,60979,1,8,0:0:0
260,140,61392,6,0,P|272:228|272:228|320:228|352:272,1,180,2|8,0:0|0:0,0:0:0
272,316,62013,1,0,0:0:0
192,276,62220,2,0,P|104:300|16:280,2,180,2|8|2,0:0|0:0|0:0,0:0:0
272,316,63254,2,0,P|368:336,1,90
436,288,63668,1,0,0:0:0
256,208,63875,6,0,P|201:154|226:60,1,180,2|8,0:0|0:0,0:0:0
307,28,64496,1,0,0:0:0
301,120,64703,2,0,P|346:113|388:128,1,90,2|0,0:0|0:0,0:0:0
284,306,65116,2,0,P|243:314|197:298,1,90,8|0,0:0|0:0,0:0:0
263,55,65530,6,0,P|348:39|433:70,1,180,8|0,0:0|0:0,0:0:0
476,152,66151,1,0,0:0:0
404,208,66358,2,0,P|320:228|284:308,1,180,8|0,0:0|1:0,2:0:0
36,40,67082,5,2,0:0:0
36,40,67185,1,4,1:0:0
48,128,67392,5,0,0:0:0
56,156,67496,1,0,0:0:0
60,184,67599,2,0,P|64:240,1,45,8|0,0:0|0:0,0:0:0
152,180,67806,5,0,0:0:0
144,208,67910,1,0,0:0:0
140,236,68013,2,0,P|136:292,1,45,8|0,0:0|0:0,0:0:0
216,233,68220,5,0,0:0:0
228,260,68324,1,0,0:0:0
242,284,68427,2,0,P|274:329,1,45,8|0,0:0|0:0,0:0:0
324,256,68634,5,0,0:0:0
348,264,68737,1,0,0:0:0
372,272,68841,2,0,P|420:288,3,45,8|0|0|0,0:0|0:0|0:0|0:0,0:0:0
488,204,69254,2,0,P|444:192,3,45,8|0|0|0,0:0|0:0|0:0|0:0,0:0:0
360,184,69668,5,8,0:0:0
364,172,69772,1,0,0:0:0
368,160,69875,1,0,0:0:0
372,148,69979,1,0,0:0:0
376,136,70082,1,0,1:0:0
40,40,70392,5,0,0:0:0
40,40,70496,1,4,1:0:0
100,108,70703,5,0,0:0:0
92,132,70806,1,0,0:0:0
84,160,70910,2,0,P|68:208,1,45,8|0,0:0|0:0,0:0:0
156,181,71116,5,0,0:0:0
152,206,71219,1,0,0:0:0
149,235,71323,2,0,P|144:288,1,45,8|0,0:0|0:0,0:0:0
233,225,71530,5,0,0:0:0
233,250,71633,1,0,0:0:0
236,280,71737,2,0,P|240:328,1,45,8|0,0:0|0:0,0:0:0
311,274,71943,5,0,0:0:0
316,299,72046,1,0,0:0:0
323,328,72150,2,0,P|336:376,3,45,8|0|0|0,0:0|0:0|0:0|0:0,0:0:0
420,304,72565,2,0,P|408:260,3,45,8|0|0|0,0:0|0:0|0:0|0:0,0:0:0
492,240,72979,1,8,0:0:0
488,228,73082,1,0,0:0:0
484,216,73185,1,0,0:0:0
480,204,73289,1,0,0:0:0
476,192,73392,1,0,1:0:0
48,36,73703,5,0,1:0:0
48,36,73806,1,4,1:0:0
19,121,74013,5,0,0:0:0
36,195,74116,1,0,0:0:0
48,270,74220,2,0,P|48:325,1,45,8|0,0:0|0:0,0:0:0
154,346,74427,5,0,0:0:0
127,278,74530,1,0,0:0:0
126,205,74634,2,0,P|134:149,1,45,8|0,0:0|0:0,0:0:0
192,79,74841,5,0,0:0:0
213,131,74944,1,0,0:0:0
214,188,75048,2,0,P|206:234,1,45,8|0,0:0|0:0,0:0:0
303,257,75254,5,0,0:0:0
289,223,75357,1,0,0:0:0
289,187,75461,2,0,P|297:142,1,45,8|0,0:0|0:0,0:0:0
366,88,75668,5,0,0:0:0
373,105,75771,1,0,0:0:0
375,125,75875,2,0,P|366:174,1,45,8|0,0:0|0:0,0:0:0
438,220,76082,5,0,0:0:0
433,210,76185,1,0,0:0:0
432,200,76289,2,0,P|448:156,1,45,8|0,0:0|0:0,0:0:0
478,92,76496,5,0,0:0:0
475,88,76599,1,0,0:0:0
472,84,76703,1,8,0:0:0
469,80,76806,1,0,0:0:0
466,76,76910,1,0,0:0:0
463,72,77013,1,0,0:0:0
460,68,77116,2,0,P|432:32,1,45,8|0,0:0|0:0,0:0:0
304,24,77323,5,0,0:0:0
316,44,77426,1,0,0:0:0
328,64,77530,1,8,0:0:0
340,84,77633,1,0,0:0:0
352,104,77737,1,0,0:0:0
364,124,77840,1,0,0:0:0
376,144,77943,2,0,P|400:188,1,45,8|0,0:0|0:0,0:0:0
376,348,78151,5,0,0:0:0
360,316,78254,1,0,0:0:0
344,284,78358,1,8,0:0:0
328,252,78461,1,0,0:0:0
312,220,78565,1,0,0:0:0
296,188,78668,1,0,0:0:0
280,160,78771,2,0,P|256:116,1,45,8|0,0:0|0:0,0:0:0
21,34,78979,5,0,0:0:0
64,68,79082,1,0,0:0:0
92,116,79186,1,8,0:0:0
104,168,79289,1,0,0:0:0
96,220,79393,1,0,0:0:0
108,272,79496,1,0,0:0:0
148,308,79599,6,0,P|192:328,1,45,8|0,0:0|0:0,0:0:0
268,280,79806,2,0,P|227:261,1,45
228,172,80013,2,0,P|268:196,1,45,8|0,0:0|0:0,0:0:0
356,160,80220,2,0,P|315:141,1,45
256,88,80427,5,4,1:0:0
