osu file format v9

[General]
AudioFilename: Cho-E - Amputator.mp3
AudioLeadIn: 0
PreviewTime: 79564
Countdown: 0
SampleSet: Normal
StackLeniency: 0.7
Mode: 0
LetterboxInBreaks: 0

[Editor]
Bookmarks: 26231,44569,115098,151231
DistanceSpacing: 1.02
BeatDivisor: 4
GridSize: 4

[Metadata]
Title:Amputator
Artist:Cho-E
Creator:Equivalent
Version:Normal Style
Source:TouchMix
Tags:r300k TOMIX Android Gamevil Natteke

[Difficulty]
HPDrainRate:3
CircleSize:4
OverallDifficulty:3
ApproachRate:5
SliderMultiplier:1.32
SliderTickRate:2

[Events]
//Background and Video events
0,0,"BG_Amputator.jpg"
//Break Periods
2,44725,52489
//Storyboard Layer 0 (Background)
//Storyboard Layer 1 (Fail)
//Storyboard Layer 2 (Pass)
//Storyboard Layer 3 (Foreground)
//Storyboard Sound Samples
//Background Colour Transformations
3,100,163,162,255

[TimingPoints]
78,555.555555555556,4,1,1,60,1,0
44522,-100,4,1,1,40,0,1
44661,-100,4,1,1,40,0,0
80078,-100,4,1,1,60,0,1
97855,-100,4,1,1,55,0,0
115633,-100,4,1,1,80,0,1
133411,-100,4,1,1,80,0,0
151189,-100,4,1,1,100,0,0

[Colours]
Combo1 : 128,0,255
Combo2 : 128,128,192
Combo3 : 255,0,255

[HitObjects]
128,156,26189,2,0,B|128:116,4,33,0|0|0|0|4
136,224,27022,6,0,B|160:264|200:264,1,66,0|8
256,262,27578,2,0,B|302:261|322:226,1,66
363,187,28133,2,0,B|381:154|361:119,1,66,0|8
335,60,28689,6,0,B|310:20|270:20,1,66
216,32,29244,2,0,B|169:33|149:68,1,66,0|8
120,116,29800,2,0,B|97:157|117:192,1,66
111,307,30633,6,0,B|111:371,2,66,8|0|0
177,307,31466,1,0
243,307,31744,2,0,B|243:371,2,66,8|0|0
309,307,32578,1,0
375,307,32855,2,0,B|375:371,2,66,8|0|0
440,192,33966,6,8,B|392:192,1,33
340,192,34383,2,8,B|284:192,1,33
240,192,34800,2,8,B|184:192,1,33
137,192,35216,2,8,B|96:192,1,33
88,124,35633,5,0
136,75,35911,1,0
196,40,36189,1,8
256,160,36744,2,0,B|208:216|128:208,1,132
80,328,37855,5,0
139,363,38133,1,0
207,368,38411,1,8
248,248,38966,2,0,B|200:192|120:200,1,132,0|8
200,88,40078,6,0,B|240:144|320:128,1,132,0|8
416,40,41189,1,0
453,98,41466,1,0
472,164,41744,1,8
336,192,42300,6,0,B|304:224,1,33
246,215,42716,2,0,B|214:247,1,33
156,238,43133,2,0,B|125:269,1,33
66,261,43550,1,0
66,261,43689,1,0
66,326,43966,6,0,B|66:366,4,33,0|0|0|0|4
480,40,53689,6,0,B|408:24|336:40,1,132
280,40,54522,1,0
210,40,54800,2,0,B|170:32|122:48,1,66
10,181,55911,6,0,B|35:190|75:182,1,66,0|8
144,181,56466,1,0
213,181,56744,2,0,B|272:194|344:178,1,132,0|8
432,276,57855,5,0
392,328,58133,1,0
324,324,58411,1,8
360,264,58689,2,0,B|360:232|328:192,1,66
428,108,59522,1,8
384,56,59800,1,0
316,68,60078,5,0
360,120,60355,2,0,B|360:152|328:192,1,66,0|8
304,240,60911,1,0
256,288,61189,2,0,B|232:312|192:320,1,66
132,336,61744,1,8
132,336,62022,1,8
95,282,62300,6,0,B|79:218|103:146,1,132,4|0
152,104,63133,1,0
336,56,63966,1,8
400,80,64244,1,0
440,136,64522,5,0
456,200,64800,2,0,B|448:264|392:312,1,132
176,328,65911,1,0
112,304,66189,1,8
72,248,66466,1,0
56,184,66744,6,0,B|64:120|120:72,1,132,0|8
208,160,67855,1,0
256,112,68133,1,0
304,160,68411,1,8
256,208,68689,1,0
256,208,68966,2,0,B|256:344,1,132
256,340,69800,1,0
384,192,70633,6,0,B|400:112|352:64,1,132,8|0
182,164,72022,1,0
384,192,72855,6,0,B|400:272|352:320,1,132,8|0
182,220,74244,1,0
128,96,74800,5,0
177,46,75078,1,8
235,82,75355,1,0
304,80,75633,2,0,B|352:32,1,66
400,84,76189,1,8
384,288,76744,5,0
332,336,77022,1,0
272,304,77300,1,8
205,304,77578,2,0,B|92:296|56:184,1,198
128,168,78689,1,0
288,48,79522,6,0,B|320:48,4,33,0|0|0|0|4
225,48,80355,6,0,B|177:49|157:84,1,66,0|8
121,116,80911,2,0,B|98:157|118:192,1,66
136,240,81466,2,0,B|160:280|200:280,1,66,0|8
312,278,82300,6,0,B|346:268|363:239,1,66
392,178,82855,2,0,B|408:152|384:115,1,66,8|0
344,64,83411,2,0,B|323:36|285:40,2,66,0|0|8
448,144,84522,6,0,B|480:216|448:280,1,132,0|8
320,336,85633,1,0
256,352,85911,1,0
192,336,86189,1,8
64,272,86744,6,0,B|35:216|67:144,1,132,0|8
192,48,87855,1,8
256,32,88133,1,8
320,48,88411,1,8
416,128,88966,6,0,B|432:176|416:208,1,66
352,176,89522,2,0,B|336:224|352:256,1,66,8|0
416,256,90078,2,0,B|432:304|416:336,1,66
352,304,90633,2,0,B|336:352|352:384,1,66,8|0
280,368,91189,6,0,B|296:336|280:304,1,66
208,304,91744,2,0,B|192:272|208:240,1,66,8|0
279,240,92300,2,0,B|295:208|279:176,1,66
207,176,92855,2,0,B|191:144|207:112,1,66,8|0
176,48,93411,6,0,B|112:64|32:48,1,132,0|8
64,176,94522,1,0
112,224,94800,1,0
160,176,95078,1,8
176,48,95633,6,0,B|243:34|307:50,1,132,0|8
352,176,96744,1,8
400,224,97022,1,8
448,176,97300,1,8
256,192,97855,6,0,B|208:240|192:320,1,132,0|8
416,336,99522,5,8
464,288,99800,1,0
464,224,100078,1,0
336,240,100633,2,0,B|272:208,2,66,8|0|0
464,160,101744,5,8
464,96,102022,1,0
416,48,102300,1,0
336,144,102855,2,0,B|272:176,2,66,8|0|0
189,140,103966,6,0,B|176:208|192:272,1,132,8|0
327,274,105078,1,8
327,274,105355,2,0,B|343:210|327:130,1,132
304,80,106189,1,8
256,32,106466,1,8
192,32,106744,6,0,B|128:32,2,66,0|0|8
192,190,107855,1,0
192,352,108411,2,0,B|128:352,2,66,8|0|0
320,352,109522,6,0,B|368:320|368:256|320:216|256:240,1,198,8|0
192,224,110633,1,8
164,160,110911,1,0
188,96,111189,5,0
256,76,111466,1,0
322,80,111744,2,0,B|322:32|418:32|418:80,1,132,8|0
368,192,112855,6,0,B|368:256,2,66,8|0|0
368,192,113689,1,0
321,145,113966,2,0,B|321:97|417:97|417:145,1,132,8|0
288,48,115078,6,0,B|320:48,4,33,0|0|0|0|4
225,48,115911,6,0,B|177:49|157:84,1,66,0|8
121,116,116466,2,0,B|98:157|118:192,1,66
136,240,117022,2,0,B|160:280|200:280,1,66,0|8
312,278,117855,6,0,B|346:268|363:239,1,66
392,178,118411,2,0,B|408:152|384:115,1,66,8|0
341,60,118966,2,0,B|320:32|282:36,2,66,0|0|8
448,144,120078,6,0,B|480:216|448:280,1,132,0|8
320,336,121189,1,0
256,352,121466,1,0
192,336,121744,1,8
64,272,122300,6,0,B|35:216|67:144,1,132,0|8
192,48,123411,1,8
256,32,123689,1,8
320,48,123966,1,8
416,128,124522,6,0,B|432:176|416:208,1,66
352,176,125078,2,0,B|336:224|352:256,1,66,8|0
416,256,125633,2,0,B|432:304|416:336,1,66
352,304,126189,2,0,B|336:352|352:384,1,66,8|0
280,368,126744,6,0,B|296:336|280:304,1,66
208,304,127300,2,0,B|192:272|208:240,1,66,8|0
279,240,127855,2,0,B|295:208|279:176,1,66
207,176,128411,2,0,B|191:144|207:112,1,66,8|0
176,48,128966,6,0,B|112:64|32:48,1,132,0|8
64,176,130078,1,0
112,224,130355,1,0
160,176,130633,1,8
176,48,131189,6,0,B|243:34|307:50,1,132,0|8
352,176,132300,1,8
400,224,132578,1,8
448,176,132855,1,8
288,288,133411,6,0,B|272:336|320:376|368:352,1,132,4|8
333,229,134522,2,0,B|360:184|312:136|264:160,1,132,0|8
144,96,135633,6,0,B|96:120|48:88|68:26,1,132,0|8
192,48,136744,2,0,B|240:24|296:72|256:128,1,132,0|8
384,64,137855,6,0,B|368:112|384:160|424:184,1,132,0|8
296,144,138966,2,0,B|312:192|296:240|256:264,1,132,0|8
392,240,140078,6,0,B|376:288|392:336|432:360,1,132,0|8
301,317,141189,2,0,B|316:269|300:221|265:200,1,132,0|8
176,96,142300,5,0
96,192,142855,1,8
176,288,143411,1,0
256,192,143966,1,8
256,192,144522,5,0
336,288,145078,1,8
416,192,145633,1,0
336,96,146189,1,8
208,96,146744,6,0,B|128:80|48:96,1,132,0|8
76,223,147855,2,0,B|156:239|236:223,1,132,0|8
320,160,148966,6,0,B|352:240|320:304,1,132,0|8
208,240,150077,2,0,B|176:160|208:96,1,132,0|8
333,111,151189,5,4
