osu file format v9

[General]
AudioFilename: Cho-E - Amputator.mp3
AudioLeadIn: 0
PreviewTime: 79564
Countdown: 0
SampleSet: Normal
StackLeniency: 0.7
Mode: 0
LetterboxInBreaks: 0

[Editor]
Bookmarks: 26231,115098,151231
DistanceSpacing: 1.2
BeatDivisor: 4
GridSize: 8

[Metadata]
Title:Amputator
Artist:Cho-E
Creator:Equivalent
Version:Natteke Style
Source:TouchMix
Tags:r300k TOMIX Android Gamevil Natteke

[Difficulty]
HPDrainRate:7
CircleSize:4
OverallDifficulty:7
ApproachRate:8
SliderMultiplier:1.7
SliderTickRate:2

[Events]
//Background and Video events
0,0,"BG_Amputator.jpg"
//Break Periods
//Storyboard Layer 0 (Background)
//Storyboard Layer 1 (Fail)
//Storyboard Layer 2 (Pass)
//Storyboard Layer 3 (Foreground)
//Storyboard Sound Samples
//Background Colour Transformations
3,100,163,162,255

[TimingPoints]
78,555.555555555556,4,1,0,60,1,0
26929,-100,4,1,1,60,0,0
27670,-100,4,2,1,60,0,0
27763,-100,4,1,1,60,0,0
29892,-100,4,2,1,60,0,0
29985,-100,4,1,1,60,0,0
30818,-100,4,2,1,60,0,0
31003,-100,4,1,1,60,0,0
32392,-100,4,2,1,60,0,0
32485,-100,4,1,1,60,0,0
33318,-100,4,1,0,60,0,0
33503,-100,4,1,1,60,0,0
34337,-100,4,1,0,60,0,0
34429,-100,4,1,1,60,0,0
35540,-100,4,1,0,60,0,0
35726,-100,4,1,1,60,0,0
36559,-100,4,2,1,60,0,0
36652,-100,4,1,1,60,0,0
38781,-100,4,2,1,60,0,0
38874,-100,4,1,1,60,0,0
39707,-100,4,2,1,60,0,0
39892,-100,4,1,1,60,0,0
42207,-100,4,1,0,60,0,0
42392,-100,4,1,1,60,0,0
43226,-100,4,1,0,60,0,0
43318,-100,4,1,1,60,0,0
44522,-133.333333333333,4,1,1,50,0,0
45216,-133.333333333333,4,2,1,50,0,0
45911,-133.333333333333,4,1,1,50,0,0
46883,-133.333333333333,4,2,1,50,0,0
47160,-133.333333333333,4,1,1,50,0,0
47439,-133.333333333333,4,2,1,50,0,0
47716,-133.333333333333,4,1,1,50,0,0
48318,-133.333333333333,4,2,1,50,0,0
48503,-133.333333333333,4,1,1,50,0,0
49105,-133.333333333333,4,2,1,50,0,0
49382,-133.333333333333,4,1,1,50,0,0
49661,-133.333333333333,4,2,1,50,0,0
50494,-133.333333333333,4,1,1,50,0,0
51050,-133.333333333333,4,1,0,50,0,0
51327,-133.333333333333,4,1,1,50,0,0
51883,-133.333333333333,4,2,1,50,0,0
52160,-133.333333333333,4,1,1,50,0,0
52994,-133.333333333333,4,2,1,50,0,0
53271,-133.333333333333,4,1,0,50,0,0
53548,-133.333333333333,4,1,1,50,0,0
54522,-133.333333333333,4,2,1,50,0,0
54660,-133.333333333333,4,1,1,50,0,0
55772,-133.333333333333,4,2,1,50,0,0
56049,-133.333333333333,4,1,1,50,0,0
56328,-133.333333333333,4,2,1,50,0,0
57161,-133.333333333333,4,1,1,50,0,0
57439,-133.333333333333,4,2,1,50,0,0
57716,-133.333333333333,4,1,1,50,0,0
57994,-133.333333333333,4,2,1,50,0,0
58271,-133.333333333333,4,1,1,50,0,0
58548,-133.333333333333,4,2,1,50,0,0
59383,-133.333333333333,4,1,1,50,0,0
59661,-133.333333333333,4,2,1,50,0,0
59938,-133.333333333333,4,1,0,50,0,0
60216,-133.333333333333,4,1,1,50,0,0
62994,-133.333333333333,4,2,1,50,0,0
63549,-133.333333333333,4,1,1,50,0,0
64105,-133.333333333333,4,2,1,50,0,0
64382,-133.333333333333,4,1,1,50,0,0
65216,-133.333333333333,4,2,1,50,0,0
65771,-133.333333333333,4,1,1,50,0,0
66328,-133.333333333333,4,2,1,50,0,0
66605,-133.333333333333,4,1,0,50,0,0
66883,-133.333333333333,4,1,1,50,0,0
67716,-133.333333333333,4,2,1,50,0,0
67993,-133.333333333333,4,1,1,50,0,0
68550,-133.333333333333,4,2,1,50,0,0
68827,-133.333333333333,4,1,1,50,0,0
69661,-133.333333333333,4,2,1,50,0,0
69938,-133.333333333333,4,1,1,50,0,0
71050,-133.333333333333,4,1,0,50,0,0
71327,-133.333333333333,4,2,1,50,0,0
71605,-133.333333333333,4,1,1,50,0,0
71883,-133.333333333333,4,2,1,50,0,0
72438,-133.333333333333,4,1,1,50,0,0
72994,-133.333333333333,4,2,1,50,0,0
73271,-133.333333333333,4,1,1,50,0,0
74105,-133.333333333333,4,2,1,50,0,0
74660,-133.333333333333,4,1,1,50,0,0
75216,-133.333333333333,4,2,1,50,0,0
75493,-133.333333333333,4,1,1,50,0,0
76605,-133.333333333333,4,2,1,50,0,0
76882,-133.333333333333,4,1,1,50,0,0
77439,-133.333333333333,4,2,1,50,0,0
77716,-133.333333333333,4,1,1,50,0,0
78550,-133.333333333333,4,2,1,50,0,0
79105,-133.333333333333,4,1,1,50,0,0
79429,-133.333333333333,4,2,0,50,0,0
79615,-133.333333333333,4,1,1,50,0,0
80078,-100,4,1,0,70,0,0
80263,-100,4,1,1,60,0,0
84383,-100,4,1,0,60,0,0
84660,-100,4,1,1,60,0,0
86605,-100,4,1,0,60,0,0
86882,-100,4,1,1,60,0,0
87578,-100,4,1,0,60,0,0
87855,-100,4,1,1,60,0,0
88966,-100,4,1,0,60,0,0
89104,-100,4,1,1,60,0,0
91050,-100,4,1,0,60,0,0
91327,-100,4,1,1,60,0,0
93040,-100,4,2,1,60,0,0
93226,-100,4,1,0,60,0,0
93549,-100,4,1,1,60,0,0
95494,-100,4,1,0,60,0,0
95771,-100,4,1,1,60,0,0
96605,-100,4,1,0,60,0,0
96743,-100,4,1,1,60,0,0
101929,-100,4,2,1,60,0,0
102115,-100,4,1,1,60,0,0
106744,-100,4,1,0,60,0,0
106882,-100,4,1,1,60,0,0
110818,-100,4,2,1,60,0,0
111003,-100,4,1,1,60,0,0
114522,-100,4,1,1,80,0,0
115633,-66.6666666666667,4,1,0,80,0,1
115726,-66.6666666666667,4,1,1,80,0,1
119985,-66.6666666666667,4,1,0,80,0,1
120170,-66.6666666666667,4,1,1,80,0,1
122161,-66.6666666666667,4,1,0,80,0,1
122438,-66.6666666666667,4,1,1,80,0,1
123272,-66.6666666666667,4,1,0,80,0,1
123410,-66.6666666666667,4,1,1,80,0,1
124429,-66.6666666666667,4,1,0,80,0,1
124615,-66.6666666666667,4,1,1,80,0,1
128828,-66.6666666666667,4,1,0,80,0,1
129105,-66.6666666666667,4,1,1,80,0,1
131050,-66.6666666666667,4,1,0,80,0,1
131327,-66.6666666666667,4,1,1,80,0,1
132161,-66.6666666666667,4,1,0,80,0,1
132299,-66.6666666666667,4,1,1,80,0,1
133411,-66.6666666666667,4,1,1,80,0,0
151189,-100,4,2,1,70,0,1
151281,-100,4,1,1,60,0,0

[Colours]
Combo1 : 17,254,176
Combo2 : 173,255,95
Combo3 : 255,88,100
Combo4 : 255,94,55

[HitObjects]
72,296,26189,6,0,B|48:240,3,42.5
72,296,26744,2,0,B|144:240|216:288,1,127.5,4|0
191,274,27300,1,8
304,312,27578,1,0
304,312,27716,2,0,B|352:336|416:296,1,85,2|0
386,311,28133,1,0
456,216,28411,1,8
440,96,28689,1,0
304,144,28966,6,0,B|264:80|288:8,1,127.5
283,21,29522,1,8
184,144,29800,1,0
184,144,29939,2,0,B|216:184|192:256,1,85,2|0
200,224,30355,1,0
104,296,30633,1,8
208,344,30911,1,4
96,192,31189,6,0,B|56:128|80:56,1,127.5
75,69,31744,2,0,B|120:72|176:24,1,85,8|0
154,41,32161,1,0
248,120,32439,1,2
248,120,32578,2,0,B|272:72|248:24,2,85,0|8|0
368,216,33411,6,0,B|288:184|232:256,1,127.5,4|0
249,236,33966,1,8
368,336,34244,1,0
368,336,34383,2,0,B|456:352,1,85,4|8
451,351,34800,1,0
248,320,35078,1,8
128,344,35355,1,8
128,344,35494,1,8
128,344,35633,6,0,B|104:280|16:264,1,127.5,4|0
32,267,36189,2,0,B|56:216|48:176,1,85,8|0
120,136,36605,2,0,B|128:232,1,85,2|0
127,220,37022,1,0
232,272,37300,1,8
352,256,37578,1,0
352,256,37855,6,0,B|408:216|480:248,1,127.5
473,245,38411,1,8
456,128,38689,1,0
456,128,38828,2,0,B|352:112,1,85,2|0
371,115,39244,2,0,B|352:160|304:184,2,85,0|8|4
384,232,40078,6,0,B|320:240|280:328,1,127.5
289,309,40633,1,0
474,245,40911,1,0
474,245,41050,2,0,B|456:184|480:144,1,85
471,161,41466,1,0
392,64,41744,2,0,B|407:94|389:147,1,85,8|0
320,248,42300,6,0,B|384:248|440:320,1,127.5,4|0
428,306,42855,1,8
256,352,43133,1,0
256,352,43272,2,0,B|192:352|168:296,1,85,4|8
181,318,43689,1,0
216,176,43966,1,8
24,96,44244,1,8
24,96,44383,1,8
24,96,44522,5,4
40,240,44939,1,0
40,240,45078,2,0,B|64:320,1,63.749998100102,0|2
136,352,45633,2,0,B|184:328|231:354,1,95.624997150153,2|0
227,352,46189,2,0,B|256:280|248:208,1,127.499996200204
232,136,47022,5,2
216,48,47300,1,0
128,64,47578,1,2
136,152,47855,1,0
208,96,48133,1,0
288,136,48411,2,0,B|259:208|267:280,1,127.499996200204,4|0
296,344,49244,5,2
360,288,49522,1,0
440,328,49800,1,2
440,328,50078,2,0,B|480:264|456:192,1,127.499996200204,4|0
460,205,50772,1,0
460,205,50911,1,0
352,128,51189,6,0,B|312:192|336:264,1,127.499996200204,4|0
331,250,52022,1,4
168,320,52578,1,0
120,256,52855,1,0
72,192,53133,1,2
24,128,53411,5,4
160,144,53828,1,0
160,144,53966,2,0,B|208:160|256:144,1,95.624997150153
253,144,54522,1,4
328,88,54800,1,0
416,72,55078,1,0
416,72,55216,2,0,B|440:176,1,95.624997150153
392,240,55911,5,2
392,240,56189,2,0,B|376:272|376:304,1,63.749998100102,0|2
296,336,56744,2,0,B|160:336,1,127.499996200204,4|0
80,336,57578,1,0
64,296,57716,1,0
48,256,57855,5,0
136,232,58133,2,0,B|144:184|128:152,2,63.749998100102,2|0|2
216,280,58966,2,0,B|280:304|344:280,1,127.499996200204,4|0
400,216,59800,1,2
336,152,60078,6,0,B|272:128|208:152,1,127.499996200204,4|0
152,216,60911,1,0
112,280,61189,1,0
64,344,61466,2,0,B|24:352,5,31.874999050051
64,344,62300,6,0,B|40:280|64:200,1,127.499996200204,4|0
144,128,63133,2,0,B|163:189|139:253,1,127.499996200204,2|0
139,253,63966,1,0
224,296,64244,1,2
248,200,64522,6,0,B|312:176|392:200,1,127.499996200204
464,280,65355,2,0,B|402:299|338:275,1,127.499996200204,2|0
288,192,66189,1,0
240,112,66466,1,2
184,32,66744,6,0,B|48:24,2,127.499996200204,4|0|2
240,112,68133,2,0,B|273:122|304:112,2,63.749998100102,0|0|2
200,200,68966,6,0,B|137:234|70:197,1,127.499996200204
16,128,69800,1,4
240,288,70355,1,0
240,288,70633,2,0,B|303:254|370:291,1,127.499996200204,0|4
440,344,71466,5,2
456,248,71744,1,0
472,152,72022,2,0,B|448:88|488:24,1,127.499996200204,2|0
392,56,72855,1,0
296,56,73133,1,2
200,56,73411,6,0,B|223:119|187:178,1,127.499996200204
88,248,74244,2,0,B|64:184|100:125,1,127.499996200204,2|0
100,125,75078,1,0
200,128,75355,1,2
296,128,75633,6,0,B|360:144|424:128,2,127.499996200204,0|0|2
304,224,77022,1,0
248,304,77300,1,0
160,336,77578,1,2
64,336,77855,6,0,B|40:272|64:192,1,127.499996200204
152,208,78689,2,0,B|296:208,1,127.499996200204,2|0
376,208,79522,2,0,B|400:144|376:64,1,127.499996200204,4|4
256,192,80355,5,0
176,272,80633,1,8
176,272,80911,2,0,B|96:312|7:268,1,170
0,160,81744,1,8
0,160,81883,1,0
96,104,82161,1,0
96,104,82300,6,0,B|184:136|272:96,1,170,0|8
448,176,83133,2,0,B|360:144|272:184,1,170
192,248,83966,1,8
112,320,84244,1,0
224,336,84522,5,4
224,336,84800,1,0
224,336,85078,2,0,B|312:376|407:326,1,170,8|0
388,334,85772,1,0
388,334,85911,1,0
408,224,86189,2,0,B|416:136,1,85,8|0
344,56,86744,6,0,B|254:101|182:53,1,170,4|8
182,53,87439,1,0
248,144,87716,1,4
152,200,87994,1,8
152,200,88133,1,0
216,288,88411,1,8
184,304,88550,1,8
152,320,88689,1,8
120,336,88828,1,8
88,352,88966,6,0,B|64:272|80:200,1,127.5,4|0
75,226,89522,2,0,B|40:144,2,85,8|0|0
144,136,90355,1,0
200,40,90633,2,0,B|280:64|376:40,1,170,8|4
464,96,91466,5,0
464,96,91744,1,0
376,160,92022,2,0,B|323:228|319:326,1,170
427,357,92855,1,8
427,357,92994,1,0
427,357,93133,1,4
427,357,93411,6,0,B|479:289|482:199,1,170,4|8
482,199,94244,1,0
482,199,94383,2,0,B|408:152,1,85,0|8
410,153,94800,2,0,B|376:200|336:208,2,85,0|8|0
304,128,95633,6,0,B|240:96|192:176|128:112,1,170,4|8
56,192,96466,1,0
56,192,96605,2,0,B|72:232|56:280,1,85,4|8
57,275,97022,1,0
136,352,97300,1,8
165,335,97439,1,8
196,323,97578,1,8
229,316,97716,1,8
263,316,97855,6,0,B|352:360|432:296,1,170,4|8
480,216,98689,2,0,B|472:104,2,85
392,160,99522,2,0,B|296:160,1,85,8|0
232,232,100078,6,0,B|152:288|64:224,1,170,0|8
73,230,100772,1,0
64,128,101050,1,0
64,128,101189,2,0,B|56:40,2,85,0|0|8
152,176,102022,1,4
232,232,102300,6,0,B|408:208,1,170,0|8
328,72,103272,1,0
328,72,103411,2,0,B|240:72,2,85,0|0|8
424,112,104244,1,0
424,112,104383,1,0
424,112,104522,6,0,B|464:184|424:288,1,170,0|8
328,272,105355,1,0
328,272,105494,1,0
328,272,105633,2,0,B|344:320,2,42.5,0|8|0
232,232,106189,1,8
203,239,106328,1,8
173,242,106466,1,8
143,239,106605,1,8
113,232,106744,6,0,B|72:144|124:65,1,170,4|8
216,40,107578,2,0,B|392:40,1,170
400,144,108411,2,0,B|392:184|400:232,1,85,8|0
408,256,108828,1,0
418,278,108966,1,0
320,256,109244,5,0
248,184,109522,1,8
248,184,109661,2,0,B|224:128|248:72,1,85
238,100,110078,2,0,B|168:40,2,85,0|0|8
152,152,110911,1,4
152,152,111050,1,0
152,152,111189,6,0,B|192:232|144:336,2,170,0|8|0
48,152,112578,2,0,B|88:232,1,85,0|8
240,224,113133,1,0
240,224,113272,1,0
240,224,113411,6,0,B|328:264|424:216,1,170,0|8
404,224,114244,1,0
168,80,114522,1,0
152,104,114661,1,8
160,136,114800,1,8
176,160,114939,1,8
168,184,115078,1,8
152,208,115216,5,8
160,240,115355,1,8
176,264,115494,1,8
160,296,115633,6,0,B|256:352|352:288,1,191.249994300306
341,294,116189,1,0
341,294,116328,2,0,B|368:232|456:240,2,127.499996200204,8|0|0
320,128,117022,1,0
240,272,117300,2,0,B|152:328|56:264,1,191.249994300306,8|0
60,266,117855,1,0
128,136,118133,1,0
128,136,118272,1,0
128,136,118411,6,0,B|184:88|144:16,2,127.499996200204,8|0|0
288,80,119244,1,0
288,80,119522,2,0,B|192:192|296:320,1,254.999992400408,8|4
289,311,120216,6,0,B|352:280|416:296,1,127.499996200204
413,295,120633,1,8
456,136,120911,1,0
456,136,121050,2,0,B|384:136|328:80,1,127.499996200204,0|8
339,90,121466,2,0,B|312:224,2,127.499996200204,0|8|0
344,312,122300,6,0,B|232:312|208:192,1,191.249994300306,4|0
209,200,122855,2,0,B|144:160|88:200,1,127.499996200204,8|0
90,198,123272,2,0,B|48:136|80:48,1,127.499996200204,4|8
71,76,123689,1,0
352,72,123966,1,8
317,100,124105,1,8
273,110,124244,1,8
228,109,124383,1,8
184,88,124522,6,0,B|264:184|200:288,1,191.249994300306,4|0
212,265,125078,1,8
352,320,125355,1,0
352,320,125494,1,0
352,320,125633,2,0,B|328:256|360:192,1,127.499996200204
440,64,126189,1,8
296,128,126466,1,0
296,128,126605,1,0
296,128,126744,6,0,B|200:184|88:120,1,191.249994300306
112,132,127300,1,8
112,136,127439,2,0,B|127:203|79:275,1,127.499996200204
240,216,127994,1,0
240,216,128133,2,0,B|208:288|248:352,2,127.499996200204,0|8|0
384,72,128966,6,0,B|480:192|376:328,1,254.999992400408,4|8
312,176,129800,1,0
312,176,129939,2,0,B|224:208|160:160,1,127.499996200204,0|8
187,176,130355,1,0
80,72,130633,1,8
16,216,130911,1,0
88,352,131189,6,0,B|168:296|280:320,1,191.249994300306,4|0
270,318,131744,2,0,B|368:224,1,127.499996200204,8|0
362,229,132161,2,0,B|384:288|464:312,1,127.499996200204,4|8
455,309,132578,1,0
448,160,132855,1,8
413,131,132994,1,8
369,119,133133,1,8
324,122,133272,1,8
285,144,133411,1,4
216,208,133689,5,0
216,208,133966,2,0,B|160:256|88:232,1,127.499996200204,8|0
96,234,134383,2,0,B|48:280|72:360,1,127.499996200204
69,352,134800,1,0
144,152,135078,1,8
256,304,135355,1,0
256,304,135494,1,0
256,304,135633,6,0,B|304:248|392:256,1,127.499996200204
184,256,136189,2,0,B|248:168|392:168,1,191.249994300306,8|0
348,170,136744,2,0,B|400:120|384:48,1,127.499996200204
472,136,137300,1,8
472,136,137439,2,0,B|464:272,1,127.499996200204
464,263,137855,6,0,B|392:248|320:288,1,127.499996200204
192,320,138411,1,8
192,320,138550,2,0,B|232:256|216:192,1,127.499996200204
217,198,138966,1,0
96,104,139244,1,0
96,104,139383,1,0
96,104,139522,2,0,B|64:160|80:232,1,127.499996200204,8|0
304,336,140078,6,0,B|352:256|304:144,1,191.249994300306
307,151,140633,1,8
307,151,140772,2,0,B|336:88|416:72,2,127.499996200204,0|0|8
307,151,141466,1,0
240,288,141744,5,8
189,285,141883,1,8
144,260,142022,1,8
122,213,142161,1,8
125,162,142300,1,4
280,168,142578,5,0
280,168,142855,2,0,B|320:120|296:40,1,127.499996200204,8|0
296,32,143272,1,0
392,152,143550,1,0
392,152,143689,2,0,B|352:200|376:280,1,127.499996200204,0|8
240,352,144244,1,0
152,224,144522,6,0,B|96:264|32:256,1,127.499996200204
192,112,145078,2,0,B|264:184|240:312,1,191.249994300306,8|0
243,288,145633,2,0,B|304:320,2,63.749998100102,0|8|0
376,208,146189,2,0,B|352:144|400:80,1,127.499996200204,8|0
424,296,146744,6,0,B|352:248|304:360|224:272,1,191.249994300306
242,289,147300,2,0,B|256:160,2,127.499996200204,8|0|0
104,352,148133,1,0
104,352,148272,1,0
104,352,148411,2,0,B|56:304|64:224,1,127.499996200204,8|0
96,80,148966,6,0,B|184:144|160:280,1,191.249994300306
164,248,149522,1,8
296,328,149800,2,0,B|276:223|364:159,1,191.249994300306,0|8
362,160,150355,1,0
256,56,150633,1,8
256,56,150772,1,8
256,56,150911,1,8
256,56,151050,1,8
256,56,151189,1,4
