osu file format v10

[General]
AudioFilename: 40 polskich memów w 100 sekund.mp3
AudioLeadIn: 1941
PreviewTime: -1
Countdown: 2
SampleSet: None
StackLeniency: 1
Mode: 0
LetterboxInBreaks: 1
EpilepsyWarning: 1
CountdownOffset: 2

[Editor]
DistanceSpacing: 0.8
BeatDivisor: 1
GridSize: 32

[Metadata]
Title:40 polskich memow w 100sekund
TitleUnicode:40 polskich memow w 100sekund
Artist:ChlodnyKlecha
ArtistUnicode:ChlodnyKlecha
Creator:PanKacper
Version:Normal
Source:
Tags:
BeatmapID:200566
BeatmapSetID:69576

[Difficulty]
HPDrainRate:5
CircleSize:5
OverallDifficulty:5
ApproachRate:5
SliderMultiplier:1.9
SliderTickRate:1

[Events]
//Background and Video events
//Break Periods
//Storyboard Layer 0 (Background)
//Storyboard Layer 1 (Fail)
//Storyboard Layer 2 (Pass)
//Storyboard Layer 3 (Foreground)
//Storyboard Sound Samples
//Background Colour Transformations
3,100,163,162,255

[TimingPoints]
5903.93176469797,127.388535031847,4,2,0,100,1,0

[Colours]
Combo1 : 255,150,0
Combo2 : 141,73,171
Combo3 : 122,122,122
Combo4 : 0,255,0

[HitObjects]
160,32,44,1,0,0:0:0
192,192,1063,1,0,0:0:0
320,96,2082,1,0,0:0:0
128,128,2973,1,0,0:0:0
160,192,3483,1,0,0:0:0
288,224,4247,1,0,0:0:0
192,64,4884,1,0,0:0:0
96,256,6031,1,0,0:0:0
288,160,7432,1,0,0:0:0
64,160,8833,1,0,0:0:0
160,256,10107,1,0,0:0:0
160,128,11381,1,0,0:0:0
160,128,11636,1,0,0:0:0
128,160,11763,1,0,0:0:0
192,224,12145,1,0,0:0:0
320,256,12273,1,0,0:0:0
192,192,12400,1,0,0:0:0
352,192,12528,1,0,0:0:0
320,96,12782,1,0,0:0:0
256,192,12910,1,0,0:0:0
224,64,13037,1,0,0:0:0
160,224,13165,1,0,0:0:0
0,352,13292,1,0,0:0:0
160,192,13419,1,0,0:0:0
128,160,13802,1,0,0:0:0
128,128,13929,1,0,0:0:0
0,320,14184,1,0,0:0:0
128,288,14311,1,0,0:0:0
256,256,14438,1,0,0:0:0
416,192,14566,1,0,0:0:0
288,32,14693,1,0,0:0:0
224,224,14821,1,0,0:0:0
64,0,15075,1,0,0:0:0
160,128,15203,1,0,0:0:0
320,224,15330,1,0,0:0:0
128,352,15458,1,0,0:0:0
224,128,15712,1,0,0:0:0
160,256,15840,1,0,0:0:0
64,96,15967,1,0,0:0:0
32,224,16095,1,0,0:0:0
160,256,16349,1,0,0:0:0
320,256,16477,1,0,0:0:0
352,288,16604,1,0,0:0:0
128,192,16859,1,0,0:0:0
256,160,16986,1,0,0:0:0
288,32,17114,1,0,0:0:0
448,96,17241,1,0,0:0:0
256,96,17368,1,0,0:0:0
448,224,17623,1,0,0:0:0
320,224,17751,1,0,0:0:0
160,192,17878,1,0,0:0:0
352,224,18005,1,0,0:0:0
96,320,18260,1,0,0:0:0
224,224,18388,1,0,0:0:0
32,256,18515,1,0,0:0:0
224,96,18770,1,0,0:0:0
96,160,18897,1,0,0:0:0
64,160,19024,1,0,0:0:0
288,256,19279,1,0,0:0:0
192,256,19407,1,0,0:0:0
64,160,19534,1,0,0:0:0
288,192,19661,1,0,0:0:0
32,192,19916,1,0,0:0:0
160,320,20044,1,0,0:0:0
32,256,20171,1,0,0:0:0
256,224,20426,1,0,0:0:0
192,160,20935,2,0,P|416:192|256:192|320:352|128:288|96:224|128:64|320:96|480:128|384:320|128:352|64:288|96:128|128:96|64:64|32:96|64:160|0:256|288:192|384:64|448:96|448:256|416:352|416:352|32:288|64:192|64:192|160:64|320:64|352:32|256:64|256:64|0:64|32:128|32:256|32:256|64:320|64:320|0:160|-32:128|-32:160|256:96|256:96|256:128|-64:160|-64:160|-32:224|224:192|320:128|32:320|-32:288|-32:288|-64:288|-64:288|352:192|448:160,5,3990
256,192,34948,12,0,43993,0:0:0
288,160,44247,5,0,0:0:0
288,160,44375,1,0,0:0:0
128,288,44502,1,0,0:0:0
288,96,44757,1,0,0:0:0
192,224,44884,1,0,0:0:0
64,64,45012,1,0,0:0:0
160,256,45139,1,0,0:0:0
288,0,45394,1,0,0:0:0
192,128,45521,1,0,0:0:0
0,192,45649,1,0,0:0:0
288,192,45903,1,0,0:0:0
96,192,46031,1,0,0:0:0
64,192,46286,1,0,0:0:0
64,192,46413,1,0,0:0:0
256,352,46668,1,0,0:0:0
352,256,46795,1,0,0:0:0
256,64,46923,1,0,0:0:0
448,256,47177,1,0,0:0:0
320,192,47305,1,0,0:0:0
96,192,47432,1,0,0:0:0
448,224,47687,1,0,0:0:0
288,256,47814,1,0,0:0:0
192,320,48069,1,0,0:0:0
32,288,48196,1,0,0:0:0
224,320,48324,1,0,0:0:0
160,320,48579,1,0,0:0:0
352,160,48833,1,0,0:0:0
224,288,48961,1,0,0:0:0
288,96,49088,1,0,0:0:0
128,352,49343,1,0,0:0:0
288,128,49598,1,0,0:0:0
128,256,49725,1,0,0:0:0
416,128,49980,1,0,0:0:0
256,288,50107,1,0,0:0:0
480,160,50362,1,0,0:0:0
288,192,50489,1,0,0:0:0
32,128,50744,1,0,0:0:0
192,160,50872,1,0,0:0:0
128,160,51126,1,0,0:0:0
96,352,51254,1,0,0:0:0
128,32,51509,1,0,0:0:0
32,224,51636,1,0,0:0:0
32,192,51891,1,0,0:0:0
192,256,52018,1,0,0:0:0
128,256,52273,1,0,0:0:0
288,224,52400,1,0,0:0:0
64,256,52655,1,0,0:0:0
192,224,52782,1,0,0:0:0
96,192,53037,1,0,0:0:0
96,192,53165,1,0,0:0:0
32,192,53292,1,0,0:0:0
32,224,53547,1,0,0:0:0
0,224,53674,1,0,0:0:0
128,192,54438,2,0,P|288:320|224:320|288:32|160:128|352:128|416:128|416:256|160:256|64:192|96:96|96:64|64:96|32:320|32:384|128:320|416:192|480:160|384:96|256:64|192:64|160:64|160:64|32:32|32:128|0:192|96:384|416:160|416:32|480:256|416:384|256:352|128:352|64:288|0:224|0:128|0:96|192:32|352:64|-32:288|32:256|448:128|384:384,8,2090
