osu file format v14

[General]
AudioFilename: Baby Fantastic!(Epsilon Remix).mp3
AudioLeadIn: 0
PreviewTime: 89369
Countdown: 0
SampleSet: Normal
StackLeniency: 0.7
Mode: 1
LetterboxInBreaks: 0
WidescreenStoryboard: 0

[Editor]
Bookmarks: 44112,111312,178512,222398,290969
DistanceSpacing: 0.5
BeatDivisor: 4
GridSize: 4
TimelineZoom: 1.9

[Metadata]
Title:Baby Fantastic!(Epsilon Remix)
TitleUnicode:Baby Fantastic!(Epsilon Remix)
Artist:Chiyoko
ArtistUnicode:ちよこ
Creator:Charlotte
Version:Fantastic! Oni!
Source:花嫁と魔王~王室のハーレムは下克上~
Tags:Hanayome to Maou ~ Oushitu no Harem wa Gekokujou ~ Nardoxyribonucleic
BeatmapID:1056236
BeatmapSetID:496210

[Difficulty]
HPDrainRate:4
CircleSize:5
OverallDifficulty:6.5
ApproachRate:5
SliderMultiplier:1.4
SliderTickRate:1

[Events]
//Background and Video events
0,0,"hanayome.jpg",0,100
//Break Periods
//Storyboard Layer 0 (Background)
//Storyboard Layer 1 (Fail)
//Storyboard Layer 2 (Pass)
//Storyboard Layer 3 (Foreground)
//Storyboard Sound Samples

[TimingPoints]
227,342.857142857143,4,1,0,65,1,0
11198,-100,4,1,0,75,0,0
66055,-111.111111111111,4,1,0,75,0,0
81827,-108.695652173913,4,1,0,75,0,0
81998,-106.382978723404,4,1,0,75,0,0
82169,-104.166666666667,4,1,0,75,0,0
82341,-102.040816326531,4,1,0,75,0,0
82427,-101.010101010101,4,1,0,75,0,0
82512,-100,4,1,0,75,0,0
89369,-100,4,1,0,75,0,1
111312,-100,4,1,0,75,0,0
155198,-111.111111111111,4,1,0,75,0,0
170969,-108.695652173913,4,1,0,75,0,0
171141,-106.382978723404,4,1,0,75,0,0
171312,-104.166666666667,4,1,0,75,0,0
171484,-102.040816326531,4,1,0,75,0,0
171569,-101.010101010101,4,1,0,75,0,0
171655,-100,4,1,0,75,0,0
178512,-100,4,1,0,75,0,1
200455,-100,4,1,0,75,0,0
269027,-100,4,1,0,75,0,1
290969,-100,4,1,0,75,0,0

[HitObjects]
256,192,227,5,0,0:0:0:0:
256,192,569,1,8,0:0:0:0:
256,192,741,1,0,0:0:0:0:
256,192,912,1,8,0:0:0:0:
256,192,1255,1,0,0:0:0:0:
256,192,1427,1,8,0:0:0:0:
256,192,1598,1,0,0:0:0:0:
256,192,1769,1,0,0:0:0:0:
256,192,1941,1,8,0:0:0:0:
256,192,2112,1,8,0:0:0:0:
256,192,2284,1,0,0:0:0:0:
256,192,2627,1,8,0:0:0:0:
256,192,2969,1,0,0:0:0:0:
256,192,3141,1,0,0:0:0:0:
256,192,3312,1,8,0:0:0:0:
256,192,3655,1,0,0:0:0:0:
256,192,3998,1,8,0:0:0:0:
256,192,4341,1,0,0:0:0:0:
256,192,4512,1,8,0:0:0:0:
256,192,4855,1,8,0:0:0:0:
256,192,5198,1,8,0:0:0:0:
256,192,5284,1,8,0:0:0:0:
256,192,5369,1,0,0:0:0:0:
256,192,5541,1,8,0:0:0:0:
256,192,5712,1,0,0:0:0:0:
256,192,6055,1,8,0:0:0:0:
256,192,6227,1,0,0:0:0:0:
256,192,6398,1,8,0:0:0:0:
256,192,6741,1,8,0:0:0:0:
256,192,6912,1,0,0:0:0:0:
256,192,7084,1,0,0:0:0:0:
256,192,7427,1,8,0:0:0:0:
256,192,7769,1,0,0:0:0:0:
256,192,7941,1,0,0:0:0:0:
256,192,8112,1,8,0:0:0:0:
256,192,8455,1,8,0:0:0:0:
256,192,8627,1,0,0:0:0:0:
256,192,8798,1,8,0:0:0:0:
256,192,8969,1,0,0:0:0:0:
256,192,9141,1,0,0:0:0:0:
256,192,9484,1,0,0:0:0:0:
256,192,9827,1,0,0:0:0:0:
256,192,9998,1,8,0:0:0:0:
256,192,10341,1,8,0:0:0:0:
256,192,10684,1,8,0:0:0:0:
256,192,10855,1,0,0:0:0:0:
256,192,10941,1,0,0:0:0:0:
256,192,11027,1,8,0:0:0:0:
256,192,11112,1,8,0:0:0:0:
256,192,11198,1,0,0:0:0:0:
256,192,11369,1,0,0:0:0:0:
256,192,11455,1,0,0:0:0:0:
256,192,11540,1,8,0:0:0:0:
256,192,11712,1,0,0:0:0:0:
256,192,11883,1,8,0:0:0:0:
256,192,12055,1,0,0:0:0:0:
256,192,12140,1,0,0:0:0:0:
256,192,12226,1,8,0:0:0:0:
256,192,12397,1,8,0:0:0:0:
256,192,12483,1,0,0:0:0:0:
256,192,12569,1,0,0:0:0:0:
256,192,12655,1,0,0:0:0:0:
256,192,12740,1,8,0:0:0:0:
256,192,12826,1,8,0:0:0:0:
256,192,12912,1,8,0:0:0:0:
256,192,13083,1,8,0:0:0:0:
256,192,13169,1,0,0:0:0:0:
256,192,13255,1,0,0:0:0:0:
256,192,13426,1,0,0:0:0:0:
256,192,13597,1,8,0:0:0:0:
256,192,13940,1,0,0:0:0:0:
256,192,14112,1,8,0:0:0:0:
256,192,14197,1,8,0:0:0:0:
256,192,14283,1,0,0:0:0:0:
256,192,14455,1,8,0:0:0:0:
256,192,14626,1,0,0:0:0:0:
256,192,14797,1,0,0:0:0:0:
256,192,14969,1,8,0:0:0:0:
256,192,15140,1,8,0:0:0:0:
256,192,15226,1,8,0:0:0:0:
256,192,15312,1,0,0:0:0:0:
256,192,15483,1,8,0:0:0:0:
256,192,15655,1,0,0:0:0:0:
256,192,15769,1,0,0:0:0:0:
256,192,15883,1,0,0:0:0:0:
256,192,15997,1,8,0:0:0:0:
256,192,16169,1,0,0:0:0:0:
256,192,16341,1,8,0:0:0:0:
256,192,16426,1,8,0:0:0:0:
256,192,16512,1,8,0:0:0:0:
256,192,16597,1,8,0:0:0:0:
256,192,16683,1,0,0:0:0:0:
256,192,16855,1,0,0:0:0:0:
256,192,16940,1,0,0:0:0:0:
256,192,17026,1,8,0:0:0:0:
256,192,17197,1,0,0:0:0:0:
256,192,17369,1,8,0:0:0:0:
256,192,17455,1,8,0:0:0:0:
256,192,17540,1,0,0:0:0:0:
256,192,17626,1,0,0:0:0:0:
256,192,17712,1,8,0:0:0:0:
256,192,17883,1,0,0:0:0:0:
256,192,17969,1,8,0:0:0:0:
256,192,18055,1,0,0:0:0:0:
256,192,18226,1,0,0:0:0:0:
256,192,18397,1,8,0:0:0:0:
256,192,18569,1,8,0:0:0:0:
256,192,18655,1,8,0:0:0:0:
256,192,18740,1,0,0:0:0:0:
256,192,18912,1,8,0:0:0:0:
256,192,18997,1,0,0:0:0:0:
256,192,19083,1,8,0:0:0:0:
256,192,19169,1,8,0:0:0:0:
256,192,19255,1,0,0:0:0:0:
256,192,19426,1,8,0:0:0:0:
256,192,19597,1,0,0:0:0:0:
256,192,19769,1,8,0:0:0:0:
256,192,19940,1,0,0:0:0:0:
256,192,20027,1,0,0:0:0:0:
256,192,20112,1,8,0:0:0:0:
256,192,20198,1,8,0:0:0:0:
256,192,20283,1,0,0:0:0:0:
256,192,20455,1,8,0:0:0:0:
256,192,20626,1,0,0:0:0:0:
256,192,20797,1,0,0:0:0:0:
256,192,20883,1,0,0:0:0:0:
256,192,20969,1,8,0:0:0:0:
256,192,21055,1,0,0:0:0:0:
256,192,21140,1,8,0:0:0:0:
256,192,21226,1,8,0:0:0:0:
256,192,21312,1,0,0:0:0:0:
256,192,21397,1,0,0:0:0:0:
256,192,21483,1,8,0:0:0:0:
256,192,22169,1,4,0:0:0:0:
256,192,22512,1,0,0:0:0:0:
256,192,22855,1,8,0:0:0:0:
256,192,23198,1,8,0:0:0:0:
256,192,23369,1,8,0:0:0:0:
256,192,23541,1,0,0:0:0:0:
256,192,23712,1,8,0:0:0:0:
256,192,23798,1,8,0:0:0:0:
256,192,23884,1,0,0:0:0:0:
256,192,24055,1,8,0:0:0:0:
256,192,24227,1,0,0:0:0:0:
256,192,24312,1,0,0:0:0:0:
256,192,24398,1,8,0:0:0:0:
256,192,24484,1,0,0:0:0:0:
256,192,24569,1,8,0:0:0:0:
256,192,24627,1,8,0:0:0:0:
256,192,24684,1,8,0:0:0:0:
256,192,24741,1,8,0:0:0:0:
256,192,24798,1,8,0:0:0:0:
256,192,24855,1,8,0:0:0:0:
256,192,24912,1,0,0:0:0:0:
256,192,25084,1,0,0:0:0:0:
256,192,25169,1,8,0:0:0:0:
256,192,25255,1,0,0:0:0:0:
256,192,25426,1,0,0:0:0:0:
256,192,25597,1,8,0:0:0:0:
256,192,25769,1,0,0:0:0:0:
256,192,25855,1,0,0:0:0:0:
256,192,25940,1,8,0:0:0:0:
256,192,26112,1,8,0:0:0:0:
256,192,26198,1,8,0:0:0:0:
256,192,26283,1,0,0:0:0:0:
256,192,26455,1,8,0:0:0:0:
256,192,26626,1,0,0:0:0:0:
256,192,26740,1,0,0:0:0:0:
256,192,26855,1,0,0:0:0:0:
256,192,26969,1,8,0:0:0:0:
256,192,27140,1,0,0:0:0:0:
256,192,27312,1,8,0:0:0:0:
256,192,27483,1,8,0:0:0:0:
256,192,27655,1,4,0:0:0:0:
256,192,27826,1,8,0:0:0:0:
256,192,27912,1,0,0:0:0:0:
256,192,27997,1,8,0:0:0:0:
256,192,28083,1,8,0:0:0:0:
256,192,28169,1,0,0:0:0:0:
256,192,28340,1,8,0:0:0:0:
256,192,28512,1,0,0:0:0:0:
256,192,28597,1,0,0:0:0:0:
256,192,28683,1,8,0:0:0:0:
256,192,28855,1,0,0:0:0:0:
256,192,29026,1,8,0:0:0:0:
256,192,29112,1,8,0:0:0:0:
256,192,29197,1,0,0:0:0:0:
256,192,29284,1,0,0:0:0:0:
256,192,29369,1,8,0:0:0:0:
256,192,29540,1,8,0:0:0:0:
256,192,29712,1,0,0:0:0:0:
256,192,29797,1,0,0:0:0:0:
256,192,29883,1,0,0:0:0:0:
256,192,29969,1,0,0:0:0:0:
256,192,30055,1,8,0:0:0:0:
256,192,30226,1,8,0:0:0:0:
256,192,30397,1,0,0:0:0:0:
256,192,30569,1,0,0:0:0:0:
256,192,30655,1,0,0:0:0:0:
256,192,30740,1,8,0:0:0:0:
256,192,30912,1,0,0:0:0:0:
256,192,31083,1,8,0:0:0:0:
256,192,31169,1,8,0:0:0:0:
256,192,31255,1,0,0:0:0:0:
256,192,31341,1,0,0:0:0:0:
256,192,31426,1,8,0:0:0:0:
256,192,31597,1,8,0:0:0:0:
256,192,31683,1,8,0:0:0:0:
256,192,31769,1,0,0:0:0:0:
256,192,31940,1,0,0:0:0:0:
256,192,32026,1,0,0:0:0:0:
256,192,32112,1,8,0:0:0:0:
256,192,32197,1,0,0:0:0:0:
256,192,32283,1,8,0:0:0:0:
256,192,32369,1,8,0:0:0:0:
256,192,32455,1,0,0:0:0:0:
256,192,32541,1,0,0:0:0:0:
256,192,32626,1,8,0:0:0:0:
256,192,32712,1,0,0:0:0:0:
256,192,32797,1,8,0:0:0:0:
256,192,32969,1,0,0:0:0:0:
256,192,33141,1,12,0:0:0:0:
256,192,33313,1,0,0:0:0:0:
256,192,33484,1,0,0:0:0:0:
256,192,33570,1,8,0:0:0:0:
256,192,33741,1,8,0:0:0:0:
256,192,33827,1,0,0:0:0:0:
256,192,33912,1,0,0:0:0:0:
256,192,33998,1,8,0:0:0:0:
256,192,34084,1,0,0:0:0:0:
256,192,34256,1,0,0:0:0:0:
256,192,34341,1,8,0:0:0:0:
256,192,34513,1,0,0:0:0:0:
256,192,34570,1,0,0:0:0:0:
256,192,34627,1,0,0:0:0:0:
256,192,34684,1,8,0:0:0:0:
256,192,34856,1,8,0:0:0:0:
256,192,34941,1,0,0:0:0:0:
256,192,35027,1,8,0:0:0:0:
256,192,35112,1,8,0:0:0:0:
256,192,35198,1,0,0:0:0:0:
256,192,35284,1,8,0:0:0:0:
256,192,35456,1,8,0:0:0:0:
256,192,35541,1,8,0:0:0:0:
256,192,35713,1,8,0:0:0:0:
256,192,35798,1,0,0:0:0:0:
256,192,35884,1,8,0:0:0:0:
256,192,36056,1,0,0:0:0:0:
256,192,36227,1,0,0:0:0:0:
256,192,36313,1,8,0:0:0:0:
256,192,36484,1,8,0:0:0:0:
256,192,36570,1,0,0:0:0:0:
256,192,36655,1,0,0:0:0:0:
256,192,36741,1,8,0:0:0:0:
256,192,36827,1,8,0:0:0:0:
256,192,36998,1,0,0:0:0:0:
256,192,37084,1,8,0:0:0:0:
256,192,37256,1,0,0:0:0:0:
256,192,37313,1,0,0:0:0:0:
256,192,37370,1,0,0:0:0:0:
256,192,37427,1,8,0:0:0:0:
256,192,37598,1,0,0:0:0:0:
256,192,37684,1,0,0:0:0:0:
256,192,37770,1,8,0:0:0:0:
256,192,37856,1,0,0:0:0:0:
256,192,37941,1,8,0:0:0:0:
256,192,38027,1,8,0:0:0:0:
256,192,38198,1,0,0:0:0:0:
256,192,38284,1,8,0:0:0:0:
256,192,38456,1,8,0:0:0:0:
256,192,38541,1,8,0:0:0:0:
256,192,38627,1,0,0:0:0:0:
256,192,38798,1,8,0:0:0:0:
256,192,38970,1,0,0:0:0:0:
256,192,39056,1,8,0:0:0:0:
256,192,39227,1,8,0:0:0:0:
256,192,39313,1,0,0:0:0:0:
256,192,39398,1,0,0:0:0:0:
256,192,39484,1,8,0:0:0:0:
256,192,39570,1,0,0:0:0:0:
256,192,39741,1,0,0:0:0:0:
256,192,39827,1,8,0:0:0:0:
256,192,39998,1,0,0:0:0:0:
256,192,40056,1,0,0:0:0:0:
256,192,40113,1,0,0:0:0:0:
256,192,40170,1,8,0:0:0:0:
256,192,40341,1,8,0:0:0:0:
256,192,40427,1,0,0:0:0:0:
256,192,40513,1,0,0:0:0:0:
256,192,40598,1,8,0:0:0:0:
256,192,40684,1,8,0:0:0:0:
256,192,40770,1,0,0:0:0:0:
256,192,40941,1,8,0:0:0:0:
256,192,41027,1,0,0:0:0:0:
256,192,41198,1,8,0:0:0:0:
256,192,41255,1,8,0:0:0:0:
256,192,41312,1,8,0:0:0:0:
256,192,41370,1,8,0:0:0:0:
256,192,41541,1,0,0:0:0:0:
256,192,41713,1,0,0:0:0:0:
256,192,41798,1,8,0:0:0:0:
256,192,41969,1,8,0:0:0:0:
256,192,42056,1,0,0:0:0:0:
256,192,42141,1,0,0:0:0:0:
256,192,42227,1,8,0:0:0:0:
256,192,42313,1,8,0:0:0:0:
256,192,42484,1,0,0:0:0:0:
256,192,42569,1,8,0:0:0:0:
256,192,42741,1,0,0:0:0:0:
256,192,42798,1,0,0:0:0:0:
256,192,42856,1,0,0:0:0:0:
256,192,42913,1,8,0:0:0:0:
256,192,43084,1,0,0:0:0:0:
256,192,43170,1,0,0:0:0:0:
256,192,43256,1,8,0:0:0:0:
256,192,43341,1,0,0:0:0:0:
256,192,43427,1,8,0:0:0:0:
256,192,43513,1,8,0:0:0:0:
256,192,43684,1,8,0:0:0:0:
256,192,43769,1,0,0:0:0:0:
256,192,43855,1,0,0:0:0:0:
256,192,43941,1,8,0:0:0:0:
256,192,44112,1,4,0:0:0:0:
256,192,44455,1,8,0:0:0:0:
256,192,44627,1,0,0:0:0:0:
256,192,44712,1,0,0:0:0:0:
256,192,44798,1,8,0:0:0:0:
256,192,44969,1,0,0:0:0:0:
256,192,45141,1,0,0:0:0:0:
256,192,45312,1,8,0:0:0:0:
256,192,45484,1,0,0:0:0:0:
256,192,45827,1,8,0:0:0:0:
256,192,45998,1,0,0:0:0:0:
256,192,46084,1,0,0:0:0:0:
256,192,46169,1,8,0:0:0:0:
256,192,46341,1,8,0:0:0:0:
256,192,46512,1,0,0:0:0:0:
256,192,46684,1,8,0:0:0:0:
256,192,46855,1,0,0:0:0:0:
256,192,47198,1,8,0:0:0:0:
256,192,47541,1,0,0:0:0:0:
256,192,47712,1,0,0:0:0:0:
256,192,47884,1,8,0:0:0:0:
256,192,48055,1,0,0:0:0:0:
256,192,48227,1,0,0:0:0:0:
256,192,48569,1,8,0:0:0:0:
256,192,48912,1,0,0:0:0:0:
256,192,49084,1,8,0:0:0:0:
256,192,49169,1,8,0:0:0:0:
256,192,49255,1,8,0:0:0:0:
256,192,49427,1,0,0:0:0:0:
256,192,49598,1,0,0:0:0:0:
256,192,49941,1,8,0:0:0:0:
256,192,50284,1,0,0:0:0:0:
256,192,50455,1,0,0:0:0:0:
256,192,50541,1,0,0:0:0:0:
256,192,50627,1,8,0:0:0:0:
256,192,50798,1,8,0:0:0:0:
256,192,50969,1,0,0:0:0:0:
256,192,51312,1,0,0:0:0:0:
256,192,51484,1,8,0:0:0:0:
256,192,51655,1,0,0:0:0:0:
256,192,51827,1,8,0:0:0:0:
256,192,51912,1,8,0:0:0:0:
256,192,51998,1,0,0:0:0:0:
256,192,52169,1,8,0:0:0:0:
256,192,52341,1,0,0:0:0:0:
256,192,52684,1,8,0:0:0:0:
256,192,52855,1,8,0:0:0:0:
256,192,53027,1,0,0:0:0:0:
256,192,53198,1,0,0:0:0:0:
256,192,53284,1,0,0:0:0:0:
256,192,53369,1,0,0:0:0:0:
256,192,53541,1,8,0:0:0:0:
256,192,53712,1,8,0:0:0:0:
256,192,53884,1,0,0:0:0:0:
256,192,53969,1,0,0:0:0:0:
256,192,54055,1,8,0:0:0:0:
256,192,54227,1,0,0:0:0:0:
256,192,54398,1,8,0:0:0:0:
256,192,54484,1,8,0:0:0:0:
256,192,54569,1,0,0:0:0:0:
256,192,54655,1,0,0:0:0:0:
256,192,54741,1,8,0:0:0:0:
256,192,54912,1,8,0:0:0:0:
256,192,55084,1,4,0:0:0:0:
256,192,55427,1,8,0:0:0:0:
256,192,55598,1,0,0:0:0:0:
256,192,55684,1,0,0:0:0:0:
256,192,55769,1,8,0:0:0:0:
256,192,55941,1,0,0:0:0:0:
256,192,56112,1,8,0:0:0:0:
256,192,56284,1,8,0:0:0:0:
256,192,56455,1,0,0:0:0:0:
256,192,56627,1,8,0:0:0:0:
256,192,56712,1,0,0:0:0:0:
256,192,56798,1,8,0:0:0:0:
256,192,56969,1,0,0:0:0:0:
256,192,57055,1,0,0:0:0:0:
256,192,57141,1,8,0:0:0:0:
256,192,57312,1,8,0:0:0:0:
256,192,57484,1,0,0:0:0:0:
256,192,57655,1,8,0:0:0:0:
256,192,57827,1,0,0:0:0:0:
256,192,58169,1,8,0:0:0:0:
256,192,58341,1,0,0:0:0:0:
256,192,58427,1,0,0:0:0:0:
256,192,58512,1,0,0:0:0:0:
256,192,58684,1,0,0:0:0:0:
256,192,58855,1,8,0:0:0:0:
256,192,59027,1,0,0:0:0:0:
256,192,59198,1,0,0:0:0:0:
256,192,59369,1,0,0:0:0:0:
256,192,59455,1,0,0:0:0:0:
256,192,59541,1,8,0:0:0:0:
256,192,59712,1,8,0:0:0:0:
256,192,59798,1,8,0:0:0:0:
256,192,59884,1,0,0:0:0:0:
256,192,60055,1,0,0:0:0:0:
256,192,60227,1,8,0:0:0:0:
256,192,60398,1,8,0:0:0:0:
256,192,60569,1,0,0:0:0:0:
256,192,60912,1,8,0:0:0:0:
256,192,61084,1,0,0:0:0:0:
256,192,61169,1,0,0:0:0:0:
256,192,61255,1,0,0:0:0:0:
256,192,61427,1,0,0:0:0:0:
256,192,61598,1,8,0:0:0:0:
256,192,61769,1,0,0:0:0:0:
256,192,61855,1,0,0:0:0:0:
256,192,61941,1,8,0:0:0:0:
256,192,62112,1,0,0:0:0:0:
256,192,62284,1,8,0:0:0:0:
256,192,62455,1,8,0:0:0:0:
256,192,62541,1,8,0:0:0:0:
256,192,62627,1,0,0:0:0:0:
256,192,62798,1,0,0:0:0:0:
256,192,62969,1,8,0:0:0:0:
256,192,63141,1,0,0:0:0:0:
256,192,63312,1,8,0:0:0:0:
256,192,63655,1,8,0:0:0:0:
256,192,63827,1,8,0:0:0:0:
256,192,63912,1,8,0:0:0:0:
256,192,63998,1,0,0:0:0:0:
256,192,64169,1,0,0:0:0:0:
256,192,64341,1,8,0:0:0:0:
256,192,64512,1,0,0:0:0:0:
256,192,64598,1,0,0:0:0:0:
256,192,64684,1,8,0:0:0:0:
256,192,64855,1,0,0:0:0:0:
256,192,65027,1,8,0:0:0:0:
256,192,65112,1,8,0:0:0:0:
256,192,65198,1,0,0:0:0:0:
256,192,65284,1,0,0:0:0:0:
256,192,65369,1,8,0:0:0:0:
256,192,66055,1,4,0:0:0:0:
256,192,66398,1,8,0:0:0:0:
256,192,66569,1,0,0:0:0:0:
256,192,66741,1,8,0:0:0:0:
256,192,67084,1,0,0:0:0:0:
256,192,67255,1,8,0:0:0:0:
256,192,67427,1,0,0:0:0:0:
256,192,67598,1,0,0:0:0:0:
256,192,67769,1,8,0:0:0:0:
256,192,67941,1,0,0:0:0:0:
256,192,68112,1,8,0:0:0:0:
256,192,68455,1,0,0:0:0:0:
256,192,68627,1,0,0:0:0:0:
256,192,68798,1,8,0:0:0:0:
256,192,69141,1,8,0:0:0:0:
256,192,69312,1,0,0:0:0:0:
256,192,69484,1,8,0:0:0:0:
256,192,69827,1,8,0:0:0:0:
256,192,69998,1,0,0:0:0:0:
256,192,70169,1,0,0:0:0:0:
256,192,70341,1,0,0:0:0:0:
256,192,70512,1,8,0:0:0:0:
256,192,70684,1,0,0:0:0:0:
256,192,70855,1,8,0:0:0:0:
256,192,71198,1,8,0:0:0:0:
256,192,71541,1,0,0:0:0:0:
256,192,71884,1,8,0:0:0:0:
256,192,72055,1,0,0:0:0:0:
256,192,72227,1,8,0:0:0:0:
256,192,72569,1,8,0:0:0:0:
256,192,72912,1,0,0:0:0:0:
256,192,73255,1,8,0:0:0:0:
256,192,73427,1,0,0:0:0:0:
256,192,73598,1,8,0:0:0:0:
256,192,73941,1,8,0:0:0:0:
256,192,74284,1,0,0:0:0:0:
256,192,74627,1,8,0:0:0:0:
256,192,74969,1,8,0:0:0:0:
256,192,75312,1,8,0:0:0:0:
256,192,75427,1,8,0:0:0:0:
256,192,75541,1,8,0:0:0:0:
256,192,75655,1,0,0:0:0:0:
256,192,75998,1,8,0:0:0:0:
256,192,76341,1,8,0:0:0:0:
256,192,76512,1,8,0:0:0:0:
256,192,76598,1,8,0:0:0:0:
256,192,76684,1,8,0:0:0:0:
256,192,76855,1,8,0:0:0:0:
256,192,77027,1,4,0:0:0:0:
256,192,77369,1,8,0:0:0:0:
256,192,77541,1,0,0:0:0:0:
256,192,77712,1,8,0:0:0:0:
256,192,78055,1,0,0:0:0:0:
256,192,78227,1,8,0:0:0:0:
256,192,78398,1,0,0:0:0:0:
256,192,78569,1,0,0:0:0:0:
256,192,78741,1,8,0:0:0:0:
256,192,78912,1,0,0:0:0:0:
256,192,79084,1,8,0:0:0:0:
256,192,79427,1,0,0:0:0:0:
256,192,79598,1,0,0:0:0:0:
256,192,79769,1,8,0:0:0:0:
256,192,80112,1,8,0:0:0:0:
256,192,80284,1,0,0:0:0:0:
256,192,80455,1,8,0:0:0:0:
256,192,80798,1,8,0:0:0:0:
256,192,80969,1,0,0:0:0:0:
256,192,81141,1,0,0:0:0:0:
256,192,81312,1,0,0:0:0:0:
256,192,81484,1,8,0:0:0:0:
256,192,81827,1,8,0:0:0:0:
256,192,81998,1,0,0:0:0:0:
256,192,82169,1,8,0:0:0:0:
256,192,82341,1,8,0:0:0:0:
256,192,82427,1,8,0:0:0:0:
256,192,82512,1,0,0:0:0:0:
256,192,82684,1,8,0:0:0:0:
256,192,82769,1,0,0:0:0:0:
256,192,82855,1,8,0:0:0:0:
256,192,82941,1,8,0:0:0:0:
256,192,83027,1,0,0:0:0:0:
256,192,83112,1,0,0:0:0:0:
256,192,83198,1,8,0:0:0:0:
256,192,83369,1,0,0:0:0:0:
256,192,83455,1,0,0:0:0:0:
256,192,83541,1,8,0:0:0:0:
256,192,83712,1,8,0:0:0:0:
256,192,83884,1,0,0:0:0:0:
256,192,84055,1,0,0:0:0:0:
256,192,84141,1,0,0:0:0:0:
256,192,84227,1,8,0:0:0:0:
256,192,84398,1,0,0:0:0:0:
256,192,84569,1,8,0:0:0:0:
256,192,84655,1,8,0:0:0:0:
256,192,84741,1,0,0:0:0:0:
256,192,84827,1,0,0:0:0:0:
256,192,84912,1,8,0:0:0:0:
256,192,85084,1,8,0:0:0:0:
256,192,85255,1,0,0:0:0:0:
256,192,85427,1,0,0:0:0:0:
256,192,85512,1,0,0:0:0:0:
256,192,85598,1,8,0:0:0:0:
256,192,85769,1,8,0:0:0:0:
256,192,85855,1,8,0:0:0:0:
256,192,85941,1,0,0:0:0:0:
256,192,86112,1,0,0:0:0:0:
256,192,86284,1,8,0:0:0:0:
256,192,86455,1,0,0:0:0:0:
256,192,86541,1,0,0:0:0:0:
256,192,86627,1,8,0:0:0:0:
256,192,86798,1,0,0:0:0:0:
256,192,86969,1,8,0:0:0:0:
256,192,87055,1,0,0:0:0:0:
256,192,87141,1,8,0:0:0:0:
256,192,87227,1,8,0:0:0:0:
256,192,87312,1,0,0:0:0:0:
256,192,87484,1,8,0:0:0:0:
256,192,87569,1,0,0:0:0:0:
256,192,87655,1,8,0:0:0:0:
256,192,87827,1,8,0:0:0:0:
256,192,87998,1,0,0:0:0:0:
256,192,88084,1,0,0:0:0:0:
256,192,88169,1,8,0:0:0:0:
256,192,88255,1,8,0:0:0:0:
256,192,88341,1,0,0:0:0:0:
256,192,88398,1,0,0:0:0:0:
256,192,88455,1,0,0:0:0:0:
256,192,88512,1,0,0:0:0:0:
256,192,88569,1,0,0:0:0:0:
256,192,88627,1,0,0:0:0:0:
256,192,88684,1,8,0:0:0:0:
256,192,88769,1,0,0:0:0:0:
256,192,88855,1,8,0:0:0:0:
256,192,88912,1,0,0:0:0:0:
256,192,88969,1,0,0:0:0:0:
256,192,89027,1,8,0:0:0:0:
256,192,89112,1,0,0:0:0:0:
256,192,89198,1,8,0:0:0:0:
256,192,89255,1,8,0:0:0:0:
256,192,89312,1,8,0:0:0:0:
256,192,89369,1,0,0:0:0:0:
256,192,89541,1,0,0:0:0:0:
256,192,89627,1,0,0:0:0:0:
256,192,89712,1,8,0:0:0:0:
256,192,89884,1,0,0:0:0:0:
256,192,90055,1,8,0:0:0:0:
256,192,90227,1,0,0:0:0:0:
256,192,90312,1,0,0:0:0:0:
256,192,90398,1,8,0:0:0:0:
256,192,90569,1,0,0:0:0:0:
256,192,90655,1,8,0:0:0:0:
256,192,90741,1,0,0:0:0:0:
256,192,90827,1,0,0:0:0:0:
256,192,90912,1,8,0:0:0:0:
256,192,90998,1,0,0:0:0:0:
256,192,91084,1,8,0:0:0:0:
256,192,91255,1,8,0:0:0:0:
256,192,91341,1,0,0:0:0:0:
256,192,91427,1,0,0:0:0:0:
256,192,91598,1,0,0:0:0:0:
256,192,91769,1,8,0:0:0:0:
256,192,92112,1,4,0:0:0:0:
256,192,92284,1,8,0:0:0:0:
256,192,92369,1,8,0:0:0:0:
256,192,92455,1,0,0:0:0:0:
256,192,92627,1,0,0:0:0:0:
256,192,92798,1,8,0:0:0:0:
256,192,92969,1,0,0:0:0:0:
256,192,93141,1,8,0:0:0:0:
256,192,93312,1,8,0:0:0:0:
256,192,93398,1,8,0:0:0:0:
256,192,93484,1,0,0:0:0:0:
256,192,93655,1,8,0:0:0:0:
256,192,93827,1,0,0:0:0:0:
256,192,93941,1,0,0:0:0:0:
256,192,94055,1,0,0:0:0:0:
256,192,94169,1,8,0:0:0:0:
256,192,94341,1,0,0:0:0:0:
256,192,94512,1,8,0:0:0:0:
256,192,94598,1,8,0:0:0:0:
256,192,94684,1,8,0:0:0:0:
256,192,94769,1,8,0:0:0:0:
256,192,94855,1,0,0:0:0:0:
256,192,95027,1,0,0:0:0:0:
256,192,95112,1,0,0:0:0:0:
256,192,95198,1,8,0:0:0:0:
256,192,95369,1,0,0:0:0:0:
256,192,95541,1,8,0:0:0:0:
256,192,95627,1,8,0:0:0:0:
256,192,95712,1,0,0:0:0:0:
256,192,95798,1,0,0:0:0:0:
256,192,95884,1,8,0:0:0:0:
256,192,96055,1,0,0:0:0:0:
256,192,96141,1,8,0:0:0:0:
256,192,96227,1,0,0:0:0:0:
256,192,96398,1,0,0:0:0:0:
256,192,96569,1,8,0:0:0:0:
256,192,96741,1,8,0:0:0:0:
256,192,96827,1,8,0:0:0:0:
256,192,96912,1,0,0:0:0:0:
256,192,97084,1,8,0:0:0:0:
256,192,97169,1,0,0:0:0:0:
256,192,97255,1,8,0:0:0:0:
256,192,97341,1,8,0:0:0:0:
256,192,97427,1,0,0:0:0:0:
256,192,97598,1,8,0:0:0:0:
256,192,97769,1,0,0:0:0:0:
256,192,97941,1,8,0:0:0:0:
256,192,98112,1,0,0:0:0:0:
256,192,98198,1,0,0:0:0:0:
256,192,98284,1,0,0:0:0:0:
256,192,98369,1,8,0:0:0:0:
256,192,98455,1,0,0:0:0:0:
256,192,98627,1,8,0:0:0:0:
256,192,98798,1,0,0:0:0:0:
256,192,98969,1,0,0:0:0:0:
256,192,99055,1,0,0:0:0:0:
256,192,99141,1,8,0:0:0:0:
256,192,99312,1,0,0:0:0:0:
256,192,99398,1,0,0:0:0:0:
256,192,99484,1,0,0:0:0:0:
256,192,99569,1,0,0:0:0:0:
256,192,99655,1,8,0:0:0:0:
256,192,99827,1,0,0:0:0:0:
256,192,99998,1,8,0:0:0:0:
256,192,100169,1,8,0:0:0:0:
256,192,100255,1,8,0:0:0:0:
256,192,100341,1,0,0:0:0:0:
256,192,100512,1,0,0:0:0:0:
256,192,100598,1,0,0:0:0:0:
256,192,100684,1,8,0:0:0:0:
256,192,100855,1,0,0:0:0:0:
256,192,101027,1,8,0:0:0:0:
256,192,101198,1,0,0:0:0:0:
256,192,101284,1,0,0:0:0:0:
256,192,101369,1,8,0:0:0:0:
256,192,101541,1,0,0:0:0:0:
256,192,101627,1,8,0:0:0:0:
256,192,101712,1,0,0:0:0:0:
256,192,101798,1,0,0:0:0:0:
256,192,101884,1,8,0:0:0:0:
256,192,101969,1,0,0:0:0:0:
256,192,102055,1,8,0:0:0:0:
256,192,102227,1,8,0:0:0:0:
256,192,102312,1,0,0:0:0:0:
256,192,102398,1,0,0:0:0:0:
256,192,102569,1,0,0:0:0:0:
256,192,102741,1,8,0:0:0:0:
256,192,103084,1,4,0:0:0:0:
256,192,103255,1,8,0:0:0:0:
256,192,103341,1,8,0:0:0:0:
256,192,103427,1,0,0:0:0:0:
256,192,103598,1,0,0:0:0:0:
256,192,103769,1,8,0:0:0:0:
256,192,103941,1,0,0:0:0:0:
256,192,104027,1,0,0:0:0:0:
256,192,104112,1,8,0:0:0:0:
256,192,104284,1,8,0:0:0:0:
256,192,104369,1,8,0:0:0:0:
256,192,104455,1,0,0:0:0:0:
256,192,104627,1,8,0:0:0:0:
256,192,104798,1,0,0:0:0:0:
256,192,104912,1,0,0:0:0:0:
256,192,105027,1,0,0:0:0:0:
256,192,105141,1,8,0:0:0:0:
256,192,105312,1,0,0:0:0:0:
256,192,105484,1,8,0:0:0:0:
256,192,105655,1,8,0:0:0:0:
256,192,105827,1,4,0:0:0:0:
256,192,105998,1,0,0:0:0:0:
256,192,106084,1,0,0:0:0:0:
256,192,106169,1,8,0:0:0:0:
256,192,106255,1,8,0:0:0:0:
256,192,106341,1,0,0:0:0:0:
256,192,106512,1,8,0:0:0:0:
256,192,106684,1,0,0:0:0:0:
256,192,106769,1,0,0:0:0:0:
256,192,106855,1,8,0:0:0:0:
256,192,107027,1,0,0:0:0:0:
256,192,107198,1,8,0:0:0:0:
256,192,107284,1,8,0:0:0:0:
256,192,107369,1,0,0:0:0:0:
256,192,107455,1,0,0:0:0:0:
256,192,107541,1,8,0:0:0:0:
256,192,107627,1,0,0:0:0:0:
256,192,107712,1,8,0:0:0:0:
256,192,107884,1,0,0:0:0:0:
256,192,107969,1,0,0:0:0:0:
256,192,108055,1,0,0:0:0:0:
256,192,108141,1,0,0:0:0:0:
256,192,108227,1,8,0:0:0:0:
256,192,108398,1,8,0:0:0:0:
256,192,108569,1,0,0:0:0:0:
256,192,108741,1,0,0:0:0:0:
256,192,108827,1,0,0:0:0:0:
256,192,108912,1,8,0:0:0:0:
256,192,108998,1,8,0:0:0:0:
256,192,109084,1,0,0:0:0:0:
256,192,109255,1,8,0:0:0:0:
256,192,109427,1,0,0:0:0:0:
256,192,109598,1,8,0:0:0:0:
256,192,109769,1,8,0:0:0:0:
256,192,109855,1,8,0:0:0:0:
256,192,109941,1,0,0:0:0:0:
256,192,110112,1,0,0:0:0:0:
256,192,110198,1,0,0:0:0:0:
256,192,110284,1,8,0:0:0:0:
256,192,110369,1,0,0:0:0:0:
256,192,110455,1,8,0:0:0:0:
256,192,110541,1,8,0:0:0:0:
256,192,110627,1,0,0:0:0:0:
256,192,110712,1,0,0:0:0:0:
256,192,110798,1,8,0:0:0:0:
256,192,110884,1,0,0:0:0:0:
256,192,110969,1,8,0:0:0:0:
256,192,111141,1,0,0:0:0:0:
256,192,111312,1,12,0:0:0:0:
256,192,111484,1,0,0:0:0:0:
256,192,111655,1,0,0:0:0:0:
256,192,111741,1,8,0:0:0:0:
256,192,111912,1,8,0:0:0:0:
256,192,111998,1,0,0:0:0:0:
256,192,112084,1,0,0:0:0:0:
256,192,112169,1,8,0:0:0:0:
256,192,112255,1,0,0:0:0:0:
256,192,112427,1,0,0:0:0:0:
256,192,112512,1,8,0:0:0:0:
256,192,112684,1,0,0:0:0:0:
256,192,112741,1,0,0:0:0:0:
256,192,112798,1,0,0:0:0:0:
256,192,112855,1,8,0:0:0:0:
256,192,113027,1,8,0:0:0:0:
256,192,113112,1,0,0:0:0:0:
256,192,113198,1,8,0:0:0:0:
256,192,113283,1,8,0:0:0:0:
256,192,113369,1,0,0:0:0:0:
256,192,113455,1,8,0:0:0:0:
256,192,113627,1,0,0:0:0:0:
256,192,113712,1,8,0:0:0:0:
256,192,113884,1,8,0:0:0:0:
256,192,113969,1,0,0:0:0:0:
256,192,114055,1,8,0:0:0:0:
256,192,114227,1,0,0:0:0:0:
256,192,114398,1,0,0:0:0:0:
256,192,114484,1,8,0:0:0:0:
256,192,114655,1,8,0:0:0:0:
256,192,114741,1,0,0:0:0:0:
256,192,114826,1,0,0:0:0:0:
256,192,114912,1,8,0:0:0:0:
256,192,114998,1,8,0:0:0:0:
256,192,115169,1,0,0:0:0:0:
256,192,115255,1,0,0:0:0:0:
256,192,115427,1,8,0:0:0:0:
256,192,115484,1,0,0:0:0:0:
256,192,115541,1,0,0:0:0:0:
256,192,115598,1,8,0:0:0:0:
256,192,115769,1,0,0:0:0:0:
256,192,115855,1,0,0:0:0:0:
256,192,115941,1,8,0:0:0:0:
256,192,116027,1,0,0:0:0:0:
256,192,116112,1,8,0:0:0:0:
256,192,116198,1,8,0:0:0:0:
256,192,116369,1,0,0:0:0:0:
256,192,116455,1,8,0:0:0:0:
256,192,116627,1,8,0:0:0:0:
256,192,116712,1,8,0:0:0:0:
256,192,116798,1,0,0:0:0:0:
256,192,116969,1,8,0:0:0:0:
256,192,117141,1,0,0:0:0:0:
256,192,117227,1,8,0:0:0:0:
256,192,117398,1,8,0:0:0:0:
256,192,117484,1,0,0:0:0:0:
256,192,117569,1,0,0:0:0:0:
256,192,117655,1,8,0:0:0:0:
256,192,117741,1,0,0:0:0:0:
256,192,117912,1,0,0:0:0:0:
256,192,117998,1,8,0:0:0:0:
256,192,118169,1,0,0:0:0:0:
256,192,118227,1,0,0:0:0:0:
256,192,118284,1,0,0:0:0:0:
256,192,118341,1,8,0:0:0:0:
256,192,118512,1,8,0:0:0:0:
256,192,118598,1,0,0:0:0:0:
256,192,118684,1,8,0:0:0:0:
256,192,118769,1,8,0:0:0:0:
256,192,118855,1,0,0:0:0:0:
256,192,118941,1,8,0:0:0:0:
256,192,119112,1,8,0:0:0:0:
256,192,119198,1,0,0:0:0:0:
256,192,119369,1,8,0:0:0:0:
256,192,119455,1,8,0:0:0:0:
256,192,119541,1,8,0:0:0:0:
256,192,119712,1,0,0:0:0:0:
256,192,119884,1,0,0:0:0:0:
256,192,119969,1,8,0:0:0:0:
256,192,120140,1,8,0:0:0:0:
256,192,120227,1,0,0:0:0:0:
256,192,120312,1,0,0:0:0:0:
256,192,120398,1,8,0:0:0:0:
256,192,120484,1,8,0:0:0:0:
256,192,120655,1,0,0:0:0:0:
256,192,120740,1,0,0:0:0:0:
256,192,120912,1,8,0:0:0:0:
256,192,120969,1,0,0:0:0:0:
256,192,121027,1,0,0:0:0:0:
256,192,121084,1,8,0:0:0:0:
256,192,121255,1,0,0:0:0:0:
256,192,121341,1,0,0:0:0:0:
256,192,121427,1,8,0:0:0:0:
256,192,121512,1,0,0:0:0:0:
256,192,121598,1,8,0:0:0:0:
256,192,121684,1,8,0:0:0:0:
256,192,121769,1,0,0:0:0:0:
256,192,121855,1,8,0:0:0:0:
256,192,121941,1,8,0:0:0:0:
256,192,122027,1,0,0:0:0:0:
256,192,122112,1,0,0:0:0:0:
256,192,122198,1,8,0:0:0:0:
256,192,122284,1,0,0:0:0:0:
256,192,122455,1,0,0:0:0:0:
256,192,122627,1,0,0:0:0:0:
256,192,122713,1,8,0:0:0:0:
256,192,122884,1,8,0:0:0:0:
256,192,122970,1,0,0:0:0:0:
256,192,123056,1,0,0:0:0:0:
256,192,123141,1,8,0:0:0:0:
256,192,123227,1,0,0:0:0:0:
256,192,123399,1,0,0:0:0:0:
256,192,123484,1,8,0:0:0:0:
256,192,123569,1,8,0:0:0:0:
256,192,123656,1,0,0:0:0:0:
256,192,123713,1,0,0:0:0:0:
256,192,123770,1,0,0:0:0:0:
256,192,123827,1,8,0:0:0:0:
256,192,123999,1,8,0:0:0:0:
256,192,124084,1,0,0:0:0:0:
256,192,124170,1,8,0:0:0:0:
256,192,124255,1,8,0:0:0:0:
256,192,124341,1,0,0:0:0:0:
256,192,124427,1,8,0:0:0:0:
256,192,124599,1,0,0:0:0:0:
256,192,124684,1,8,0:0:0:0:
256,192,124856,1,8,0:0:0:0:
256,192,124941,1,0,0:0:0:0:
256,192,125027,1,8,0:0:0:0:
256,192,125199,1,0,0:0:0:0:
256,192,125370,1,0,0:0:0:0:
256,192,125456,1,8,0:0:0:0:
256,192,125627,1,8,0:0:0:0:
256,192,125713,1,0,0:0:0:0:
256,192,125798,1,0,0:0:0:0:
256,192,125884,1,8,0:0:0:0:
256,192,125970,1,8,0:0:0:0:
256,192,126141,1,8,0:0:0:0:
256,192,126227,1,0,0:0:0:0:
256,192,126312,1,0,0:0:0:0:
256,192,126399,1,8,0:0:0:0:
256,192,126456,1,0,0:0:0:0:
256,192,126513,1,0,0:0:0:0:
256,192,126570,1,8,0:0:0:0:
256,192,126741,1,0,0:0:0:0:
256,192,126827,1,0,0:0:0:0:
256,192,126913,1,8,0:0:0:0:
256,192,126999,1,0,0:0:0:0:
256,192,127084,1,8,0:0:0:0:
256,192,127170,1,8,0:0:0:0:
256,192,127341,1,0,0:0:0:0:
256,192,127427,1,8,0:0:0:0:
256,192,127599,1,8,0:0:0:0:
256,192,127684,1,8,0:0:0:0:
256,192,127770,1,0,0:0:0:0:
256,192,127941,1,8,0:0:0:0:
256,192,128113,1,0,0:0:0:0:
256,192,128199,1,8,0:0:0:0:
256,192,128370,1,8,0:0:0:0:
256,192,128456,1,0,0:0:0:0:
256,192,128541,1,0,0:0:0:0:
256,192,128627,1,8,0:0:0:0:
256,192,128713,1,0,0:0:0:0:
256,192,128884,1,0,0:0:0:0:
256,192,128970,1,8,0:0:0:0:
256,192,129055,1,8,0:0:0:0:
256,192,129141,1,0,0:0:0:0:
256,192,129199,1,0,0:0:0:0:
256,192,129256,1,0,0:0:0:0:
256,192,129313,1,8,0:0:0:0:
256,192,129484,1,8,0:0:0:0:
256,192,129570,1,0,0:0:0:0:
256,192,129656,1,0,0:0:0:0:
256,192,129741,1,8,0:0:0:0:
256,192,129827,1,8,0:0:0:0:
256,192,129913,1,0,0:0:0:0:
256,192,130084,1,8,0:0:0:0:
256,192,130170,1,0,0:0:0:0:
256,192,130341,1,8,0:0:0:0:
256,192,130398,1,8,0:0:0:0:
256,192,130455,1,8,0:0:0:0:
256,192,130513,1,8,0:0:0:0:
256,192,130684,1,0,0:0:0:0:
256,192,130856,1,0,0:0:0:0:
256,192,130941,1,8,0:0:0:0:
256,192,131112,1,8,0:0:0:0:
256,192,131199,1,0,0:0:0:0:
256,192,131284,1,0,0:0:0:0:
256,192,131370,1,8,0:0:0:0:
256,192,131456,1,8,0:0:0:0:
256,192,131627,1,8,0:0:0:0:
256,192,131712,1,0,0:0:0:0:
256,192,131798,1,0,0:0:0:0:
256,192,131884,1,8,0:0:0:0:
256,192,131941,1,0,0:0:0:0:
256,192,131999,1,0,0:0:0:0:
256,192,132056,1,8,0:0:0:0:
256,192,132227,1,0,0:0:0:0:
256,192,132313,1,0,0:0:0:0:
256,192,132398,1,8,0:0:0:0:
256,192,132484,1,0,0:0:0:0:
256,192,132570,1,8,0:0:0:0:
256,192,132656,1,8,0:0:0:0:
256,192,132827,1,8,0:0:0:0:
256,192,132913,1,0,0:0:0:0:
256,192,132999,1,0,0:0:0:0:
256,192,133084,1,8,0:0:0:0:
256,192,133256,1,4,0:0:0:0:
256,192,133598,1,8,0:0:0:0:
256,192,133770,1,0,0:0:0:0:
256,192,133855,1,0,0:0:0:0:
256,192,133941,1,8,0:0:0:0:
256,192,134112,1,0,0:0:0:0:
256,192,134284,1,8,0:0:0:0:
256,192,134455,1,8,0:0:0:0:
256,192,134627,1,0,0:0:0:0:
256,192,134970,1,8,0:0:0:0:
256,192,135141,1,0,0:0:0:0:
256,192,135227,1,0,0:0:0:0:
256,192,135312,1,8,0:0:0:0:
256,192,135484,1,8,0:0:0:0:
256,192,135655,1,0,0:0:0:0:
256,192,135827,1,8,0:0:0:0:
256,192,135912,1,8,0:0:0:0:
256,192,135998,1,0,0:0:0:0:
256,192,136169,1,0,0:0:0:0:
256,192,136341,1,8,0:0:0:0:
256,192,136684,1,0,0:0:0:0:
256,192,136855,1,8,0:0:0:0:
256,192,136941,1,8,0:0:0:0:
256,192,137027,1,0,0:0:0:0:
256,192,137198,1,8,0:0:0:0:
256,192,137370,1,0,0:0:0:0:
256,192,137541,1,0,0:0:0:0:
256,192,137712,1,8,0:0:0:0:
256,192,138055,1,8,0:0:0:0:
256,192,138227,1,8,0:0:0:0:
256,192,138312,1,8,0:0:0:0:
256,192,138398,1,0,0:0:0:0:
256,192,138569,1,8,0:0:0:0:
256,192,138741,1,0,0:0:0:0:
256,192,138912,1,0,0:0:0:0:
256,192,139084,1,8,0:0:0:0:
256,192,139427,1,0,0:0:0:0:
256,192,139598,1,0,0:0:0:0:
256,192,139684,1,0,0:0:0:0:
256,192,139770,1,8,0:0:0:0:
256,192,139941,1,8,0:0:0:0:
256,192,140112,1,0,0:0:0:0:
256,192,140284,1,8,0:0:0:0:
256,192,140369,1,8,0:0:0:0:
256,192,140455,1,0,0:0:0:0:
256,192,140627,1,8,0:0:0:0:
256,192,140970,1,0,0:0:0:0:
256,192,141055,1,0,0:0:0:0:
256,192,141141,1,8,0:0:0:0:
256,192,141312,1,8,0:0:0:0:
256,192,141484,1,0,0:0:0:0:
256,192,141655,1,0,0:0:0:0:
256,192,141741,1,0,0:0:0:0:
256,192,141827,1,8,0:0:0:0:
256,192,141998,1,8,0:0:0:0:
256,192,142170,1,8,0:0:0:0:
256,192,142255,1,0,0:0:0:0:
256,192,142341,1,8,0:0:0:0:
256,192,142427,1,8,0:0:0:0:
256,192,142512,1,0,0:0:0:0:
256,192,142684,1,0,0:0:0:0:
256,192,142855,1,8,0:0:0:0:
256,192,143027,1,0,0:0:0:0:
256,192,143112,1,0,0:0:0:0:
256,192,143198,1,8,0:0:0:0:
256,192,143370,1,0,0:0:0:0:
256,192,143455,1,0,0:0:0:0:
256,192,143541,1,8,0:0:0:0:
256,192,143627,1,8,0:0:0:0:
256,192,143712,1,0,0:0:0:0:
256,192,143884,1,8,0:0:0:0:
256,192,144055,1,8,0:0:0:0:
256,192,144227,1,4,0:0:0:0:
256,192,144570,1,8,0:0:0:0:
256,192,144741,1,0,0:0:0:0:
256,192,144827,1,0,0:0:0:0:
256,192,144912,1,8,0:0:0:0:
256,192,145084,1,0,0:0:0:0:
256,192,145255,1,8,0:0:0:0:
256,192,145427,1,8,0:0:0:0:
256,192,145598,1,0,0:0:0:0:
256,192,145770,1,8,0:0:0:0:
256,192,145855,1,0,0:0:0:0:
256,192,145941,1,8,0:0:0:0:
256,192,146112,1,0,0:0:0:0:
256,192,146198,1,0,0:0:0:0:
256,192,146284,1,8,0:0:0:0:
256,192,146455,1,8,0:0:0:0:
256,192,146627,1,0,0:0:0:0:
256,192,146798,1,8,0:0:0:0:
256,192,146970,1,8,0:0:0:0:
256,192,147055,1,8,0:0:0:0:
256,192,147141,1,0,0:0:0:0:
256,192,147227,1,0,0:0:0:0:
256,192,147312,1,8,0:0:0:0:
256,192,147484,1,0,0:0:0:0:
256,192,147570,1,0,0:0:0:0:
256,192,147655,1,8,0:0:0:0:
256,192,147827,1,0,0:0:0:0:
256,192,147998,1,8,0:0:0:0:
256,192,148170,1,8,0:0:0:0:
256,192,148341,1,0,0:0:0:0:
256,192,148684,1,8,0:0:0:0:
256,192,148855,1,8,0:0:0:0:
256,192,148941,1,8,0:0:0:0:
256,192,149027,1,0,0:0:0:0:
256,192,149198,1,8,0:0:0:0:
256,192,149284,1,0,0:0:0:0:
256,192,149370,1,8,0:0:0:0:
256,192,149541,1,8,0:0:0:0:
256,192,149712,1,0,0:0:0:0:
256,192,149884,1,0,0:0:0:0:
256,192,149969,1,0,0:0:0:0:
256,192,150055,1,8,0:0:0:0:
256,192,150227,1,0,0:0:0:0:
256,192,150312,1,0,0:0:0:0:
256,192,150398,1,0,0:0:0:0:
256,192,150570,1,0,0:0:0:0:
256,192,150741,1,8,0:0:0:0:
256,192,150912,1,0,0:0:0:0:
256,192,150998,1,0,0:0:0:0:
256,192,151084,1,8,0:0:0:0:
256,192,151169,1,8,0:0:0:0:
256,192,151255,1,0,0:0:0:0:
256,192,151427,1,8,0:0:0:0:
256,192,151598,1,8,0:0:0:0:
256,192,151684,1,0,0:0:0:0:
256,192,151769,1,8,0:0:0:0:
256,192,151855,1,8,0:0:0:0:
256,192,151941,1,0,0:0:0:0:
256,192,152112,1,8,0:0:0:0:
256,192,152284,1,0,0:0:0:0:
256,192,152455,1,8,0:0:0:0:
256,192,152627,1,0,0:0:0:0:
256,192,152712,1,0,0:0:0:0:
256,192,152798,1,8,0:0:0:0:
256,192,152970,1,8,0:0:0:0:
256,192,153141,1,0,0:0:0:0:
256,192,153312,1,8,0:0:0:0:
256,192,153398,1,8,0:0:0:0:
256,192,153484,1,0,0:0:0:0:
256,192,153655,1,8,0:0:0:0:
256,192,153741,1,0,0:0:0:0:
256,192,153827,1,8,0:0:0:0:
256,192,153998,1,0,0:0:0:0:
256,192,154170,1,8,0:0:0:0:
256,192,154255,1,8,0:0:0:0:
256,192,154341,1,0,0:0:0:0:
256,192,154427,1,0,0:0:0:0:
256,192,154512,1,8,0:0:0:0:
256,192,155198,1,4,0:0:0:0:
256,192,155541,1,0,0:0:0:0:
256,192,155712,1,0,0:0:0:0:
256,192,155884,1,8,0:0:0:0:
256,192,156227,1,8,0:0:0:0:
256,192,156399,1,8,0:0:0:0:
256,192,156570,1,0,0:0:0:0:
256,192,156741,1,0,0:0:0:0:
256,192,156912,1,8,0:0:0:0:
256,192,157084,1,0,0:0:0:0:
256,192,157255,1,8,0:0:0:0:
256,192,157598,1,0,0:0:0:0:
256,192,157941,1,8,0:0:0:0:
256,192,158284,1,8,0:0:0:0:
256,192,158455,1,0,0:0:0:0:
256,192,158627,1,8,0:0:0:0:
256,192,158970,1,8,0:0:0:0:
256,192,159141,1,8,0:0:0:0:
256,192,159312,1,0,0:0:0:0:
256,192,159484,1,8,0:0:0:0:
256,192,159655,1,0,0:0:0:0:
256,192,159827,1,0,0:0:0:0:
256,192,159998,1,8,0:0:0:0:
256,192,160341,1,8,0:0:0:0:
256,192,160684,1,0,0:0:0:0:
256,192,161027,1,8,0:0:0:0:
256,192,161198,1,0,0:0:0:0:
256,192,161369,1,8,0:0:0:0:
256,192,161712,1,8,0:0:0:0:
256,192,162055,1,0,0:0:0:0:
256,192,162398,1,8,0:0:0:0:
256,192,162570,1,0,0:0:0:0:
256,192,162741,1,8,0:0:0:0:
256,192,163084,1,8,0:0:0:0:
256,192,163427,1,0,0:0:0:0:
256,192,163770,1,8,0:0:0:0:
256,192,164112,1,8,0:0:0:0:
256,192,164455,1,8,0:0:0:0:
256,192,164570,1,8,0:0:0:0:
256,192,164684,1,8,0:0:0:0:
256,192,164798,1,0,0:0:0:0:
256,192,165141,1,8,0:0:0:0:
256,192,165484,1,8,0:0:0:0:
256,192,165655,1,8,0:0:0:0:
256,192,165741,1,8,0:0:0:0:
256,192,165827,1,8,0:0:0:0:
256,192,165998,1,8,0:0:0:0:
256,192,166170,1,4,0:0:0:0:
256,192,166512,1,8,0:0:0:0:
256,192,166684,1,0,0:0:0:0:
256,192,166855,1,8,0:0:0:0:
256,192,167198,1,0,0:0:0:0:
256,192,167370,1,8,0:0:0:0:
256,192,167541,1,0,0:0:0:0:
256,192,167712,1,0,0:0:0:0:
256,192,167884,1,8,0:0:0:0:
256,192,168055,1,0,0:0:0:0:
256,192,168227,1,8,0:0:0:0:
256,192,168570,1,0,0:0:0:0:
256,192,168912,1,8,0:0:0:0:
256,192,169255,1,8,0:0:0:0:
256,192,169427,1,0,0:0:0:0:
256,192,169598,1,8,0:0:0:0:
256,192,169941,1,8,0:0:0:0:
256,192,170112,1,8,0:0:0:0:
256,192,170284,1,0,0:0:0:0:
256,192,170455,1,0,0:0:0:0:
256,192,170627,1,8,0:0:0:0:
256,192,170970,1,8,0:0:0:0:
256,192,171141,1,0,0:0:0:0:
256,192,171312,1,8,0:0:0:0:
256,192,171484,1,8,0:0:0:0:
256,192,171570,1,8,0:0:0:0:
256,192,171655,1,0,0:0:0:0:
256,192,171827,1,8,0:0:0:0:
256,192,171912,1,8,0:0:0:0:
256,192,171998,1,0,0:0:0:0:
256,192,172084,1,8,0:0:0:0:
256,192,172170,1,0,0:0:0:0:
256,192,172255,1,0,0:0:0:0:
256,192,172341,1,8,0:0:0:0:
256,192,172512,1,0,0:0:0:0:
256,192,172598,1,0,0:0:0:0:
256,192,172684,1,8,0:0:0:0:
256,192,172855,1,8,0:0:0:0:
256,192,173027,1,0,0:0:0:0:
256,192,173198,1,0,0:0:0:0:
256,192,173284,1,0,0:0:0:0:
256,192,173370,1,8,0:0:0:0:
256,192,173541,1,0,0:0:0:0:
256,192,173712,1,8,0:0:0:0:
256,192,173798,1,8,0:0:0:0:
256,192,173884,1,0,0:0:0:0:
256,192,173970,1,0,0:0:0:0:
256,192,174055,1,8,0:0:0:0:
256,192,174227,1,8,0:0:0:0:
256,192,174312,1,8,0:0:0:0:
256,192,174398,1,0,0:0:0:0:
256,192,174570,1,0,0:0:0:0:
256,192,174655,1,0,0:0:0:0:
256,192,174741,1,8,0:0:0:0:
256,192,174912,1,8,0:0:0:0:
256,192,174998,1,0,0:0:0:0:
256,192,175084,1,8,0:0:0:0:
256,192,175169,1,8,0:0:0:0:
256,192,175255,1,0,0:0:0:0:
256,192,175341,1,0,0:0:0:0:
256,192,175427,1,8,0:0:0:0:
256,192,175598,1,0,0:0:0:0:
256,192,175684,1,0,0:0:0:0:
256,192,175770,1,8,0:0:0:0:
256,192,175941,1,0,0:0:0:0:
256,192,176027,1,8,0:0:0:0:
256,192,176112,1,8,0:0:0:0:
256,192,176198,1,0,0:0:0:0:
256,192,176284,1,8,0:0:0:0:
256,192,176370,1,8,0:0:0:0:
256,192,176455,1,0,0:0:0:0:
256,192,176627,1,8,0:0:0:0:
256,192,176712,1,0,0:0:0:0:
256,192,176798,1,8,0:0:0:0:
256,192,176970,1,8,0:0:0:0:
256,192,177141,1,0,0:0:0:0:
256,192,177227,1,0,0:0:0:0:
256,192,177312,1,8,0:0:0:0:
256,192,177398,1,8,0:0:0:0:
256,192,177484,1,0,0:0:0:0:
256,192,177541,1,0,0:0:0:0:
256,192,177598,1,0,0:0:0:0:
256,192,177655,1,0,0:0:0:0:
256,192,177712,1,0,0:0:0:0:
256,192,177770,1,0,0:0:0:0:
256,192,177827,1,8,0:0:0:0:
256,192,177912,1,0,0:0:0:0:
256,192,177998,1,8,0:0:0:0:
256,192,178055,1,0,0:0:0:0:
256,192,178112,1,0,0:0:0:0:
256,192,178170,1,8,0:0:0:0:
256,192,178255,1,0,0:0:0:0:
256,192,178341,1,8,0:0:0:0:
256,192,178398,1,8,0:0:0:0:
256,192,178455,1,8,0:0:0:0:
256,192,178512,1,0,0:0:0:0:
256,192,178684,1,0,0:0:0:0:
256,192,178770,1,0,0:0:0:0:
256,192,178855,1,8,0:0:0:0:
256,192,178941,1,8,0:0:0:0:
256,192,179027,1,0,0:0:0:0:
256,192,179198,1,8,0:0:0:0:
256,192,179370,1,0,0:0:0:0:
256,192,179455,1,8,0:0:0:0:
256,192,179541,1,8,0:0:0:0:
256,192,179712,1,0,0:0:0:0:
256,192,179798,1,8,0:0:0:0:
256,192,179884,1,0,0:0:0:0:
256,192,179970,1,0,0:0:0:0:
256,192,180055,1,8,0:0:0:0:
256,192,180141,1,0,0:0:0:0:
256,192,180227,1,8,0:0:0:0:
256,192,180398,1,8,0:0:0:0:
256,192,180484,1,0,0:0:0:0:
256,192,180570,1,0,0:0:0:0:
256,192,180741,1,0,0:0:0:0:
256,192,180912,1,8,0:0:0:0:
256,192,181255,1,4,0:0:0:0:
256,192,181427,1,8,0:0:0:0:
256,192,181512,1,8,0:0:0:0:
256,192,181598,1,0,0:0:0:0:
256,192,181684,1,8,0:0:0:0:
256,192,181770,1,0,0:0:0:0:
256,192,181941,1,8,0:0:0:0:
256,192,182112,1,0,0:0:0:0:
256,192,182284,1,8,0:0:0:0:
256,192,182455,1,8,0:0:0:0:
256,192,182541,1,8,0:0:0:0:
256,192,182627,1,0,0:0:0:0:
256,192,182798,1,8,0:0:0:0:
256,192,182970,1,0,0:0:0:0:
256,192,183084,1,0,0:0:0:0:
256,192,183198,1,0,0:0:0:0:
256,192,183312,1,8,0:0:0:0:
256,192,183484,1,0,0:0:0:0:
256,192,183569,1,0,0:0:0:0:
256,192,183655,1,8,0:0:0:0:
256,192,183741,1,8,0:0:0:0:
256,192,183827,1,8,0:0:0:0:
256,192,183912,1,8,0:0:0:0:
256,192,183998,1,0,0:0:0:0:
256,192,184170,1,0,0:0:0:0:
256,192,184255,1,0,0:0:0:0:
256,192,184341,1,8,0:0:0:0:
256,192,184512,1,0,0:0:0:0:
256,192,184684,1,8,0:0:0:0:
256,192,184770,1,8,0:0:0:0:
256,192,184855,1,0,0:0:0:0:
256,192,184941,1,0,0:0:0:0:
256,192,185027,1,8,0:0:0:0:
256,192,185198,1,0,0:0:0:0:
256,192,185284,1,8,0:0:0:0:
256,192,185370,1,0,0:0:0:0:
256,192,185541,1,0,0:0:0:0:
256,192,185712,1,8,0:0:0:0:
256,192,185884,1,8,0:0:0:0:
256,192,185970,1,8,0:0:0:0:
256,192,186055,1,0,0:0:0:0:
256,192,186227,1,8,0:0:0:0:
256,192,186312,1,0,0:0:0:0:
256,192,186398,1,8,0:0:0:0:
256,192,186484,1,8,0:0:0:0:
256,192,186570,1,0,0:0:0:0:
256,192,186741,1,8,0:0:0:0:
256,192,186912,1,0,0:0:0:0:
256,192,187084,1,8,0:0:0:0:
256,192,187255,1,0,0:0:0:0:
256,192,187341,1,0,0:0:0:0:
256,192,187427,1,0,0:0:0:0:
256,192,187512,1,8,0:0:0:0:
256,192,187598,1,0,0:0:0:0:
256,192,187770,1,8,0:0:0:0:
256,192,187941,1,0,0:0:0:0:
256,192,188112,1,0,0:0:0:0:
256,192,188198,1,0,0:0:0:0:
256,192,188284,1,8,0:0:0:0:
256,192,188369,1,0,0:0:0:0:
256,192,188455,1,0,0:0:0:0:
256,192,188541,1,0,0:0:0:0:
256,192,188627,1,8,0:0:0:0:
256,192,188712,1,0,0:0:0:0:
256,192,188798,1,8,0:0:0:0:
256,192,188970,1,0,0:0:0:0:
256,192,189141,1,8,0:0:0:0:
256,192,189312,1,8,0:0:0:0:
256,192,189398,1,8,0:0:0:0:
256,192,189484,1,0,0:0:0:0:
256,192,189655,1,0,0:0:0:0:
256,192,189741,1,0,0:0:0:0:
256,192,189827,1,8,0:0:0:0:
256,192,189912,1,8,0:0:0:0:
256,192,189998,1,0,0:0:0:0:
256,192,190170,1,8,0:0:0:0:
256,192,190341,1,0,0:0:0:0:
256,192,190427,1,8,0:0:0:0:
256,192,190512,1,8,0:0:0:0:
256,192,190684,1,0,0:0:0:0:
256,192,190770,1,8,0:0:0:0:
256,192,190855,1,0,0:0:0:0:
256,192,190941,1,0,0:0:0:0:
256,192,191027,1,8,0:0:0:0:
256,192,191112,1,0,0:0:0:0:
256,192,191198,1,8,0:0:0:0:
256,192,191370,1,8,0:0:0:0:
256,192,191455,1,0,0:0:0:0:
256,192,191541,1,0,0:0:0:0:
256,192,191712,1,0,0:0:0:0:
256,192,191884,1,8,0:0:0:0:
256,192,192227,1,4,0:0:0:0:
256,192,192398,1,8,0:0:0:0:
256,192,192484,1,8,0:0:0:0:
256,192,192570,1,0,0:0:0:0:
256,192,192655,1,8,0:0:0:0:
256,192,192741,1,0,0:0:0:0:
256,192,192912,1,8,0:0:0:0:
256,192,193084,1,0,0:0:0:0:
256,192,193170,1,0,0:0:0:0:
256,192,193255,1,8,0:0:0:0:
256,192,193427,1,8,0:0:0:0:
256,192,193512,1,8,0:0:0:0:
256,192,193598,1,0,0:0:0:0:
256,192,193770,1,8,0:0:0:0:
256,192,193941,1,0,0:0:0:0:
256,192,194055,1,0,0:0:0:0:
256,192,194170,1,0,0:0:0:0:
256,192,194284,1,8,0:0:0:0:
256,192,194455,1,0,0:0:0:0:
256,192,194627,1,8,0:0:0:0:
256,192,194798,1,8,0:0:0:0:
256,192,194970,1,4,0:0:0:0:
256,192,195141,1,0,0:0:0:0:
256,192,195227,1,0,0:0:0:0:
256,192,195312,1,8,0:0:0:0:
256,192,195398,1,8,0:0:0:0:
256,192,195484,1,0,0:0:0:0:
256,192,195655,1,8,0:0:0:0:
256,192,195827,1,0,0:0:0:0:
256,192,195912,1,0,0:0:0:0:
256,192,195998,1,8,0:0:0:0:
256,192,196170,1,0,0:0:0:0:
256,192,196341,1,8,0:0:0:0:
256,192,196427,1,8,0:0:0:0:
256,192,196512,1,0,0:0:0:0:
256,192,196598,1,0,0:0:0:0:
256,192,196684,1,8,0:0:0:0:
256,192,196855,1,8,0:0:0:0:
256,192,197027,1,0,0:0:0:0:
256,192,197112,1,0,0:0:0:0:
256,192,197198,1,8,0:0:0:0:
256,192,197284,1,0,0:0:0:0:
256,192,197370,1,8,0:0:0:0:
256,192,197455,1,0,0:0:0:0:
256,192,197541,1,8,0:0:0:0:
256,192,197712,1,0,0:0:0:0:
256,192,197884,1,0,0:0:0:0:
256,192,197970,1,0,0:0:0:0:
256,192,198055,1,8,0:0:0:0:
256,192,198141,1,8,0:0:0:0:
256,192,198227,1,0,0:0:0:0:
256,192,198398,1,8,0:0:0:0:
256,192,198570,1,0,0:0:0:0:
256,192,198741,1,8,0:0:0:0:
256,192,198912,1,8,0:0:0:0:
256,192,198998,1,8,0:0:0:0:
256,192,199084,1,0,0:0:0:0:
256,192,199169,1,8,0:0:0:0:
256,192,199255,1,0,0:0:0:0:
256,192,199341,1,0,0:0:0:0:
256,192,199427,1,8,0:0:0:0:
256,192,199512,1,0,0:0:0:0:
256,192,199598,1,8,0:0:0:0:
256,192,199684,1,8,0:0:0:0:
256,192,199770,1,0,0:0:0:0:
256,192,199855,1,0,0:0:0:0:
256,192,199941,1,8,0:0:0:0:
256,192,200027,1,0,0:0:0:0:
256,192,200112,1,8,0:0:0:0:
256,192,200284,1,0,0:0:0:0:
256,192,200455,1,12,0:0:0:0:
256,192,200627,1,0,0:0:0:0:
256,192,200798,1,0,0:0:0:0:
256,192,200884,1,8,0:0:0:0:
256,192,201141,1,0,0:0:0:0:
256,192,201312,1,8,0:0:0:0:
256,192,201398,1,0,0:0:0:0:
256,192,201570,1,0,0:0:0:0:
256,192,201655,1,8,0:0:0:0:
256,192,201741,1,8,0:0:0:0:
256,192,201827,1,0,0:0:0:0:
256,192,201884,1,0,0:0:0:0:
256,192,201941,1,0,0:0:0:0:
256,192,201998,1,8,0:0:0:0:
256,192,202170,1,8,0:0:0:0:
256,192,202255,1,0,0:0:0:0:
256,192,202341,1,8,0:0:0:0:
256,192,202427,1,8,0:0:0:0:
256,192,202512,1,0,0:0:0:0:
256,192,202598,1,8,0:0:0:0:
256,192,202770,1,0,0:0:0:0:
256,192,202855,1,8,0:0:0:0:
256,192,203027,1,8,0:0:0:0:
256,192,203112,1,0,0:0:0:0:
256,192,203198,1,8,0:0:0:0:
256,192,203370,1,0,0:0:0:0:
256,192,203541,1,0,0:0:0:0:
256,192,203627,1,8,0:0:0:0:
256,192,203884,1,0,0:0:0:0:
256,192,204055,1,0,0:0:0:0:
256,192,204141,1,8,0:0:0:0:
256,192,204312,1,8,0:0:0:0:
256,192,204398,1,0,0:0:0:0:
256,192,204484,1,8,0:0:0:0:
256,192,204570,1,0,0:0:0:0:
256,192,204627,1,0,0:0:0:0:
256,192,204684,1,0,0:0:0:0:
256,192,204741,1,8,0:0:0:0:
256,192,204912,1,0,0:0:0:0:
256,192,204998,1,0,0:0:0:0:
256,192,205084,1,8,0:0:0:0:
256,192,205170,1,8,0:0:0:0:
256,192,205255,1,0,0:0:0:0:
256,192,205341,1,8,0:0:0:0:
256,192,205512,1,8,0:0:0:0:
256,192,205598,1,0,0:0:0:0:
256,192,205770,1,8,0:0:0:0:
256,192,205855,1,8,0:0:0:0:
256,192,205941,1,0,0:0:0:0:
256,192,206112,1,8,0:0:0:0:
256,192,206284,1,0,0:0:0:0:
256,192,206370,1,8,0:0:0:0:
256,192,206627,1,0,0:0:0:0:
256,192,206798,1,8,0:0:0:0:
256,192,206884,1,0,0:0:0:0:
256,192,207055,1,0,0:0:0:0:
256,192,207141,1,8,0:0:0:0:
256,192,207227,1,8,0:0:0:0:
256,192,207312,1,0,0:0:0:0:
256,192,207370,1,0,0:0:0:0:
256,192,207427,1,0,0:0:0:0:
256,192,207484,1,8,0:0:0:0:
256,192,207655,1,8,0:0:0:0:
256,192,207741,1,0,0:0:0:0:
256,192,207827,1,8,0:0:0:0:
256,192,207912,1,8,0:0:0:0:
256,192,207998,1,0,0:0:0:0:
256,192,208084,1,8,0:0:0:0:
256,192,208255,1,0,0:0:0:0:
256,192,208341,1,8,0:0:0:0:
256,192,208512,1,8,0:0:0:0:
256,192,208598,1,8,0:0:0:0:
256,192,208684,1,8,0:0:0:0:
256,192,208855,1,0,0:0:0:0:
256,192,209027,1,0,0:0:0:0:
256,192,209112,1,8,0:0:0:0:
256,192,209370,1,0,0:0:0:0:
256,192,209541,1,0,0:0:0:0:
256,192,209627,1,8,0:0:0:0:
256,192,209798,1,8,0:0:0:0:
256,192,209884,1,0,0:0:0:0:
256,192,209970,1,0,0:0:0:0:
256,192,210055,1,8,0:0:0:0:
256,192,210112,1,0,0:0:0:0:
256,192,210170,1,0,0:0:0:0:
256,192,210227,1,8,0:0:0:0:
256,192,210398,1,0,0:0:0:0:
256,192,210484,1,0,0:0:0:0:
256,192,210570,1,8,0:0:0:0:
256,192,210655,1,8,0:0:0:0:
256,192,210741,1,0,0:0:0:0:
256,192,210827,1,8,0:0:0:0:
256,192,210912,1,0,0:0:0:0:
256,192,210998,1,0,0:0:0:0:
256,192,211084,1,8,0:0:0:0:
256,192,211170,1,0,0:0:0:0:
256,192,211255,1,8,0:0:0:0:
256,192,211341,1,8,0:0:0:0:
256,192,211427,1,0,0:0:0:0:
256,192,211598,1,0,0:0:0:0:
256,192,211769,1,0,0:0:0:0:
256,192,211855,1,8,0:0:0:0:
256,192,212112,1,0,0:0:0:0:
256,192,212283,1,8,0:0:0:0:
256,192,212369,1,0,0:0:0:0:
256,192,212541,1,0,0:0:0:0:
256,192,212626,1,8,0:0:0:0:
256,192,212712,1,8,0:0:0:0:
256,192,212798,1,0,0:0:0:0:
256,192,212855,1,0,0:0:0:0:
256,192,212912,1,0,0:0:0:0:
256,192,212969,1,8,0:0:0:0:
256,192,213141,1,8,0:0:0:0:
256,192,213226,1,0,0:0:0:0:
256,192,213312,1,8,0:0:0:0:
256,192,213398,1,8,0:0:0:0:
256,192,213483,1,0,0:0:0:0:
256,192,213569,1,8,0:0:0:0:
256,192,213741,1,0,0:0:0:0:
256,192,213826,1,8,0:0:0:0:
256,192,213998,1,8,0:0:0:0:
256,192,214083,1,0,0:0:0:0:
256,192,214169,1,8,0:0:0:0:
256,192,214341,1,0,0:0:0:0:
256,192,214512,1,0,0:0:0:0:
256,192,214598,1,8,0:0:0:0:
256,192,214855,1,0,0:0:0:0:
256,192,215026,1,0,0:0:0:0:
256,192,215112,1,8,0:0:0:0:
256,192,215283,1,8,0:0:0:0:
256,192,215369,1,0,0:0:0:0:
256,192,215455,1,8,0:0:0:0:
256,192,215541,1,0,0:0:0:0:
256,192,215598,1,0,0:0:0:0:
256,192,215655,1,0,0:0:0:0:
256,192,215712,1,8,0:0:0:0:
256,192,215883,1,0,0:0:0:0:
256,192,215969,1,0,0:0:0:0:
256,192,216055,1,8,0:0:0:0:
256,192,216141,1,8,0:0:0:0:
256,192,216226,1,0,0:0:0:0:
256,192,216312,1,8,0:0:0:0:
256,192,216483,1,0,0:0:0:0:
256,192,216569,1,8,0:0:0:0:
256,192,216741,1,8,0:0:0:0:
256,192,216826,1,8,0:0:0:0:
256,192,216912,1,0,0:0:0:0:
256,192,217083,1,8,0:0:0:0:
256,192,217255,1,0,0:0:0:0:
256,192,217341,1,8,0:0:0:0:
256,192,217598,1,0,0:0:0:0:
256,192,217769,1,8,0:0:0:0:
256,192,217855,1,0,0:0:0:0:
256,192,218026,1,0,0:0:0:0:
256,192,218112,1,8,0:0:0:0:
256,192,218198,1,8,0:0:0:0:
256,192,218283,1,0,0:0:0:0:
256,192,218341,1,0,0:0:0:0:
256,192,218398,1,0,0:0:0:0:
256,192,218455,1,8,0:0:0:0:
256,192,218626,1,8,0:0:0:0:
256,192,218712,1,0,0:0:0:0:
256,192,218798,1,0,0:0:0:0:
256,192,218883,1,8,0:0:0:0:
256,192,218969,1,8,0:0:0:0:
256,192,219141,1,0,0:0:0:0:
256,192,219226,1,8,0:0:0:0:
256,192,219398,1,0,0:0:0:0:
256,192,219483,1,8,0:0:0:0:
256,192,219541,1,8,0:0:0:0:
256,192,219598,1,8,0:0:0:0:
256,192,219655,1,8,0:0:0:0:
256,192,219826,1,0,0:0:0:0:
256,192,219912,1,0,0:0:0:0:
256,192,219998,1,8,0:0:0:0:
256,192,220170,1,8,0:0:0:0:
256,192,220255,1,0,0:0:0:0:
256,192,220341,1,8,0:0:0:0:
256,192,220427,1,8,0:0:0:0:
256,192,220512,1,0,0:0:0:0:
256,192,220598,1,8,0:0:0:0:
256,192,220769,1,0,0:0:0:0:
256,192,220855,1,8,0:0:0:0:
256,192,220941,1,8,0:0:0:0:
256,192,221026,1,0,0:0:0:0:
256,192,221083,1,0,0:0:0:0:
256,192,221141,1,0,0:0:0:0:
256,192,221198,1,8,0:0:0:0:
256,192,221369,1,8,0:0:0:0:
256,192,221455,1,0,0:0:0:0:
256,192,221541,1,8,0:0:0:0:
256,192,221626,1,8,0:0:0:0:
256,192,221712,1,0,0:0:0:0:
256,192,221798,1,8,0:0:0:0:
256,192,221884,1,0,0:0:0:0:
256,192,221969,1,0,0:0:0:0:
256,192,222055,1,8,0:0:0:0:
256,192,222141,1,0,0:0:0:0:
256,192,222227,1,8,0:0:0:0:
256,192,222312,1,8,0:0:0:0:
256,192,222398,1,0,0:0:0:0:
256,192,222569,1,0,0:0:0:0:
256,192,222655,1,0,0:0:0:0:
256,192,222741,1,8,0:0:0:0:
256,192,222912,1,0,0:0:0:0:
256,192,223084,1,8,0:0:0:0:
256,192,223255,1,0,0:0:0:0:
256,192,223341,1,0,0:0:0:0:
256,192,223427,1,8,0:0:0:0:
256,192,223512,1,8,0:0:0:0:
256,192,223598,1,0,0:0:0:0:
256,192,223769,1,8,0:0:0:0:
256,192,223941,1,0,0:0:0:0:
256,192,224027,1,0,0:0:0:0:
256,192,224112,1,8,0:0:0:0:
256,192,224284,1,0,0:0:0:0:
256,192,224455,1,8,0:0:0:0:
256,192,224541,1,0,0:0:0:0:
256,192,224627,1,8,0:0:0:0:
256,192,224712,1,8,0:0:0:0:
256,192,224798,1,0,0:0:0:0:
256,192,224969,1,8,0:0:0:0:
256,192,225141,1,0,0:0:0:0:
256,192,225312,1,0,0:0:0:0:
256,192,225398,1,0,0:0:0:0:
256,192,225484,1,8,0:0:0:0:
256,192,225655,1,0,0:0:0:0:
256,192,225827,1,8,0:0:0:0:
256,192,225998,1,0,0:0:0:0:
256,192,226084,1,0,0:0:0:0:
256,192,226169,1,8,0:0:0:0:
256,192,226255,1,8,0:0:0:0:
256,192,226341,1,0,0:0:0:0:
256,192,226512,1,8,0:0:0:0:
256,192,226684,1,0,0:0:0:0:
256,192,226769,1,0,0:0:0:0:
256,192,226855,1,8,0:0:0:0:
256,192,227027,1,0,0:0:0:0:
256,192,227112,1,8,0:0:0:0:
256,192,227198,1,0,0:0:0:0:
256,192,227284,1,0,0:0:0:0:
256,192,227369,1,8,0:0:0:0:
256,192,227455,1,8,0:0:0:0:
256,192,227541,1,0,0:0:0:0:
256,192,227627,1,0,0:0:0:0:
256,192,227712,1,8,0:0:0:0:
256,192,227798,1,8,0:0:0:0:
256,192,227884,1,0,0:0:0:0:
256,192,228055,1,0,0:0:0:0:
256,192,228141,1,0,0:0:0:0:
256,192,228227,1,8,0:0:0:0:
256,192,228398,1,0,0:0:0:0:
256,192,228569,1,8,0:0:0:0:
256,192,228741,1,0,0:0:0:0:
256,192,228827,1,0,0:0:0:0:
256,192,228912,1,8,0:0:0:0:
256,192,228998,1,0,0:0:0:0:
256,192,229084,1,8,0:0:0:0:
256,192,229255,1,0,0:0:0:0:
256,192,229427,1,0,0:0:0:0:
256,192,229512,1,0,0:0:0:0:
256,192,229598,1,8,0:0:0:0:
256,192,229769,1,8,0:0:0:0:
256,192,229941,1,0,0:0:0:0:
256,192,230112,1,8,0:0:0:0:
256,192,230198,1,8,0:0:0:0:
256,192,230284,1,0,0:0:0:0:
256,192,230369,1,0,0:0:0:0:
256,192,230455,1,8,0:0:0:0:
256,192,230627,1,0,0:0:0:0:
256,192,230798,1,0,0:0:0:0:
256,192,230884,1,0,0:0:0:0:
256,192,230969,1,8,0:0:0:0:
256,192,231141,1,8,0:0:0:0:
256,192,231227,1,8,0:0:0:0:
256,192,231312,1,0,0:0:0:0:
256,192,231484,1,0,0:0:0:0:
256,192,231569,1,0,0:0:0:0:
256,192,231655,1,8,0:0:0:0:
256,192,231741,1,8,0:0:0:0:
256,192,231827,1,0,0:0:0:0:
256,192,231998,1,8,0:0:0:0:
256,192,232169,1,0,0:0:0:0:
256,192,232255,1,0,0:0:0:0:
256,192,232341,1,8,0:0:0:0:
256,192,232512,1,8,0:0:0:0:
256,192,232598,1,8,0:0:0:0:
256,192,232684,1,0,0:0:0:0:
256,192,232769,1,0,0:0:0:0:
256,192,232855,1,8,0:0:0:0:
256,192,232941,1,0,0:0:0:0:
256,192,233027,1,8,0:0:0:0:
256,192,233112,1,8,0:0:0:0:
256,192,233198,1,0,0:0:0:0:
256,192,233284,1,8,0:0:0:0:
256,192,233369,1,0,0:0:0:0:
256,192,233541,1,0,0:0:0:0:
256,192,233627,1,0,0:0:0:0:
256,192,233713,1,8,0:0:0:0:
256,192,233884,1,0,0:0:0:0:
256,192,234056,1,8,0:0:0:0:
256,192,234227,1,0,0:0:0:0:
256,192,234313,1,0,0:0:0:0:
256,192,234399,1,8,0:0:0:0:
256,192,234484,1,8,0:0:0:0:
256,192,234570,1,0,0:0:0:0:
256,192,234741,1,8,0:0:0:0:
256,192,234913,1,0,0:0:0:0:
256,192,234999,1,0,0:0:0:0:
256,192,235084,1,8,0:0:0:0:
256,192,235256,1,0,0:0:0:0:
256,192,235427,1,8,0:0:0:0:
256,192,235513,1,0,0:0:0:0:
256,192,235599,1,8,0:0:0:0:
256,192,235684,1,8,0:0:0:0:
256,192,235770,1,0,0:0:0:0:
256,192,235941,1,8,0:0:0:0:
256,192,236113,1,0,0:0:0:0:
256,192,236284,1,0,0:0:0:0:
256,192,236370,1,0,0:0:0:0:
256,192,236456,1,8,0:0:0:0:
256,192,236627,1,0,0:0:0:0:
256,192,236799,1,8,0:0:0:0:
256,192,236970,1,0,0:0:0:0:
256,192,237056,1,0,0:0:0:0:
256,192,237141,1,8,0:0:0:0:
256,192,237227,1,8,0:0:0:0:
256,192,237313,1,0,0:0:0:0:
256,192,237484,1,8,0:0:0:0:
256,192,237569,1,8,0:0:0:0:
256,192,237656,1,0,0:0:0:0:
256,192,237741,1,0,0:0:0:0:
256,192,237827,1,8,0:0:0:0:
256,192,237999,1,8,0:0:0:0:
256,192,238084,1,0,0:0:0:0:
256,192,238170,1,8,0:0:0:0:
256,192,238256,1,8,0:0:0:0:
256,192,238341,1,0,0:0:0:0:
256,192,238427,1,0,0:0:0:0:
256,192,238513,1,8,0:0:0:0:
256,192,238684,1,8,0:0:0:0:
256,192,238856,1,0,0:0:0:0:
256,192,239027,1,0,0:0:0:0:
256,192,239113,1,0,0:0:0:0:
256,192,239199,1,8,0:0:0:0:
256,192,239370,1,0,0:0:0:0:
256,192,239541,1,8,0:0:0:0:
256,192,239627,1,8,0:0:0:0:
256,192,239712,1,8,0:0:0:0:
256,192,239798,1,8,0:0:0:0:
256,192,239884,1,0,0:0:0:0:
256,192,240056,1,8,0:0:0:0:
256,192,240227,1,0,0:0:0:0:
256,192,240398,1,0,0:0:0:0:
256,192,240484,1,0,0:0:0:0:
256,192,240569,1,8,0:0:0:0:
256,192,240741,1,8,0:0:0:0:
256,192,240827,1,8,0:0:0:0:
256,192,240912,1,0,0:0:0:0:
256,192,240998,1,0,0:0:0:0:
256,192,241084,1,8,0:0:0:0:
256,192,241169,1,0,0:0:0:0:
256,192,241255,1,8,0:0:0:0:
256,192,241341,1,8,0:0:0:0:
256,192,241427,1,0,0:0:0:0:
256,192,241512,1,0,0:0:0:0:
256,192,241598,1,8,0:0:0:0:
256,192,241769,1,0,0:0:0:0:
256,192,241941,1,0,0:0:0:0:
256,192,242112,1,0,0:0:0:0:
256,192,242284,1,8,0:0:0:0:
256,192,242455,1,8,0:0:0:0:
256,192,242627,1,0,0:0:0:0:
256,192,242798,1,8,0:0:0:0:
256,192,242969,1,0,0:0:0:0:
256,192,243141,1,8,0:0:0:0:
256,192,243227,1,8,0:0:0:0:
256,192,243312,1,8,0:0:0:0:
256,192,243484,1,0,0:0:0:0:
256,192,243655,1,8,0:0:0:0:
256,192,244341,1,4,0:0:0:0:
256,192,244684,1,0,0:0:0:0:
256,192,245027,1,0,0:0:0:0:
256,192,245369,1,0,0:0:0:0:
256,192,245712,1,8,0:0:0:0:
256,192,245884,1,0,0:0:0:0:
256,192,246055,1,0,0:0:0:0:
256,192,246141,1,0,0:0:0:0:
256,192,246227,1,0,0:0:0:0:
256,192,246284,1,0,0:0:0:0:
256,192,246341,1,0,0:0:0:0:
256,192,246398,1,8,0:0:0:0:
256,192,247084,1,4,0:0:0:0:
256,192,247427,1,8,0:0:0:0:
256,192,247598,1,0,0:0:0:0:
256,192,247769,1,8,0:0:0:0:
256,192,248112,1,8,0:0:0:0:
256,192,248284,1,8,0:0:0:0:
256,192,248455,1,0,0:0:0:0:
256,192,248627,1,0,0:0:0:0:
256,192,248712,1,0,0:0:0:0:
256,192,248798,1,8,0:0:0:0:
256,192,248969,1,0,0:0:0:0:
256,192,249141,1,8,0:0:0:0:
256,192,249227,1,0,0:0:0:0:
256,192,249312,1,8,0:0:0:0:
256,192,249398,1,8,0:0:0:0:
256,192,249484,1,0,0:0:0:0:
256,192,249569,1,0,0:0:0:0:
256,192,249655,1,8,0:0:0:0:
256,192,249827,1,0,0:0:0:0:
256,192,249998,1,8,0:0:0:0:
256,192,250169,1,8,0:0:0:0:
256,192,250341,1,0,0:0:0:0:
256,192,250512,1,8,0:0:0:0:
256,192,250598,1,8,0:0:0:0:
256,192,250684,1,8,0:0:0:0:
256,192,250769,1,8,0:0:0:0:
256,192,250855,1,0,0:0:0:0:
256,192,250941,1,0,0:0:0:0:
256,192,251027,1,8,0:0:0:0:
256,192,251198,1,0,0:0:0:0:
256,192,251369,1,8,0:0:0:0:
256,192,251541,1,0,0:0:0:0:
256,192,251627,1,0,0:0:0:0:
256,192,251712,1,0,0:0:0:0:
256,192,251798,1,0,0:0:0:0:
256,192,251884,1,8,0:0:0:0:
256,192,251969,1,0,0:0:0:0:
256,192,252055,1,0,0:0:0:0:
256,192,252141,1,0,0:0:0:0:
256,192,252227,1,8,0:0:0:0:
256,192,252569,1,0,0:0:0:0:
256,192,252912,1,8,0:0:0:0:
256,192,253084,1,0,0:0:0:0:
256,192,253255,1,8,0:0:0:0:
256,192,253598,1,0,0:0:0:0:
256,192,253769,1,8,0:0:0:0:
256,192,253941,1,0,0:0:0:0:
256,192,254112,1,0,0:0:0:0:
256,192,254284,1,8,0:0:0:0:
256,192,254627,1,8,0:0:0:0:
256,192,254798,1,0,0:0:0:0:
256,192,254969,1,8,0:0:0:0:
256,192,255312,1,0,0:0:0:0:
256,192,255484,1,8,0:0:0:0:
256,192,255655,1,0,0:0:0:0:
256,192,255827,1,8,0:0:0:0:
256,192,255998,1,0,0:0:0:0:
256,192,256341,1,0,0:0:0:0:
256,192,256456,1,0,0:0:0:0:
256,192,256570,1,0,0:0:0:0:
256,192,256684,1,8,0:0:0:0:
256,192,256941,1,0,0:0:0:0:
256,192,257027,1,8,0:0:0:0:
256,192,257198,1,0,0:0:0:0:
256,192,257369,1,8,0:0:0:0:
256,192,257541,1,0,0:0:0:0:
256,192,257712,1,0,0:0:0:0:
256,192,257798,1,0,0:0:0:0:
256,192,257884,1,0,0:0:0:0:
256,192,257969,1,0,0:0:0:0:
256,192,258055,1,8,0:0:0:0:
256,192,258227,1,0,0:0:0:0:
256,192,258398,1,8,0:0:0:0:
256,192,258569,1,0,0:0:0:0:
256,192,258655,1,0,0:0:0:0:
256,192,258741,1,8,0:0:0:0:
256,192,258912,1,0,0:0:0:0:
256,192,259084,1,8,0:0:0:0:
256,192,259255,1,0,0:0:0:0:
256,192,259341,1,0,0:0:0:0:
256,192,259427,1,8,0:0:0:0:
256,192,259598,1,0,0:0:0:0:
256,192,259769,1,8,0:0:0:0:
256,192,259855,1,8,0:0:0:0:
256,192,259941,1,0,0:0:0:0:
256,192,260027,1,0,0:0:0:0:
256,192,260112,1,8,0:0:0:0:
256,192,260169,1,0,0:0:0:0:
256,192,260227,1,0,0:0:0:0:
256,192,260284,1,8,0:0:0:0:
256,192,260369,1,0,0:0:0:0:
256,192,260455,1,8,0:0:0:0:
256,192,260512,1,0,0:0:0:0:
256,192,260569,1,0,0:0:0:0:
256,192,260627,1,8,0:0:0:0:
256,192,260798,1,0,0:0:0:0:
256,192,260969,1,0,0:0:0:0:
256,192,261055,1,0,0:0:0:0:
256,192,261141,1,8,0:0:0:0:
256,192,261312,1,8,0:0:0:0:
256,192,261484,1,8,0:0:0:0:
256,192,261569,1,0,0:0:0:0:
256,192,261655,1,8,0:0:0:0:
256,192,261741,1,8,0:0:0:0:
256,192,261827,1,0,0:0:0:0:
256,192,261912,1,0,0:0:0:0:
256,192,261998,1,8,0:0:0:0:
256,192,262169,1,0,0:0:0:0:
256,192,262341,1,8,0:0:0:0:
256,192,262512,1,0,0:0:0:0:
256,192,262598,1,0,0:0:0:0:
256,192,262684,1,0,0:0:0:0:
256,192,262769,1,0,0:0:0:0:
256,192,262855,1,8,0:0:0:0:
256,192,262941,1,8,0:0:0:0:
256,192,263027,1,0,0:0:0:0:
256,192,263198,1,8,0:0:0:0:
256,192,263369,1,8,0:0:0:0:
256,192,263541,1,0,0:0:0:0:
256,192,263712,1,0,0:0:0:0:
256,192,263798,1,0,0:0:0:0:
256,192,263884,1,8,0:0:0:0:
256,192,264055,1,0,0:0:0:0:
256,192,264227,1,8,0:0:0:0:
256,192,264312,1,8,0:0:0:0:
256,192,264398,1,0,0:0:0:0:
256,192,264484,1,0,0:0:0:0:
256,192,264569,1,8,0:0:0:0:
256,192,264655,1,0,0:0:0:0:
256,192,264741,1,8,0:0:0:0:
256,192,264912,1,0,0:0:0:0:
256,192,265084,1,0,0:0:0:0:
256,192,265169,1,8,0:0:0:0:
256,192,265255,1,8,0:0:0:0:
256,192,265427,1,0,0:0:0:0:
256,192,265512,1,0,0:0:0:0:
256,192,265598,1,8,0:0:0:0:
256,192,265684,1,8,0:0:0:0:
256,192,265769,1,0,0:0:0:0:
256,192,265941,1,8,0:0:0:0:
256,192,266112,1,8,0:0:0:0:
256,192,266284,1,4,0:0:0:0:
256,192,266627,1,4,0:0:0:0:
256,192,266969,1,4,0:0:0:0:
256,192,267312,1,4,0:0:0:0:
256,192,267484,1,0,0:0:0:0:
256,192,267569,1,0,0:0:0:0:
256,192,267655,1,8,0:0:0:0:
256,192,267741,1,0,0:0:0:0:
256,192,267827,1,8,0:0:0:0:
256,192,267912,1,8,0:0:0:0:
256,192,267998,1,0,0:0:0:0:
256,192,268055,1,0,0:0:0:0:
256,192,268112,1,0,0:0:0:0:
256,192,268169,1,0,0:0:0:0:
256,192,268227,1,0,0:0:0:0:
256,192,268284,1,0,0:0:0:0:
256,192,268341,1,8,0:0:0:0:
256,192,268512,1,8,0:0:0:0:
256,192,268684,1,8,0:0:0:0:
256,192,268855,1,8,0:0:0:0:
256,192,268912,1,8,0:0:0:0:
256,192,268969,1,8,0:0:0:0:
256,192,269027,1,0,0:0:0:0:
256,192,269198,1,0,0:0:0:0:
256,192,269285,1,0,0:0:0:0:
256,192,269370,1,8,0:0:0:0:
256,192,269455,1,8,0:0:0:0:
256,192,269542,1,0,0:0:0:0:
256,192,269713,1,8,0:0:0:0:
256,192,269885,1,0,0:0:0:0:
256,192,269970,1,0,0:0:0:0:
256,192,270056,1,8,0:0:0:0:
256,192,270141,1,0,0:0:0:0:
256,192,270227,1,8,0:0:0:0:
256,192,270313,1,8,0:0:0:0:
256,192,270399,1,0,0:0:0:0:
256,192,270484,1,0,0:0:0:0:
256,192,270569,1,8,0:0:0:0:
256,192,270656,1,8,0:0:0:0:
256,192,270742,1,8,0:0:0:0:
256,192,270913,1,8,0:0:0:0:
256,192,270998,1,0,0:0:0:0:
256,192,271085,1,0,0:0:0:0:
256,192,271256,1,0,0:0:0:0:
256,192,271427,1,8,0:0:0:0:
256,192,271770,1,4,0:0:0:0:
256,192,271942,1,8,0:0:0:0:
256,192,272027,1,8,0:0:0:0:
256,192,272113,1,0,0:0:0:0:
256,192,272198,1,8,0:0:0:0:
256,192,272285,1,0,0:0:0:0:
256,192,272456,1,8,0:0:0:0:
256,192,272541,1,0,0:0:0:0:
256,192,272627,1,0,0:0:0:0:
256,192,272799,1,8,0:0:0:0:
256,192,272970,1,8,0:0:0:0:
256,192,273056,1,8,0:0:0:0:
256,192,273142,1,0,0:0:0:0:
256,192,273313,1,8,0:0:0:0:
256,192,273485,1,0,0:0:0:0:
256,192,273599,1,0,0:0:0:0:
256,192,273713,1,0,0:0:0:0:
256,192,273827,1,8,0:0:0:0:
256,192,273999,1,0,0:0:0:0:
256,192,274084,1,0,0:0:0:0:
256,192,274170,1,8,0:0:0:0:
256,192,274256,1,8,0:0:0:0:
256,192,274342,1,8,0:0:0:0:
256,192,274427,1,8,0:0:0:0:
256,192,274513,1,0,0:0:0:0:
256,192,274685,1,0,0:0:0:0:
256,192,274770,1,0,0:0:0:0:
256,192,274856,1,8,0:0:0:0:
256,192,275027,1,0,0:0:0:0:
256,192,275199,1,8,0:0:0:0:
256,192,275285,1,8,0:0:0:0:
256,192,275370,1,0,0:0:0:0:
256,192,275456,1,0,0:0:0:0:
256,192,275542,1,8,0:0:0:0:
256,192,275627,1,0,0:0:0:0:
256,192,275713,1,8,0:0:0:0:
256,192,275799,1,8,0:0:0:0:
256,192,275885,1,0,0:0:0:0:
256,192,276056,1,0,0:0:0:0:
256,192,276227,1,8,0:0:0:0:
256,192,276399,1,8,0:0:0:0:
256,192,276485,1,8,0:0:0:0:
256,192,276570,1,0,0:0:0:0:
256,192,276742,1,8,0:0:0:0:
256,192,276827,1,0,0:0:0:0:
256,192,276913,1,8,0:0:0:0:
256,192,276999,1,8,0:0:0:0:
256,192,277085,1,0,0:0:0:0:
256,192,277256,1,8,0:0:0:0:
256,192,277427,1,0,0:0:0:0:
256,192,277512,1,0,0:0:0:0:
256,192,277599,1,8,0:0:0:0:
256,192,277769,1,0,0:0:0:0:
256,192,277855,1,8,0:0:0:0:
256,192,277941,1,0,0:0:0:0:
256,192,278027,1,0,0:0:0:0:
256,192,278113,1,8,0:0:0:0:
256,192,278285,1,8,0:0:0:0:
256,192,278456,1,0,0:0:0:0:
256,192,278627,1,0,0:0:0:0:
256,192,278713,1,0,0:0:0:0:
256,192,278799,1,8,0:0:0:0:
256,192,278970,1,0,0:0:0:0:
256,192,279056,1,8,0:0:0:0:
256,192,279142,1,8,0:0:0:0:
256,192,279227,1,0,0:0:0:0:
256,192,279313,1,8,0:0:0:0:
256,192,279485,1,0,0:0:0:0:
256,192,279656,1,8,0:0:0:0:
256,192,279827,1,8,0:0:0:0:
256,192,279913,1,8,0:0:0:0:
256,192,279998,1,0,0:0:0:0:
256,192,280170,1,0,0:0:0:0:
256,192,280256,1,0,0:0:0:0:
256,192,280342,1,8,0:0:0:0:
256,192,280427,1,8,0:0:0:0:
256,192,280513,1,0,0:0:0:0:
256,192,280685,1,8,0:0:0:0:
256,192,280856,1,0,0:0:0:0:
256,192,280942,1,0,0:0:0:0:
256,192,281027,1,8,0:0:0:0:
256,192,281112,1,0,0:0:0:0:
256,192,281199,1,8,0:0:0:0:
256,192,281285,1,8,0:0:0:0:
256,192,281370,1,0,0:0:0:0:
256,192,281456,1,0,0:0:0:0:
256,192,281542,1,8,0:0:0:0:
256,192,281627,1,0,0:0:0:0:
256,192,281713,1,8,0:0:0:0:
256,192,281885,1,8,0:0:0:0:
256,192,281970,1,0,0:0:0:0:
256,192,282056,1,0,0:0:0:0:
256,192,282227,1,0,0:0:0:0:
256,192,282399,1,8,0:0:0:0:
256,192,282742,1,4,0:0:0:0:
256,192,282913,1,8,0:0:0:0:
256,192,282999,1,0,0:0:0:0:
256,192,283085,1,8,0:0:0:0:
256,192,283169,1,8,0:0:0:0:
256,192,283256,1,0,0:0:0:0:
256,192,283341,1,0,0:0:0:0:
256,192,283427,1,8,0:0:0:0:
256,192,283599,1,0,0:0:0:0:
256,192,283685,1,0,0:0:0:0:
256,192,283770,1,8,0:0:0:0:
256,192,283942,1,8,0:0:0:0:
256,192,284027,1,8,0:0:0:0:
256,192,284113,1,0,0:0:0:0:
256,192,284285,1,8,0:0:0:0:
256,192,284456,1,0,0:0:0:0:
256,192,284570,1,0,0:0:0:0:
256,192,284685,1,0,0:0:0:0:
256,192,284799,1,8,0:0:0:0:
256,192,284970,1,0,0:0:0:0:
256,192,285142,1,8,0:0:0:0:
256,192,285313,1,8,0:0:0:0:
256,192,285398,1,8,0:0:0:0:
256,192,285484,1,0,0:0:0:0:
256,192,285656,1,0,0:0:0:0:
256,192,285742,1,0,0:0:0:0:
256,192,285827,1,8,0:0:0:0:
256,192,285913,1,8,0:0:0:0:
256,192,285999,1,0,0:0:0:0:
256,192,286170,1,8,0:0:0:0:
256,192,286342,1,0,0:0:0:0:
256,192,286427,1,0,0:0:0:0:
256,192,286513,1,8,0:0:0:0:
256,192,286685,1,0,0:0:0:0:
256,192,286856,1,8,0:0:0:0:
256,192,286942,1,8,0:0:0:0:
256,192,287027,1,0,0:0:0:0:
256,192,287112,1,0,0:0:0:0:
256,192,287199,1,8,0:0:0:0:
256,192,287285,1,0,0:0:0:0:
256,192,287370,1,8,0:0:0:0:
256,192,287542,1,8,0:0:0:0:
256,192,287627,1,0,0:0:0:0:
256,192,287713,1,0,0:0:0:0:
256,192,287799,1,0,0:0:0:0:
256,192,287885,1,8,0:0:0:0:
256,192,288056,1,8,0:0:0:0:
256,192,288227,1,0,0:0:0:0:
256,192,288399,1,0,0:0:0:0:
256,192,288485,1,0,0:0:0:0:
256,192,288570,1,8,0:0:0:0:
256,192,288656,1,8,0:0:0:0:
256,192,288742,1,0,0:0:0:0:
256,192,288913,1,8,0:0:0:0:
256,192,288998,1,0,0:0:0:0:
256,192,289085,1,0,0:0:0:0:
256,192,289256,1,8,0:0:0:0:
256,192,289427,1,8,0:0:0:0:
256,192,289513,1,8,0:0:0:0:
256,192,289599,1,0,0:0:0:0:
256,192,289684,1,0,0:0:0:0:
256,192,289770,1,8,0:0:0:0:
256,192,289856,1,0,0:0:0:0:
256,192,289942,1,8,0:0:0:0:
256,192,290027,1,8,0:0:0:0:
256,192,290112,1,0,0:0:0:0:
256,192,290199,1,8,0:0:0:0:
256,192,290285,1,0,0:0:0:0:
256,192,290370,1,0,0:0:0:0:
256,192,290456,1,8,0:0:0:0:
256,192,290542,1,0,0:0:0:0:
256,192,290627,1,8,0:0:0:0:
256,192,290799,1,0,0:0:0:0:
256,192,290969,1,12,0:0:0:0:
256,192,291141,1,0,0:0:0:0:
256,192,291312,1,0,0:0:0:0:
256,192,291398,1,8,0:0:0:0:
256,192,291655,1,0,0:0:0:0:
256,192,291826,1,8,0:0:0:0:
256,192,291912,1,0,0:0:0:0:
256,192,292084,1,0,0:0:0:0:
256,192,292169,1,8,0:0:0:0:
256,192,292255,1,8,0:0:0:0:
256,192,292341,1,0,0:0:0:0:
256,192,292398,1,0,0:0:0:0:
256,192,292455,1,0,0:0:0:0:
256,192,292512,1,8,0:0:0:0:
256,192,292684,1,8,0:0:0:0:
256,192,292769,1,0,0:0:0:0:
256,192,292855,1,8,0:0:0:0:
256,192,292941,1,8,0:0:0:0:
256,192,293026,1,0,0:0:0:0:
256,192,293112,1,8,0:0:0:0:
256,192,293284,1,0,0:0:0:0:
256,192,293369,1,8,0:0:0:0:
256,192,293541,1,8,0:0:0:0:
256,192,293626,1,0,0:0:0:0:
256,192,293712,1,8,0:0:0:0:
256,192,293884,1,0,0:0:0:0:
256,192,294055,1,0,0:0:0:0:
256,192,294141,1,8,0:0:0:0:
256,192,294398,1,0,0:0:0:0:
256,192,294569,1,0,0:0:0:0:
256,192,294655,1,8,0:0:0:0:
256,192,294826,1,8,0:0:0:0:
256,192,294912,1,0,0:0:0:0:
256,192,294998,1,8,0:0:0:0:
256,192,295084,1,0,0:0:0:0:
256,192,295141,1,0,0:0:0:0:
256,192,295198,1,0,0:0:0:0:
256,192,295255,1,8,0:0:0:0:
256,192,295426,1,0,0:0:0:0:
256,192,295512,1,0,0:0:0:0:
256,192,295598,1,8,0:0:0:0:
256,192,295684,1,8,0:0:0:0:
256,192,295769,1,0,0:0:0:0:
256,192,295855,1,8,0:0:0:0:
256,192,296026,1,8,0:0:0:0:
256,192,296112,1,0,0:0:0:0:
256,192,296284,1,8,0:0:0:0:
256,192,296369,1,8,0:0:0:0:
256,192,296455,1,0,0:0:0:0:
256,192,296626,1,8,0:0:0:0:
256,192,296798,1,0,0:0:0:0:
256,192,296884,1,8,0:0:0:0:
256,192,297141,1,0,0:0:0:0:
256,192,297312,1,8,0:0:0:0:
256,192,297398,1,0,0:0:0:0:
256,192,297569,1,0,0:0:0:0:
256,192,297655,1,8,0:0:0:0:
256,192,297741,1,8,0:0:0:0:
256,192,297826,1,0,0:0:0:0:
256,192,297884,1,0,0:0:0:0:
256,192,297941,1,0,0:0:0:0:
256,192,297998,1,8,0:0:0:0:
256,192,298169,1,8,0:0:0:0:
256,192,298255,1,0,0:0:0:0:
256,192,298341,1,8,0:0:0:0:
256,192,298426,1,8,0:0:0:0:
256,192,298512,1,0,0:0:0:0:
256,192,298598,1,8,0:0:0:0:
256,192,298769,1,0,0:0:0:0:
256,192,298855,1,8,0:0:0:0:
256,192,299026,1,8,0:0:0:0:
256,192,299112,1,8,0:0:0:0:
256,192,299198,1,8,0:0:0:0:
256,192,299369,1,0,0:0:0:0:
256,192,299541,1,0,0:0:0:0:
256,192,299626,1,8,0:0:0:0:
256,192,299884,1,0,0:0:0:0:
256,192,300055,1,0,0:0:0:0:
256,192,300141,1,8,0:0:0:0:
256,192,300312,1,8,0:0:0:0:
256,192,300398,1,0,0:0:0:0:
256,192,300484,1,0,0:0:0:0:
256,192,300569,1,8,0:0:0:0:
256,192,300626,1,0,0:0:0:0:
256,192,300684,1,0,0:0:0:0:
256,192,300741,1,8,0:0:0:0:
256,192,300912,1,0,0:0:0:0:
256,192,300998,1,0,0:0:0:0:
256,192,301084,1,8,0:0:0:0:
256,192,301169,1,8,0:0:0:0:
256,192,301255,1,0,0:0:0:0:
256,192,301341,1,8,0:0:0:0:
256,192,301426,1,0,0:0:0:0:
256,192,301512,1,0,0:0:0:0:
256,192,301598,1,8,0:0:0:0:
256,192,301684,1,0,0:0:0:0:
256,192,301769,1,8,0:0:0:0:
256,192,301855,1,8,0:0:0:0:
256,192,301941,1,0,0:0:0:0:
256,192,302112,1,0,0:0:0:0:
256,192,302283,1,0,0:0:0:0:
256,192,302369,1,8,0:0:0:0:
256,192,302626,1,0,0:0:0:0:
256,192,302797,1,8,0:0:0:0:
256,192,302883,1,0,0:0:0:0:
256,192,303055,1,0,0:0:0:0:
256,192,303140,1,8,0:0:0:0:
256,192,303226,1,8,0:0:0:0:
256,192,303312,1,0,0:0:0:0:
256,192,303369,1,0,0:0:0:0:
256,192,303426,1,0,0:0:0:0:
256,192,303483,1,8,0:0:0:0:
256,192,303655,1,8,0:0:0:0:
256,192,303740,1,0,0:0:0:0:
256,192,303826,1,8,0:0:0:0:
256,192,303912,1,8,0:0:0:0:
256,192,303997,1,0,0:0:0:0:
256,192,304083,1,8,0:0:0:0:
256,192,304255,1,0,0:0:0:0:
256,192,304340,1,8,0:0:0:0:
256,192,304512,1,8,0:0:0:0:
256,192,304597,1,0,0:0:0:0:
256,192,304683,1,8,0:0:0:0:
256,192,304855,1,0,0:0:0:0:
256,192,305026,1,0,0:0:0:0:
256,192,305112,1,8,0:0:0:0:
256,192,305369,1,0,0:0:0:0:
256,192,305540,1,0,0:0:0:0:
256,192,305626,1,8,0:0:0:0:
256,192,305797,1,8,0:0:0:0:
256,192,305883,1,0,0:0:0:0:
256,192,305969,1,8,0:0:0:0:
256,192,306055,1,0,0:0:0:0:
256,192,306112,1,0,0:0:0:0:
256,192,306169,1,0,0:0:0:0:
256,192,306226,1,8,0:0:0:0:
256,192,306397,1,0,0:0:0:0:
256,192,306483,1,0,0:0:0:0:
256,192,306569,1,8,0:0:0:0:
256,192,306655,1,8,0:0:0:0:
256,192,306740,1,0,0:0:0:0:
256,192,306826,1,8,0:0:0:0:
256,192,306997,1,0,0:0:0:0:
256,192,307083,1,8,0:0:0:0:
256,192,307255,1,8,0:0:0:0:
256,192,307340,1,8,0:0:0:0:
256,192,307426,1,0,0:0:0:0:
256,192,307597,1,8,0:0:0:0:
256,192,307769,1,0,0:0:0:0:
256,192,307855,1,8,0:0:0:0:
256,192,308112,1,0,0:0:0:0:
256,192,308283,1,8,0:0:0:0:
256,192,308369,1,0,0:0:0:0:
256,192,308540,1,0,0:0:0:0:
256,192,308626,1,8,0:0:0:0:
256,192,308712,1,8,0:0:0:0:
256,192,308797,1,0,0:0:0:0:
256,192,308855,1,0,0:0:0:0:
256,192,308912,1,0,0:0:0:0:
256,192,308969,1,8,0:0:0:0:
256,192,309140,1,8,0:0:0:0:
256,192,309226,1,0,0:0:0:0:
256,192,309312,1,0,0:0:0:0:
256,192,309397,1,8,0:0:0:0:
256,192,309483,1,8,0:0:0:0:
256,192,309655,1,0,0:0:0:0:
256,192,309740,1,8,0:0:0:0:
256,192,309912,1,0,0:0:0:0:
256,192,309997,1,8,0:0:0:0:
256,192,310055,1,8,0:0:0:0:
256,192,310112,1,8,0:0:0:0:
256,192,310169,1,8,0:0:0:0:
256,192,310340,1,0,0:0:0:0:
256,192,310426,1,0,0:0:0:0:
256,192,310512,1,8,0:0:0:0:
256,192,310598,1,0,0:0:0:0:
256,192,310684,1,8,0:0:0:0:
256,192,310769,1,0,0:0:0:0:
256,192,310855,1,8,0:0:0:0:
256,192,310941,1,8,0:0:0:0:
256,192,311026,1,0,0:0:0:0:
256,192,311112,1,8,0:0:0:0:
256,192,311198,1,8,0:0:0:0:
256,192,311283,1,0,0:0:0:0:
256,192,311369,1,8,0:0:0:0:
256,192,311455,1,8,0:0:0:0:
256,192,311540,1,0,0:0:0:0:
256,192,311597,1,0,0:0:0:0:
256,192,311655,1,0,0:0:0:0:
256,192,311712,1,8,0:0:0:0:
256,192,311883,1,0,0:0:0:0:
256,192,311969,1,0,0:0:0:0:
256,192,312055,1,8,0:0:0:0:
256,192,312140,1,8,0:0:0:0:
256,192,312226,1,0,0:0:0:0:
256,192,312312,1,8,0:0:0:0:
256,192,312483,1,0,0:0:0:0:
256,192,312569,1,8,0:0:0:0:
256,192,312912,1,4,0:0:0:0:
256,192,313255,1,8,0:0:0:0:
256,192,313427,1,8,0:0:0:0:
256,192,313512,1,8,0:0:0:0:
256,192,313598,1,0,0:0:0:0:
256,192,313769,1,0,0:0:0:0:
256,192,313941,1,8,0:0:0:0:
256,192,314112,1,0,0:0:0:0:
256,192,314198,1,0,0:0:0:0:
256,192,314284,1,0,0:0:0:0:
256,192,314455,1,0,0:0:0:0:
256,192,314627,1,8,0:0:0:0:
256,192,314798,1,0,0:0:0:0:
256,192,314884,1,0,0:0:0:0:
256,192,314969,1,8,0:0:0:0:
256,192,315141,1,0,0:0:0:0:
256,192,315312,1,8,0:0:0:0:
256,192,315484,1,8,0:0:0:0:
256,192,315655,1,0,0:0:0:0:
256,192,315998,1,8,0:0:0:0:
256,192,316169,1,0,0:0:0:0:
256,192,316255,1,0,0:0:0:0:
256,192,316341,1,8,0:0:0:0:
256,192,316512,1,0,0:0:0:0:
256,192,316684,1,8,0:0:0:0:
256,192,316855,1,0,0:0:0:0:
256,192,317027,1,0,0:0:0:0:
256,192,317198,1,8,0:0:0:0:
256,192,317284,1,0,0:0:0:0:
256,192,317369,1,8,0:0:0:0:
256,192,317541,1,8,0:0:0:0:
256,192,317712,1,0,0:0:0:0:
256,192,317884,1,8,0:0:0:0:
256,192,318055,1,8,0:0:0:0:
256,192,318227,1,0,0:0:0:0:
256,192,318312,1,0,0:0:0:0:
256,192,318398,1,0,0:0:0:0:
256,192,318741,1,8,0:0:0:0:
256,192,318912,1,0,0:0:0:0:
256,192,318998,1,0,0:0:0:0:
256,192,319084,1,0,0:0:0:0:
256,192,319255,1,0,0:0:0:0:
256,192,319427,1,8,0:0:0:0:
256,192,319598,1,8,0:0:0:0:
256,192,319684,1,8,0:0:0:0:
256,192,319769,1,0,0:0:0:0:
256,192,320112,1,8,0:0:0:0:
256,192,320284,1,0,0:0:0:0:
256,192,320369,1,0,0:0:0:0:
256,192,320455,1,0,0:0:0:0:
256,192,320627,1,8,0:0:0:0:
256,192,320798,1,0,0:0:0:0:
256,192,320884,1,0,0:0:0:0:
256,192,320969,1,8,0:0:0:0:
256,192,321141,1,8,0:0:0:0:
256,192,321312,1,0,0:0:0:0:
256,192,321484,1,8,0:0:0:0:
256,192,321655,1,8,0:0:0:0:
256,192,321827,1,0,0:0:0:0:
256,192,321998,1,0,0:0:0:0:
256,192,322084,1,0,0:0:0:0:
256,192,322169,1,8,0:0:0:0:
256,192,322341,1,8,0:0:0:0:
256,192,322512,1,8,0:0:0:0:
256,192,322855,1,0,0:0:0:0:
256,192,323198,1,8,0:0:0:0:
256,192,323541,1,8,0:0:0:0:
256,192,323884,1,4,0:0:0:0:
256,192,324227,1,8,0:0:0:0:
256,192,324398,1,8,0:0:0:0:
256,192,324484,1,8,0:0:0:0:
256,192,324569,1,0,0:0:0:0:
256,192,324741,1,0,0:0:0:0:
256,192,324912,1,8,0:0:0:0:
256,192,325084,1,0,0:0:0:0:
256,192,325169,1,0,0:0:0:0:
256,192,325255,1,0,0:0:0:0:
256,192,325427,1,0,0:0:0:0:
256,192,325598,1,8,0:0:0:0:
256,192,325769,1,0,0:0:0:0:
256,192,325855,1,0,0:0:0:0:
256,192,325941,1,8,0:0:0:0:
256,192,326112,1,0,0:0:0:0:
256,192,326284,1,8,0:0:0:0:
256,192,326455,1,8,0:0:0:0:
256,192,326627,1,0,0:0:0:0:
256,192,326969,1,8,0:0:0:0:
256,192,327141,1,0,0:0:0:0:
256,192,327227,1,0,0:0:0:0:
256,192,327312,1,8,0:0:0:0:
256,192,327484,1,0,0:0:0:0:
256,192,327655,1,8,0:0:0:0:
256,192,327827,1,0,0:0:0:0:
256,192,327912,1,0,0:0:0:0:
256,192,327998,1,0,0:0:0:0:
256,192,328169,1,0,0:0:0:0:
256,192,328341,1,8,0:0:0:0:
256,192,328512,1,0,0:0:0:0:
256,192,328684,1,0,0:0:0:0:
256,192,328855,1,8,0:0:0:0:
256,192,329027,1,8,0:0:0:0:
256,192,329198,1,0,0:0:0:0:
256,192,329284,1,0,0:0:0:0:
256,192,329369,1,0,0:0:0:0:
256,192,329712,1,8,0:0:0:0:
256,192,330055,1,0,0:0:0:0:
256,192,330227,1,0,0:0:0:0:
256,192,330312,1,0,0:0:0:0:
256,192,330398,1,8,0:0:0:0:
256,192,330569,1,0,0:0:0:0:
256,192,330741,1,8,0:0:0:0:
256,192,330912,1,0,0:0:0:0:
256,192,330998,1,0,0:0:0:0:
256,192,331084,1,8,0:0:0:0:
256,192,331255,1,8,0:0:0:0:
256,192,331341,1,8,0:0:0:0:
256,192,331427,1,0,0:0:0:0:
256,192,331598,1,0,0:0:0:0:
256,192,331769,1,8,0:0:0:0:
256,192,331941,1,0,0:0:0:0:
256,192,332112,1,8,0:0:0:0:
256,192,332284,1,0,0:0:0:0:
256,192,332369,1,0,0:0:0:0:
256,192,332455,1,8,0:0:0:0:
256,192,332627,1,0,0:0:0:0:
256,192,332798,1,8,0:0:0:0:
256,192,332969,1,8,0:0:0:0:
256,192,333055,1,8,0:0:0:0:
256,192,333141,1,0,0:0:0:0:
256,192,333312,1,0,0:0:0:0:
256,192,333484,1,8,0:0:0:0:
256,192,333655,1,0,0:0:0:0:
256,192,333827,1,8,0:0:0:0:
256,192,333912,1,8,0:0:0:0:
256,192,333998,1,0,0:0:0:0:
256,192,334084,1,0,0:0:0:0:
256,192,334169,1,8,0:0:0:0:
