osu file format v14

[General]
AudioFilename: Musica de Aves.mp3
AudioLeadIn: 0
PreviewTime: 36692
Countdown: 0
SampleSet: Normal
StackLeniency: 0.7
Mode: 1
LetterboxInBreaks: 0
WidescreenStoryboard: 0

[Editor]
DistanceSpacing: 2
BeatDivisor: 4
GridSize: 32
TimelineZoom: 2.62

[Metadata]
Title:Musica de Aves
TitleUnicode:Musica de Aves
Artist:Chitose
ArtistUnicode:Chitose
Creator:Kunieda
Version:Oni
Source:BMS
Tags:galician spain instrumental g2r2014 go back 2 your roots
BeatmapID:630115
BeatmapSetID:278119

[Difficulty]
HPDrainRate:5
CircleSize:5
OverallDifficulty:6
ApproachRate:5
SliderMultiplier:1.4
SliderTickRate:1

[Events]
//Background and Video events
0,0,"22920563.jpg",0,0
//Break Periods
//Storyboard Layer 0 (Background)
//Storyboard Layer 1 (Fail)
//Storyboard Layer 2 (Pass)
//Storyboard Layer 3 (Foreground)
//Storyboard Sound Samples

[TimingPoints]
4055,329.67032967033,6,1,0,75,1,0
36692,-100,6,1,0,75,0,1
52516,-100,6,1,0,75,0,0
84164,-100,6,2,0,60,0,0
96362,-100,6,2,0,25,0,0
99989,-100,6,1,0,75,0,0
135593,-100,6,1,0,75,0,1
155373,-100,6,1,0,75,0,0

[HitObjects]
256,192,4055,5,12,0:0:0:0:
256,192,4384,1,0,0:0:0:0:
256,192,4466,1,0,0:0:0:0:
256,192,4549,1,0,0:0:0:0:
256,192,4714,1,8,0:0:0:0:
256,192,4879,1,0,0:0:0:0:
256,192,5044,1,8,0:0:0:0:
256,192,5208,1,8,0:0:0:0:
256,192,5373,1,0,0:0:0:0:
256,192,5456,1,8,0:0:0:0:
256,192,5538,1,0,0:0:0:0:
256,192,5620,1,0,0:0:0:0:
256,192,5703,1,8,0:0:0:0:
256,192,5868,1,8,0:0:0:0:
256,192,6033,1,0,0:0:0:0:
256,192,6362,1,8,0:0:0:0:
256,192,6527,1,0,0:0:0:0:
256,192,6692,1,0,0:0:0:0:
256,192,6857,1,8,0:0:0:0:
256,192,7022,1,8,0:0:0:0:
256,192,7104,1,0,0:0:0:0:
256,192,7186,1,8,0:0:0:0:
256,192,7269,1,8,0:0:0:0:
256,192,7351,1,0,0:0:0:0:
256,192,7516,1,8,0:0:0:0:
256,192,7681,1,0,0:0:0:0:
256,192,7846,1,8,0:0:0:0:
256,192,8011,1,0,0:0:0:0:
256,192,8340,1,8,0:0:0:0:
256,192,8505,1,0,0:0:0:0:
256,192,8670,1,0,0:0:0:0:
256,192,8835,1,8,0:0:0:0:
256,192,9000,1,0,0:0:0:0:
256,192,9082,1,0,0:0:0:0:
256,192,9164,1,0,0:0:0:0:
256,192,9329,1,8,0:0:0:0:
256,192,9494,1,0,0:0:0:0:
256,192,9659,1,0,0:0:0:0:
256,192,9741,1,0,0:0:0:0:
256,192,9824,1,8,0:0:0:0:
256,192,9989,1,8,0:0:0:0:
256,192,10153,1,8,0:0:0:0:
256,192,10318,1,0,0:0:0:0:
256,192,10648,1,0,0:0:0:0:
256,192,10978,1,0,0:0:0:0:
256,192,11060,1,0,0:0:0:0:
256,192,11142,1,0,0:0:0:0:
256,192,11307,1,0,0:0:0:0:
256,192,11472,1,8,0:0:0:0:
256,192,11637,1,0,0:0:0:0:
256,192,11802,1,0,0:0:0:0:
256,192,11967,1,12,0:0:0:0:
256,192,12296,1,12,0:0:0:0:
256,192,12461,1,8,0:0:0:0:
256,192,12626,1,0,0:0:0:0:
256,192,12708,1,0,0:0:0:0:
256,192,12791,1,0,0:0:0:0:
256,192,12956,1,0,0:0:0:0:
256,192,13120,1,8,0:0:0:0:
256,192,13285,1,0,0:0:0:0:
256,192,13368,1,0,0:0:0:0:
256,192,13450,1,8,0:0:0:0:
256,192,13615,1,0,0:0:0:0:
256,192,13697,1,0,0:0:0:0:
256,192,13780,1,0,0:0:0:0:
256,192,13945,1,0,0:0:0:0:
256,192,14275,1,8,0:0:0:0:
256,192,14440,1,0,0:0:0:0:
256,192,14523,1,0,0:0:0:0:
256,192,14605,1,8,0:0:0:0:
256,192,14770,1,0,0:0:0:0:
256,192,14935,1,8,0:0:0:0:
256,192,15017,1,0,0:0:0:0:
256,192,15099,1,8,0:0:0:0:
256,192,15182,1,8,0:0:0:0:
256,192,15264,1,0,0:0:0:0:
256,192,15429,1,8,0:0:0:0:
256,192,15594,1,0,0:0:0:0:
256,192,15759,1,0,0:0:0:0:
256,192,15841,1,0,0:0:0:0:
256,192,15924,1,8,0:0:0:0:
256,192,16253,1,0,0:0:0:0:
256,192,16583,1,0,0:0:0:0:
256,192,16748,1,0,0:0:0:0:
256,192,16913,1,8,0:0:0:0:
256,192,17077,1,0,0:0:0:0:
256,192,17160,1,0,0:0:0:0:
256,192,17242,1,8,0:0:0:0:
256,192,17407,1,0,0:0:0:0:
256,192,17572,1,8,0:0:0:0:
256,192,17654,1,8,0:0:0:0:
256,192,17737,1,0,0:0:0:0:
256,192,17902,1,0,0:0:0:0:
256,192,18066,1,0,0:0:0:0:
256,192,18231,1,8,0:0:0:0:
256,192,18396,1,0,0:0:0:0:
256,192,18479,1,8,0:0:0:0:
256,192,18561,1,8,0:0:0:0:
256,192,18891,1,4,0:0:0:0:
256,192,19220,1,4,0:0:0:0:
256,192,19550,1,8,0:0:0:0:
256,192,19632,1,0,0:0:0:0:
256,192,19715,1,8,0:0:0:0:
256,192,19797,1,8,0:0:0:0:
256,192,19880,1,0,0:0:0:0:
256,192,20045,1,0,0:0:0:0:
256,192,20209,1,0,0:0:0:0:
256,192,20292,1,0,0:0:0:0:
256,192,20374,1,8,0:0:0:0:
256,192,20457,1,8,0:0:0:0:
256,192,20539,1,0,0:0:0:0:
256,192,20621,1,0,0:0:0:0:
256,192,20704,1,8,0:0:0:0:
256,192,20786,1,8,0:0:0:0:
256,192,20868,1,8,0:0:0:0:
256,192,21034,1,8,0:0:0:0:
256,192,21116,1,0,0:0:0:0:
256,192,21198,1,0,0:0:0:0:
256,192,21363,1,0,0:0:0:0:
256,192,21528,1,0,0:0:0:0:
256,192,21610,1,0,0:0:0:0:
256,192,21692,1,8,0:0:0:0:
256,192,21857,1,0,0:0:0:0:
256,192,22022,1,8,0:0:0:0:
256,192,22186,1,0,0:0:0:0:
256,192,22516,1,8,0:0:0:0:
256,192,22681,1,0,0:0:0:0:
256,192,22846,1,8,0:0:0:0:
256,192,22928,1,8,0:0:0:0:
256,192,23011,1,8,0:0:0:0:
256,192,23175,1,8,0:0:0:0:
256,192,23340,1,0,0:0:0:0:
256,192,23505,1,8,0:0:0:0:
256,192,23587,1,8,0:0:0:0:
256,192,23670,1,0,0:0:0:0:
256,192,23835,1,0,0:0:0:0:
256,192,24000,1,8,0:0:0:0:
256,192,24164,1,0,0:0:0:0:
256,192,24329,1,0,0:0:0:0:
256,192,24494,1,0,0:0:0:0:
256,192,24576,1,0,0:0:0:0:
256,192,24659,1,0,0:0:0:0:
256,192,24824,1,8,0:0:0:0:
256,192,24989,1,0,0:0:0:0:
256,192,25153,1,0,0:0:0:0:
256,192,25318,1,8,0:0:0:0:
256,192,25483,1,8,0:0:0:0:
256,192,25565,1,8,0:0:0:0:
256,192,25648,1,0,0:0:0:0:
256,192,25813,1,8,0:0:0:0:
256,192,25978,1,0,0:0:0:0:
256,192,26142,1,0,0:0:0:0:
256,192,26225,1,0,0:0:0:0:
256,192,26307,1,0,0:0:0:0:
256,192,26472,1,8,0:0:0:0:
256,192,26555,1,0,0:0:0:0:
256,192,26637,1,8,0:0:0:0:
256,192,26719,1,8,0:0:0:0:
256,192,26802,1,0,0:0:0:0:
256,192,26967,1,8,0:0:0:0:
256,192,27131,1,0,0:0:0:0:
256,192,27296,1,0,0:0:0:0:
256,192,27379,1,0,0:0:0:0:
256,192,27461,1,8,0:0:0:0:
256,192,27626,1,0,0:0:0:0:
256,192,27791,1,0,0:0:0:0:
256,192,27956,1,8,0:0:0:0:
256,192,28038,1,8,0:0:0:0:
256,192,28120,1,0,0:0:0:0:
256,192,28285,1,0,0:0:0:0:
256,192,28450,1,8,0:0:0:0:
256,192,28533,1,8,0:0:0:0:
256,192,28615,1,8,0:0:0:0:
256,192,28697,1,0,0:0:0:0:
256,192,28780,1,8,0:0:0:0:
256,192,29109,1,8,0:0:0:0:
256,192,29439,1,0,0:0:0:0:
256,192,29604,1,8,0:0:0:0:
256,192,29769,1,0,0:0:0:0:
256,192,30098,1,0,0:0:0:0:
256,192,30263,1,8,0:0:0:0:
256,192,30428,1,0,0:0:0:0:
256,192,30511,1,8,0:0:0:0:
256,192,30593,1,0,0:0:0:0:
256,192,30675,1,0,0:0:0:0:
256,192,30758,1,8,0:0:0:0:
256,192,30923,1,8,0:0:0:0:
256,192,31087,1,0,0:0:0:0:
256,192,31252,1,8,0:0:0:0:
256,192,31417,1,0,0:0:0:0:
256,192,31582,1,8,0:0:0:0:
256,192,31664,1,0,0:0:0:0:
256,192,31747,1,8,0:0:0:0:
256,192,31829,1,8,0:0:0:0:
256,192,31912,1,0,0:0:0:0:
256,192,31994,1,0,0:0:0:0:
256,192,32076,1,8,0:0:0:0:
256,192,32241,1,8,0:0:0:0:
256,192,32406,1,0,0:0:0:0:
256,192,32489,1,8,0:0:0:0:
256,192,32571,1,8,0:0:0:0:
256,192,32653,1,8,0:0:0:0:
256,192,32736,1,0,0:0:0:0:
256,192,33065,1,8,0:0:0:0:
256,192,33230,1,8,0:0:0:0:
256,192,33395,1,8,0:0:0:0:
256,192,33560,1,0,0:0:0:0:
256,192,33725,1,0,0:0:0:0:
256,192,33890,1,0,0:0:0:0:
256,192,33972,1,0,0:0:0:0:
256,192,34055,1,8,0:0:0:0:
256,192,34219,1,8,0:0:0:0:
256,192,34384,1,8,0:0:0:0:
256,192,34467,1,0,0:0:0:0:
256,192,34549,1,0,0:0:0:0:
256,192,34714,1,0,0:0:0:0:
256,192,34796,1,8,0:0:0:0:
256,192,34879,1,0,0:0:0:0:
256,192,34961,1,0,0:0:0:0:
256,192,35044,1,8,0:0:0:0:
256,192,35126,1,0,0:0:0:0:
256,192,35208,1,0,0:0:0:0:
256,192,35291,1,8,0:0:0:0:
256,192,35373,1,0,0:0:0:0:
256,192,35456,1,0,0:0:0:0:
256,192,35538,1,8,0:0:0:0:
256,192,35703,1,12,0:0:0:0:
256,192,36033,1,12,0:0:0:0:
256,192,36362,1,0,0:0:0:0:
256,192,36445,1,8,0:0:0:0:
256,192,36527,1,0,0:0:0:0:
256,192,36609,1,0,0:0:0:0:
256,192,36692,1,8,0:0:0:0:
256,192,36939,1,0,0:0:0:0:
256,192,37022,1,8,0:0:0:0:
256,192,37186,1,0,0:0:0:0:
256,192,37269,1,0,0:0:0:0:
256,192,37351,1,0,0:0:0:0:
256,192,37516,1,8,0:0:0:0:
256,192,37681,1,8,0:0:0:0:
256,192,37846,1,0,0:0:0:0:
256,192,38011,1,0,0:0:0:0:
256,192,38093,1,0,0:0:0:0:
256,192,38175,1,0,0:0:0:0:
256,192,38340,1,8,0:0:0:0:
256,192,38505,1,0,0:0:0:0:
256,192,38670,1,0,0:0:0:0:
256,192,38752,1,0,0:0:0:0:
256,192,38835,1,8,0:0:0:0:
256,192,39000,1,8,0:0:0:0:
256,192,39164,1,8,0:0:0:0:
256,192,39329,1,8,0:0:0:0:
256,192,39411,1,0,0:0:0:0:
256,192,39494,1,0,0:0:0:0:
256,192,39659,1,0,0:0:0:0:
256,192,39824,1,8,0:0:0:0:
256,192,39989,1,8,0:0:0:0:
256,192,40153,1,0,0:0:0:0:
256,192,40236,1,0,0:0:0:0:
256,192,40318,1,0,0:0:0:0:
256,192,40483,1,8,0:0:0:0:
256,192,40565,1,8,0:0:0:0:
256,192,40648,1,0,0:0:0:0:
256,192,40978,1,0,0:0:0:0:
256,192,41060,1,0,0:0:0:0:
256,192,41142,1,8,0:0:0:0:
256,192,41472,1,8,0:0:0:0:
256,192,41555,1,8,0:0:0:0:
256,192,41637,1,0,0:0:0:0:
256,192,41967,1,8,0:0:0:0:
256,192,42214,1,0,0:0:0:0:
256,192,42296,1,8,0:0:0:0:
256,192,42461,1,8,0:0:0:0:
256,192,42544,1,8,0:0:0:0:
256,192,42626,1,0,0:0:0:0:
256,192,42791,1,8,0:0:0:0:
256,192,42956,1,0,0:0:0:0:
256,192,43038,1,0,0:0:0:0:
256,192,43120,1,8,0:0:0:0:
256,192,43285,1,0,0:0:0:0:
256,192,43450,1,8,0:0:0:0:
256,192,43615,1,0,0:0:0:0:
256,192,43697,1,0,0:0:0:0:
256,192,43780,1,0,0:0:0:0:
256,192,43945,1,8,0:0:0:0:
256,192,44109,1,8,0:0:0:0:
256,192,44192,1,0,0:0:0:0:
256,192,44274,1,0,0:0:0:0:
256,192,44439,1,0,0:0:0:0:
256,192,44604,1,8,0:0:0:0:
256,192,44851,1,0,0:0:0:0:
256,192,44934,1,8,0:0:0:0:
256,192,45099,1,0,0:0:0:0:
256,192,45181,1,0,0:0:0:0:
256,192,45263,1,0,0:0:0:0:
256,192,45428,1,8,0:0:0:0:
256,192,45593,1,0,0:0:0:0:
256,192,45675,1,0,0:0:0:0:
256,192,45758,1,8,0:0:0:0:
256,192,45923,1,8,0:0:0:0:
256,192,46087,1,8,0:0:0:0:
256,192,46252,1,0,0:0:0:0:
256,192,46335,1,0,0:0:0:0:
256,192,46417,1,0,0:0:0:0:
256,192,46582,1,12,0:0:0:0:
256,192,47076,1,0,0:0:0:0:
256,192,47241,1,8,0:0:0:0:
256,192,47323,1,0,0:0:0:0:
256,192,47406,1,8,0:0:0:0:
256,192,47488,1,8,0:0:0:0:
256,192,47571,1,0,0:0:0:0:
256,192,47736,1,8,0:0:0:0:
256,192,47901,1,0,0:0:0:0:
256,192,48065,1,0,0:0:0:0:
256,192,48148,1,0,0:0:0:0:
256,192,48230,1,0,0:0:0:0:
256,192,48395,1,0,0:0:0:0:
256,192,48560,1,12,0:0:0:0:
256,192,48725,1,8,0:0:0:0:
256,192,48890,1,0,0:0:0:0:
256,192,49055,1,0,0:0:0:0:
256,192,49219,1,8,0:0:0:0:
256,192,49384,1,0,0:0:0:0:
256,192,49467,1,0,0:0:0:0:
256,192,49549,1,0,0:0:0:0:
256,192,49714,1,8,0:0:0:0:
256,192,49879,1,8,0:0:0:0:
256,192,50044,1,0,0:0:0:0:
256,192,50208,1,0,0:0:0:0:
256,192,50373,1,0,0:0:0:0:
256,192,50538,1,0,0:0:0:0:
256,192,50620,1,0,0:0:0:0:
256,192,50703,1,8,0:0:0:0:
256,192,50785,1,0,0:0:0:0:
256,192,50868,1,0,0:0:0:0:
256,192,50950,1,8,0:0:0:0:
256,192,51033,1,0,0:0:0:0:
256,192,51115,1,0,0:0:0:0:
256,192,51197,1,8,0:0:0:0:
256,192,51280,1,0,0:0:0:0:
256,192,51362,1,0,0:0:0:0:
256,192,51445,1,8,0:0:0:0:
256,192,51527,1,0,0:0:0:0:
256,192,51692,1,0,0:0:0:0:
256,192,51774,1,0,0:0:0:0:
256,192,51857,1,8,0:0:0:0:
256,192,52022,1,8,0:0:0:0:
256,192,52104,1,0,0:0:0:0:
256,192,52186,1,8,0:0:0:0:
256,192,52269,1,8,0:0:0:0:
256,192,52351,1,0,0:0:0:0:
256,192,52516,1,8,0:0:0:0:
256,192,52846,1,0,0:0:0:0:
256,192,53011,1,0,0:0:0:0:
256,192,53175,1,8,0:0:0:0:
256,192,53258,1,0,0:0:0:0:
256,192,53340,1,0,0:0:0:0:
256,192,53505,1,8,0:0:0:0:
256,192,53670,1,0,0:0:0:0:
256,192,53752,1,8,0:0:0:0:
256,192,53835,1,0,0:0:0:0:
256,192,53917,1,8,0:0:0:0:
256,192,54000,1,8,0:0:0:0:
256,192,54164,1,0,0:0:0:0:
256,192,54329,1,8,0:0:0:0:
256,192,54494,1,0,0:0:0:0:
256,192,54824,1,0,0:0:0:0:
256,192,55153,1,8,0:0:0:0:
256,192,55318,1,0,0:0:0:0:
256,192,55483,1,8,0:0:0:0:
256,192,55565,1,0,0:0:0:0:
256,192,55648,1,8,0:0:0:0:
256,192,55730,1,8,0:0:0:0:
256,192,55813,1,0,0:0:0:0:
256,192,55978,1,0,0:0:0:0:
256,192,56142,1,0,0:0:0:0:
256,192,56225,1,0,0:0:0:0:
256,192,56307,1,8,0:0:0:0:
256,192,56472,1,12,0:0:0:0:
256,192,56802,1,0,0:0:0:0:
256,192,57296,1,0,0:0:0:0:
256,192,57461,1,8,0:0:0:0:
256,192,57544,1,8,0:0:0:0:
256,192,57626,1,0,0:0:0:0:
256,192,57708,1,8,0:0:0:0:
256,192,57791,1,0,0:0:0:0:
256,192,57956,1,0,0:0:0:0:
256,192,58038,1,8,0:0:0:0:
256,192,58120,1,8,0:0:0:0:
256,192,58285,1,8,0:0:0:0:
256,192,58450,1,0,0:0:0:0:
256,192,58697,1,0,0:0:0:0:
256,192,58780,1,8,0:0:0:0:
256,192,58945,1,0,0:0:0:0:
256,192,59027,1,0,0:0:0:0:
256,192,59109,1,8,0:0:0:0:
256,192,59274,1,8,0:0:0:0:
256,192,59439,1,8,0:0:0:0:
256,192,59522,1,0,0:0:0:0:
256,192,59604,1,8,0:0:0:0:
256,192,59686,1,0,0:0:0:0:
256,192,59769,1,8,0:0:0:0:
256,192,59934,1,0,0:0:0:0:
256,192,60098,1,0,0:0:0:0:
256,192,60428,1,8,0:0:0:0:
256,192,60593,1,8,0:0:0:0:
256,192,60758,1,0,0:0:0:0:
256,192,60840,1,0,0:0:0:0:
256,192,60923,1,0,0:0:0:0:
256,192,61087,1,8,0:0:0:0:
256,192,61252,1,8,0:0:0:0:
256,192,61417,1,0,0:0:0:0:
256,192,61582,1,0,0:0:0:0:
256,192,61664,1,8,0:0:0:0:
256,192,61747,1,0,0:0:0:0:
256,192,61829,1,8,0:0:0:0:
256,192,61912,1,8,0:0:0:0:
256,192,62076,1,0,0:0:0:0:
256,192,62241,1,8,0:0:0:0:
256,192,62406,1,0,0:0:0:0:
256,192,62736,1,8,0:0:0:0:
256,192,63065,1,0,0:0:0:0:
256,192,63230,1,8,0:0:0:0:
256,192,63395,1,0,0:0:0:0:
256,192,63478,1,8,0:0:0:0:
256,192,63560,1,0,0:0:0:0:
256,192,63642,1,0,0:0:0:0:
256,192,63725,1,8,0:0:0:0:
256,192,63890,1,8,0:0:0:0:
256,192,64055,1,8,0:0:0:0:
256,192,64137,1,8,0:0:0:0:
256,192,64219,1,0,0:0:0:0:
256,192,64384,1,4,0:0:0:0:
256,192,64714,1,8,0:0:0:0:
256,192,64879,1,0,0:0:0:0:
256,192,65044,1,8,0:0:0:0:
256,192,65126,1,0,0:0:0:0:
256,192,65208,1,8,0:0:0:0:
256,192,65291,1,8,0:0:0:0:
256,192,65373,1,0,0:0:0:0:
256,192,65538,1,8,0:0:0:0:
256,192,65703,1,0,0:0:0:0:
256,192,65868,1,0,0:0:0:0:
256,192,65950,1,0,0:0:0:0:
256,192,66032,1,8,0:0:0:0:
256,192,66197,1,0,0:0:0:0:
256,192,66280,1,8,0:0:0:0:
256,192,66362,1,8,0:0:0:0:
256,192,66527,1,0,0:0:0:0:
256,192,66609,1,0,0:0:0:0:
256,192,66692,1,8,0:0:0:0:
256,192,66774,1,8,0:0:0:0:
256,192,66857,1,0,0:0:0:0:
256,192,66939,1,8,0:0:0:0:
256,192,67021,1,0,0:0:0:0:
256,192,67103,1,0,0:0:0:0:
256,192,67186,1,8,0:0:0:0:
256,192,67351,1,12,0:0:0:0:
256,192,67598,1,12,0:0:0:0:
256,192,67846,1,12,0:0:0:0:
256,192,68011,1,0,0:0:0:0:
256,192,68175,1,0,0:0:0:0:
256,192,68258,1,0,0:0:0:0:
256,192,68340,1,8,0:0:0:0:
256,192,68670,1,0,0:0:0:0:
256,192,68835,1,0,0:0:0:0:
256,192,69000,1,8,0:0:0:0:
256,192,69164,1,8,0:0:0:0:
256,192,69329,1,0,0:0:0:0:
256,192,69659,1,8,0:0:0:0:
256,192,69824,1,8,0:0:0:0:
256,192,69989,1,0,0:0:0:0:
256,192,70318,1,0,0:0:0:0:
256,192,70648,1,0,0:0:0:0:
256,192,70978,1,0,0:0:0:0:
256,192,71142,1,8,0:0:0:0:
256,192,71225,1,8,0:0:0:0:
256,192,71307,1,8,0:0:0:0:
256,192,71472,1,0,0:0:0:0:
256,192,71637,1,0,0:0:0:0:
256,192,71719,1,0,0:0:0:0:
256,192,71801,1,0,0:0:0:0:
256,192,71967,1,8,0:0:0:0:
256,192,72296,1,8,0:0:0:0:
256,192,72791,1,8,0:0:0:0:
256,192,72956,1,8,0:0:0:0:
256,192,73038,1,0,0:0:0:0:
256,192,73120,1,0,0:0:0:0:
256,192,73285,1,8,0:0:0:0:
256,192,73945,1,8,0:0:0:0:
256,192,74274,1,8,0:0:0:0:
256,192,74358,1,0,0:0:0:0:
256,192,74440,1,8,0:0:0:0:
256,192,74522,1,0,0:0:0:0:
256,192,74604,1,8,0:0:0:0:
256,192,74769,1,0,0:0:0:0:
256,192,74934,1,8,0:0:0:0:
256,192,75098,1,0,0:0:0:0:
256,192,75263,1,8,0:0:0:0:
256,192,75346,1,0,0:0:0:0:
256,192,75428,1,8,0:0:0:0:
256,192,75511,1,8,0:0:0:0:
256,192,75593,1,0,0:0:0:0:
256,192,75923,1,8,0:0:0:0:
256,192,76252,1,4,0:0:0:0:
256,192,76912,1,0,0:0:0:0:
256,192,77076,1,0,0:0:0:0:
256,192,77241,1,8,0:0:0:0:
256,192,77736,1,0,0:0:0:0:
256,192,77901,1,8,0:0:0:0:
256,192,78230,1,0,0:0:0:0:
256,192,78340,1,0,0:0:0:0:
256,192,78450,1,0,0:0:0:0:
256,192,78560,1,8,0:0:0:0:
256,192,78890,1,8,0:0:0:0:
256,192,79055,1,8,0:0:0:0:
256,192,79137,1,8,0:0:0:0:
256,192,79219,1,8,0:0:0:0:
256,192,79384,1,8,0:0:0:0:
256,192,79549,1,0,0:0:0:0:
256,192,79631,1,8,0:0:0:0:
256,192,79714,1,8,0:0:0:0:
256,192,79879,1,0,0:0:0:0:
256,192,80044,1,8,0:0:0:0:
256,192,80208,1,0,0:0:0:0:
256,192,80538,1,0,0:0:0:0:
256,192,80868,1,8,0:0:0:0:
256,192,81033,1,0,0:0:0:0:
256,192,81197,1,0,0:0:0:0:
256,192,81527,1,0,0:0:0:0:
256,192,81609,1,0,0:0:0:0:
256,192,81692,1,0,0:0:0:0:
256,192,81857,1,8,0:0:0:0:
256,192,82022,1,0,0:0:0:0:
256,192,82186,1,8,0:0:0:0:
256,192,82351,1,8,0:0:0:0:
256,192,82434,1,8,0:0:0:0:
256,192,82516,1,0,0:0:0:0:
256,192,82681,1,0,0:0:0:0:
256,192,82763,1,8,0:0:0:0:
256,192,82846,1,0,0:0:0:0:
256,192,82928,1,0,0:0:0:0:
256,192,83011,1,8,0:0:0:0:
256,192,83175,1,8,0:0:0:0:
256,192,83340,1,0,0:0:0:0:
256,192,83505,1,0,0:0:0:0:
256,192,83670,1,8,0:0:0:0:
256,192,83752,1,0,0:0:0:0:
256,192,83835,1,8,0:0:0:0:
256,192,83917,1,8,0:0:0:0:
256,192,84000,1,0,0:0:0:0:
256,192,84164,1,10,0:0:0:0:
256,192,84494,1,8,0:0:0:0:
256,192,84824,1,0,0:0:0:0:
256,192,85153,1,8,0:0:0:0:
256,192,85483,1,0,0:0:0:0:
256,192,85813,1,0,0:0:0:0:
256,192,86142,1,8,0:0:0:0:
256,192,86472,1,8,0:0:0:0:
256,192,86802,1,0,0:0:0:0:
256,192,87131,1,8,0:0:0:0:
256,192,87791,1,8,0:0:0:0:
256,192,88120,1,8,0:0:0:0:
256,192,88450,1,0,0:0:0:0:
256,192,88780,1,0,0:0:0:0:
256,192,89109,1,8,0:0:0:0:
256,192,89769,1,0,0:0:0:0:
256,192,90098,1,8,0:0:0:0:
256,192,90758,1,8,0:0:0:0:
256,192,90923,1,8,0:0:0:0:
256,192,91087,1,0,0:0:0:0:
256,192,91335,1,0,0:0:0:0:
256,192,91418,1,0,0:0:0:0:
256,192,91582,1,8,0:0:0:0:
256,192,91747,1,0,0:0:0:0:
256,192,92076,1,0,0:0:0:0:
256,192,92406,1,8,0:0:0:0:
256,192,92736,1,0,0:0:0:0:
256,192,92901,1,8,0:0:0:0:
256,192,93065,1,0,0:0:0:0:
256,192,93725,1,8,0:0:0:0:
256,192,94055,1,8,0:0:0:0:
256,192,94384,1,0,0:0:0:0:
256,192,94714,1,0,0:0:0:0:
256,192,95044,1,8,0:0:0:0:
256,192,95703,1,8,0:0:0:0:
256,192,95868,1,0,0:0:0:0:
256,192,95950,1,0,0:0:0:0:
256,192,96033,1,8,0:0:0:0:
256,192,96362,1,8,0:0:0:0:
256,192,96692,1,8,0:0:0:0:
256,192,97022,1,0,0:0:0:0:
256,192,97351,1,8,0:0:0:0:
256,192,97516,1,0,0:0:0:0:
256,192,97928,1,0,0:0:0:0:
256,192,98011,1,8,0:0:0:0:
256,192,98670,1,0,0:0:0:0:
256,192,98835,1,8,0:0:0:0:
256,192,99000,1,8,0:0:0:0:
256,192,99329,1,8,0:0:0:0:
256,192,99659,1,8,0:0:0:0:
256,192,99824,1,8,0:0:0:0:
256,192,99989,1,4,0:0:0:0:
256,192,100153,1,8,0:0:0:0:
256,192,100236,1,0,0:0:0:0:
256,192,100318,1,0,0:0:0:0:
256,192,100483,1,12,0:0:0:0:
256,192,100648,1,8,0:0:0:0:
256,192,100730,1,0,0:0:0:0:
256,192,100813,1,0,0:0:0:0:
256,192,100978,1,12,0:0:0:0:
256,192,101142,1,0,0:0:0:0:
256,192,101225,1,8,0:0:0:0:
256,192,101307,1,0,0:0:0:0:
256,192,101390,1,8,0:0:0:0:
256,192,101472,1,8,0:0:0:0:
256,192,101555,1,0,0:0:0:0:
256,192,101637,1,8,0:0:0:0:
256,192,101802,1,8,0:0:0:0:
256,192,101967,1,0,0:0:0:0:
256,192,102022,1,0,0:0:0:0:
256,192,102076,1,0,0:0:0:0:
256,192,102131,1,0,0:0:0:0:
256,192,102296,1,8,0:0:0:0:
256,192,102461,1,0,0:0:0:0:
256,192,102626,1,8,0:0:0:0:
256,192,102791,1,8,0:0:0:0:
256,192,102873,1,0,0:0:0:0:
256,192,102956,1,8,0:0:0:0:
256,192,103038,1,0,0:0:0:0:
256,192,103120,1,0,0:0:0:0:
256,192,103203,1,0,0:0:0:0:
256,192,103285,1,8,0:0:0:0:
256,192,103615,1,4,0:0:0:0:
256,192,103945,1,8,0:0:0:0:
256,192,104439,1,8,0:0:0:0:
256,192,104604,1,0,0:0:0:0:
256,192,104686,1,8,0:0:0:0:
256,192,104769,1,0,0:0:0:0:
256,192,104851,1,0,0:0:0:0:
256,192,104934,1,8,0:0:0:0:
256,192,105181,1,0,0:0:0:0:
256,192,105263,1,8,0:0:0:0:
256,192,105428,1,8,0:0:0:0:
256,192,105511,1,0,0:0:0:0:
256,192,105593,1,0,0:0:0:0:
256,192,105758,1,8,0:0:0:0:
256,192,105923,1,0,0:0:0:0:
256,192,106005,1,0,0:0:0:0:
256,192,106087,1,0,0:0:0:0:
256,192,106252,1,8,0:0:0:0:
256,192,106417,1,0,0:0:0:0:
256,192,106582,1,8,0:0:0:0:
256,192,106747,1,0,0:0:0:0:
256,192,106829,1,0,0:0:0:0:
256,192,106912,1,8,0:0:0:0:
256,192,107076,1,8,0:0:0:0:
256,192,107241,1,0,0:0:0:0:
256,192,107406,1,8,0:0:0:0:
256,192,107571,1,0,0:0:0:0:
256,192,107653,1,0,0:0:0:0:
256,192,107736,1,0,0:0:0:0:
256,192,107901,1,12,0:0:0:0:
256,192,108230,1,8,0:0:0:0:
256,192,108395,1,8,0:0:0:0:
256,192,108560,1,0,0:0:0:0:
256,192,108725,1,8,0:0:0:0:
256,192,108807,1,8,0:0:0:0:
256,192,108890,1,0,0:0:0:0:
256,192,109055,1,0,0:0:0:0:
256,192,109219,1,0,0:0:0:0:
256,192,109302,1,0,0:0:0:0:
256,192,109384,1,0,0:0:0:0:
256,192,109549,1,8,0:0:0:0:
256,192,109714,1,0,0:0:0:0:
256,192,109879,1,0,0:0:0:0:
256,192,109962,1,8,0:0:0:0:
256,192,110044,1,0,0:0:0:0:
256,192,110208,1,0,0:0:0:0:
256,192,110291,1,8,0:0:0:0:
256,192,110373,1,0,0:0:0:0:
256,192,110456,1,0,0:0:0:0:
256,192,110538,1,8,0:0:0:0:
256,192,110703,1,8,0:0:0:0:
256,192,110868,1,8,0:0:0:0:
256,192,110950,1,8,0:0:0:0:
256,192,111033,1,0,0:0:0:0:
256,192,111197,1,0,0:0:0:0:
256,192,111362,1,8,0:0:0:0:
256,192,111527,1,8,0:0:0:0:
256,192,111692,1,0,0:0:0:0:
256,192,111857,1,0,0:0:0:0:
256,192,111939,1,0,0:0:0:0:
256,192,112022,1,8,0:0:0:0:
256,192,112186,1,8,0:0:0:0:
256,192,112351,1,8,0:0:0:0:
256,192,112516,1,0,0:0:0:0:
256,192,112599,1,0,0:0:0:0:
256,192,112681,1,0,0:0:0:0:
256,192,112846,1,8,0:0:0:0:
256,192,112928,1,0,0:0:0:0:
256,192,113010,1,8,0:0:0:0:
256,192,113093,1,8,0:0:0:0:
256,192,113175,1,0,0:0:0:0:
256,192,113340,1,8,0:0:0:0:
256,192,113505,1,0,0:0:0:0:
256,192,113835,1,0,0:0:0:0:
256,192,114164,1,0,0:0:0:0:
256,192,114247,1,0,0:0:0:0:
256,192,114329,1,0,0:0:0:0:
256,192,114494,1,8,0:0:0:0:
256,192,114659,1,8,0:0:0:0:
256,192,114824,1,0,0:0:0:0:
256,192,114906,1,8,0:0:0:0:
256,192,114989,1,0,0:0:0:0:
256,192,115071,1,0,0:0:0:0:
256,192,115153,1,8,0:0:0:0:
256,192,115318,1,8,0:0:0:0:
256,192,115483,1,8,0:0:0:0:
256,192,115648,1,8,0:0:0:0:
256,192,115813,1,4,0:0:0:0:
256,192,116142,1,0,0:0:0:0:
256,192,116225,1,0,0:0:0:0:
256,192,116307,1,0,0:0:0:0:
256,192,116472,1,8,0:0:0:0:
256,192,116637,1,0,0:0:0:0:
256,192,116719,1,0,0:0:0:0:
256,192,116802,1,8,0:0:0:0:
256,192,116967,1,8,0:0:0:0:
256,192,117131,1,0,0:0:0:0:
256,192,117296,1,8,0:0:0:0:
256,192,117379,1,8,0:0:0:0:
256,192,117461,1,0,0:0:0:0:
256,192,117626,1,0,0:0:0:0:
256,192,117791,1,0,0:0:0:0:
256,192,117873,1,8,0:0:0:0:
256,192,117956,1,0,0:0:0:0:
256,192,118038,1,0,0:0:0:0:
256,192,118120,1,8,0:0:0:0:
256,192,118203,1,0,0:0:0:0:
256,192,118285,1,0,0:0:0:0:
256,192,118368,1,8,0:0:0:0:
256,192,118450,1,0,0:0:0:0:
256,192,118533,1,0,0:0:0:0:
256,192,118697,1,0,0:0:0:0:
256,192,118780,1,8,0:0:0:0:
256,192,118945,1,0,0:0:0:0:
256,192,119109,1,8,0:0:0:0:
256,192,119274,1,0,0:0:0:0:
256,192,119357,1,8,0:0:0:0:
256,192,119439,1,0,0:0:0:0:
256,192,119522,1,8,0:0:0:0:
256,192,119604,1,8,0:0:0:0:
256,192,119686,1,0,0:0:0:0:
256,192,119769,1,8,0:0:0:0:
256,192,120098,1,8,0:0:0:0:
256,192,120263,1,0,0:0:0:0:
256,192,120346,1,8,0:0:0:0:
256,192,120428,1,0,0:0:0:0:
256,192,120511,1,0,0:0:0:0:
256,192,120593,1,0,0:0:0:0:
256,192,120675,1,0,0:0:0:0:
256,192,120758,1,8,0:0:0:0:
256,192,120923,1,8,0:0:0:0:
256,192,121087,1,0,0:0:0:0:
256,192,121170,1,8,0:0:0:0:
256,192,121252,1,0,0:0:0:0:
256,192,121335,1,0,0:0:0:0:
256,192,121417,1,8,0:0:0:0:
256,192,121747,1,8,0:0:0:0:
256,192,122076,1,0,0:0:0:0:
256,192,122159,1,0,0:0:0:0:
256,192,122241,1,0,0:0:0:0:
256,192,122406,1,8,0:0:0:0:
256,192,122571,1,8,0:0:0:0:
256,192,122736,1,0,0:0:0:0:
256,192,122901,1,8,0:0:0:0:
256,192,123065,1,0,0:0:0:0:
256,192,123148,1,8,0:0:0:0:
256,192,123230,1,0,0:0:0:0:
256,192,123313,1,0,0:0:0:0:
256,192,123395,1,8,0:0:0:0:
256,192,123560,1,0,0:0:0:0:
256,192,123725,1,8,0:0:0:0:
256,192,123890,1,0,0:0:0:0:
256,192,124055,1,0,0:0:0:0:
256,192,124219,1,8,0:0:0:0:
256,192,124384,1,0,0:0:0:0:
256,192,124467,1,8,0:0:0:0:
256,192,124549,1,8,0:0:0:0:
256,192,124631,1,8,0:0:0:0:
256,192,124714,1,0,0:0:0:0:
256,192,125044,1,8,0:0:0:0:
256,192,125373,1,0,0:0:0:0:
256,192,125538,1,0,0:0:0:0:
256,192,125620,1,0,0:0:0:0:
256,192,125703,1,8,0:0:0:0:
256,192,125868,1,8,0:0:0:0:
256,192,126033,1,8,0:0:0:0:
256,192,126197,1,8,0:0:0:0:
256,192,126362,1,0,0:0:0:0:
256,192,126527,1,8,0:0:0:0:
256,192,126692,1,8,0:0:0:0:
256,192,126774,1,0,0:0:0:0:
256,192,126857,1,0,0:0:0:0:
256,192,126939,1,8,0:0:0:0:
256,192,127022,1,0,0:0:0:0:
256,192,127186,1,0,0:0:0:0:
256,192,127269,1,8,0:0:0:0:
256,192,127351,1,8,0:0:0:0:
256,192,127516,1,8,0:0:0:0:
256,192,127598,1,0,0:0:0:0:
256,192,127681,1,8,0:0:0:0:
256,192,128175,1,8,0:0:0:0:
256,192,128340,1,0,0:0:0:0:
256,192,128423,1,8,0:0:0:0:
256,192,128505,1,0,0:0:0:0:
256,192,128587,1,0,0:0:0:0:
256,192,128670,1,8,0:0:0:0:
256,192,128835,1,8,0:0:0:0:
256,192,129000,1,0,0:0:0:0:
256,192,129164,1,0,0:0:0:0:
256,192,129329,1,8,0:0:0:0:
256,192,129412,1,0,0:0:0:0:
256,192,129494,1,0,0:0:0:0:
256,192,129659,1,8,0:0:0:0:
256,192,129989,1,0,0:0:0:0:
256,192,130153,1,8,0:0:0:0:
256,192,130318,1,0,0:0:0:0:
256,192,130483,1,0,0:0:0:0:
256,192,130565,1,0,0:0:0:0:
256,192,130648,1,8,0:0:0:0:
256,192,130813,1,8,0:0:0:0:
256,192,130978,1,0,0:0:0:0:
256,192,131142,1,0,0:0:0:0:
256,192,131307,1,8,0:0:0:0:
256,192,131390,1,8,0:0:0:0:
256,192,131472,1,0,0:0:0:0:
256,192,131637,1,0,0:0:0:0:
256,192,131802,1,0,0:0:0:0:
256,192,131884,1,8,0:0:0:0:
256,192,131967,1,0,0:0:0:0:
256,192,132049,1,0,0:0:0:0:
256,192,132131,1,8,0:0:0:0:
256,192,132296,1,8,0:0:0:0:
256,192,132461,1,0,0:0:0:0:
256,192,132544,1,0,0:0:0:0:
256,192,132626,1,8,0:0:0:0:
256,192,132791,1,8,0:0:0:0:
256,192,132956,1,0,0:0:0:0:
256,192,133120,1,8,0:0:0:0:
256,192,133285,1,8,0:0:0:0:
256,192,133450,1,0,0:0:0:0:
256,192,133615,1,8,0:0:0:0:
256,192,133697,1,0,0:0:0:0:
256,192,133780,1,8,0:0:0:0:
256,192,133862,1,0,0:0:0:0:
256,192,133945,1,0,0:0:0:0:
256,192,134109,1,0,0:0:0:0:
256,192,134192,1,8,0:0:0:0:
256,192,134274,1,0,0:0:0:0:
256,192,134439,1,8,0:0:0:0:
256,192,134522,1,8,0:0:0:0:
256,192,134604,1,0,0:0:0:0:
256,192,134769,1,8,0:0:0:0:
256,192,134934,1,0,0:0:0:0:
256,192,135016,1,0,0:0:0:0:
256,192,135098,1,8,0:0:0:0:
256,192,135263,1,8,0:0:0:0:
256,192,135346,1,0,0:0:0:0:
256,192,135428,1,8,0:0:0:0:
256,192,135511,1,8,0:0:0:0:
256,192,135593,1,0,0:0:0:0:
256,192,135758,1,0,0:0:0:0:
256,192,135840,1,0,0:0:0:0:
256,192,135923,1,0,0:0:0:0:
256,192,136087,1,8,0:0:0:0:
256,192,136252,1,0,0:0:0:0:
256,192,136417,1,0,0:0:0:0:
256,192,136500,1,0,0:0:0:0:
256,192,136582,1,8,0:0:0:0:
256,192,136747,1,8,0:0:0:0:
256,192,136912,1,0,0:0:0:0:
256,192,137076,1,8,0:0:0:0:
256,192,137241,1,8,0:0:0:0:
256,192,137324,1,0,0:0:0:0:
256,192,137406,1,0,0:0:0:0:
256,192,137571,1,8,0:0:0:0:
256,192,137736,1,8,0:0:0:0:
256,192,137901,1,0,0:0:0:0:
256,192,137983,1,0,0:0:0:0:
256,192,138065,1,0,0:0:0:0:
256,192,138230,1,8,0:0:0:0:
256,192,138395,1,8,0:0:0:0:
256,192,138478,1,0,0:0:0:0:
256,192,138560,1,8,0:0:0:0:
256,192,138642,1,8,0:0:0:0:
256,192,138725,1,0,0:0:0:0:
256,192,138807,1,8,0:0:0:0:
256,192,138890,1,0,0:0:0:0:
256,192,138972,1,0,0:0:0:0:
256,192,139055,1,0,0:0:0:0:
256,192,139137,1,0,0:0:0:0:
256,192,139219,1,8,0:0:0:0:
256,192,139384,1,8,0:0:0:0:
256,192,139549,1,0,0:0:0:0:
256,192,139879,1,0,0:0:0:0:
256,192,139962,1,8,0:0:0:0:
256,192,140044,1,0,0:0:0:0:
256,192,140127,1,0,0:0:0:0:
256,192,140209,1,8,0:0:0:0:
256,192,140373,1,8,0:0:0:0:
256,192,140538,1,8,0:0:0:0:
256,192,140620,1,0,0:0:0:0:
256,192,140703,1,8,0:0:0:0:
256,192,140785,1,8,0:0:0:0:
256,192,140868,1,0,0:0:0:0:
256,192,141033,1,8,0:0:0:0:
256,192,141197,1,0,0:0:0:0:
256,192,141280,1,0,0:0:0:0:
256,192,141362,1,0,0:0:0:0:
256,192,141527,1,8,0:0:0:0:
256,192,141692,1,0,0:0:0:0:
256,192,141774,1,0,0:0:0:0:
256,192,141857,1,8,0:0:0:0:
256,192,141939,1,0,0:0:0:0:
256,192,142022,1,8,0:0:0:0:
256,192,142104,1,8,0:0:0:0:
256,192,142186,1,0,0:0:0:0:
256,192,142351,1,0,0:0:0:0:
256,192,142434,1,8,0:0:0:0:
256,192,142516,1,0,0:0:0:0:
256,192,142598,1,0,0:0:0:0:
256,192,142681,1,8,0:0:0:0:
256,192,142846,1,8,0:0:0:0:
256,192,143011,1,8,0:0:0:0:
256,192,143093,1,8,0:0:0:0:
256,192,143175,1,0,0:0:0:0:
256,192,143258,1,8,0:0:0:0:
256,192,143340,1,0,0:0:0:0:
256,192,143423,1,0,0:0:0:0:
256,192,143505,1,8,0:0:0:0:
256,192,143835,1,8,0:0:0:0:
256,192,144000,1,0,0:0:0:0:
256,192,144164,1,0,0:0:0:0:
256,192,144247,1,8,0:0:0:0:
256,192,144329,1,0,0:0:0:0:
256,192,144412,1,0,0:0:0:0:
256,192,144494,1,8,0:0:0:0:
256,192,144824,1,8,0:0:0:0:
256,192,144906,1,0,0:0:0:0:
256,192,144989,1,8,0:0:0:0:
256,192,145153,1,0,0:0:0:0:
256,192,145318,1,0,0:0:0:0:
256,192,145401,1,0,0:0:0:0:
256,192,145483,1,8,0:0:0:0:
256,192,145648,1,0,0:0:0:0:
256,192,145813,1,0,0:0:0:0:
256,192,145895,1,8,0:0:0:0:
256,192,145978,1,0,0:0:0:0:
256,192,146060,1,0,0:0:0:0:
256,192,146142,1,8,0:0:0:0:
256,192,146307,1,8,0:0:0:0:
256,192,146472,1,12,0:0:0:0:
256,192,146802,1,12,0:0:0:0:
256,192,146967,1,0,0:0:0:0:
256,192,147049,1,8,0:0:0:0:
256,192,147131,1,0,0:0:0:0:
256,192,147214,1,8,0:0:0:0:
256,192,147296,1,0,0:0:0:0:
256,192,147379,1,8,0:0:0:0:
256,192,147461,1,8,0:0:0:0:
256,192,147626,1,0,0:0:0:0:
256,192,147791,1,8,0:0:0:0:
256,192,147956,1,8,0:0:0:0:
256,192,148038,1,0,0:0:0:0:
256,192,148120,1,0,0:0:0:0:
256,192,148285,1,0,0:0:0:0:
256,192,148450,1,8,0:0:0:0:
256,192,148533,1,0,0:0:0:0:
256,192,148615,1,8,0:0:0:0:
256,192,148697,1,8,0:0:0:0:
256,192,148780,1,0,0:0:0:0:
256,192,148945,1,0,0:0:0:0:
256,192,149109,1,8,0:0:0:0:
256,192,149274,1,0,0:0:0:0:
256,192,149439,1,0,0:0:0:0:
256,192,149522,1,8,0:0:0:0:
256,192,149604,1,8,0:0:0:0:
256,192,149686,1,0,0:0:0:0:
256,192,149769,1,0,0:0:0:0:
256,192,149934,1,0,0:0:0:0:
256,192,150098,1,8,0:0:0:0:
256,192,150263,1,8,0:0:0:0:
256,192,150428,1,0,0:0:0:0:
256,192,150511,1,8,0:0:0:0:
256,192,150593,1,0,0:0:0:0:
256,192,150675,1,0,0:0:0:0:
256,192,150758,1,0,0:0:0:0:
256,192,150840,1,0,0:0:0:0:
256,192,150923,1,0,0:0:0:0:
256,192,151005,1,0,0:0:0:0:
256,192,151087,1,8,0:0:0:0:
256,192,151170,1,0,0:0:0:0:
256,192,151252,1,8,0:0:0:0:
256,192,151417,1,12,0:0:0:0:
256,192,151582,1,0,0:0:0:0:
256,192,151747,1,8,0:0:0:0:
256,192,151829,1,0,0:0:0:0:
256,192,151912,1,8,0:0:0:0:
256,192,151994,1,8,0:0:0:0:
256,192,152076,1,0,0:0:0:0:
256,192,152241,1,0,0:0:0:0:
256,192,152406,1,4,0:0:0:0:
256,192,152736,1,4,0:0:0:0:
256,192,153065,1,8,0:0:0:0:
256,192,153395,1,8,0:0:0:0:
256,192,153478,1,0,0:0:0:0:
256,192,153560,1,0,0:0:0:0:
256,192,153642,1,8,0:0:0:0:
256,192,153725,1,8,0:0:0:0:
256,192,153807,1,0,0:0:0:0:
256,192,153890,1,0,0:0:0:0:
256,192,153972,1,8,0:0:0:0:
256,192,154055,1,8,0:0:0:0:
256,192,154137,1,0,0:0:0:0:
256,192,154219,1,0,0:0:0:0:
256,192,154384,1,0,0:0:0:0:
256,192,154467,1,8,0:0:0:0:
256,192,154549,1,0,0:0:0:0:
256,192,154631,1,0,0:0:0:0:
256,192,154714,1,8,0:0:0:0:
256,192,154796,1,0,0:0:0:0:
256,192,154879,1,0,0:0:0:0:
256,192,154961,1,0,0:0:0:0:
256,192,155044,1,8,0:0:0:0:
256,192,155126,1,8,0:0:0:0:
256,192,155208,1,0,0:0:0:0:
256,192,155373,1,6,0:0:0:0:
