osu file format v14

[General]
AudioFilename: Musica de Aves.mp3
AudioLeadIn: 0
PreviewTime: 36692
Countdown: 0
SampleSet: Normal
StackLeniency: 0.7
Mode: 1
LetterboxInBreaks: 0
WidescreenStoryboard: 0

[Editor]
DistanceSpacing: 2
BeatDivisor: 4
GridSize: 32
TimelineZoom: 2.62

[Metadata]
Title:Musica de Aves
TitleUnicode:Musica de Aves
Artist:Chitose
ArtistUnicode:Chitose
Creator:Kunieda
Version:Muzukashii
Source:BMS
Tags:galician spain instrumental g2r2014 go back 2 your roots
BeatmapID:630113
BeatmapSetID:278119

[Difficulty]
HPDrainRate:4
CircleSize:5
OverallDifficulty:4
ApproachRate:5
SliderMultiplier:1.4
SliderTickRate:1

[Events]
//Background and Video events
0,0,"22920563.jpg",0,0
//Break Periods
//Storyboard Layer 0 (Background)
//Storyboard Layer 1 (Fail)
//Storyboard Layer 2 (Pass)
//Storyboard Layer 3 (Foreground)
//Storyboard Sound Samples

[TimingPoints]
4055,329.67032967033,6,1,0,75,1,0
36692,-100,6,1,0,75,0,1
52516,-100,6,1,0,75,0,0
84164,-100,6,2,0,60,0,0
96362,-100,6,2,0,25,0,0
99989,-100,6,1,0,75,0,0
135593,-100,6,1,0,75,0,1
155373,-100,6,1,0,75,0,0

[HitObjects]
256,192,4055,5,6,0:0:0:0:
256,192,4384,1,0,0:0:0:0:
256,192,4549,1,0,0:0:0:0:
256,192,4714,1,8,0:0:0:0:
256,192,4879,1,8,0:0:0:0:
256,192,5044,1,0,0:0:0:0:
256,192,5208,1,8,0:0:0:0:
256,192,5373,1,8,0:0:0:0:
256,192,5538,1,0,0:0:0:0:
256,192,5703,1,8,0:0:0:0:
256,192,5868,1,8,0:0:0:0:
256,192,6033,1,0,0:0:0:0:
256,192,6362,1,8,0:0:0:0:
256,192,6692,1,0,0:0:0:0:
256,192,6857,1,8,0:0:0:0:
256,192,7022,1,0,0:0:0:0:
256,192,7104,1,0,0:0:0:0:
256,192,7186,1,0,0:0:0:0:
256,192,7351,1,0,0:0:0:0:
256,192,7681,1,8,0:0:0:0:
256,192,7846,1,0,0:0:0:0:
256,192,8011,1,8,0:0:0:0:
256,192,8340,1,0,0:0:0:0:
256,192,8835,1,8,0:0:0:0:
256,192,9000,1,0,0:0:0:0:
256,192,9329,1,8,0:0:0:0:
256,192,9659,1,0,0:0:0:0:
256,192,9824,1,0,0:0:0:0:
256,192,9989,1,8,0:0:0:0:
256,192,10153,1,0,0:0:0:0:
256,192,10318,1,8,0:0:0:0:
256,192,10648,1,8,0:0:0:0:
256,192,10978,1,0,0:0:0:0:
256,192,11307,1,0,0:0:0:0:
256,192,11637,1,8,0:0:0:0:
256,192,11967,1,6,0:0:0:0:
256,192,12296,1,0,0:0:0:0:
256,192,12461,1,8,0:0:0:0:
256,192,12626,1,8,0:0:0:0:
256,192,12791,1,0,0:0:0:0:
256,192,12956,1,8,0:0:0:0:
256,192,13120,1,0,0:0:0:0:
256,192,13285,1,0,0:0:0:0:
256,192,13450,1,8,0:0:0:0:
256,192,13615,1,0,0:0:0:0:
256,192,13945,1,8,0:0:0:0:
256,192,14274,1,0,0:0:0:0:
256,192,14439,1,12,0:0:0:0:
256,192,14769,1,0,0:0:0:0:
256,192,14934,1,0,0:0:0:0:
256,192,15016,1,0,0:0:0:0:
256,192,15098,1,0,0:0:0:0:
256,192,15263,1,8,0:0:0:0:
256,192,15428,1,8,0:0:0:0:
256,192,15593,1,0,0:0:0:0:
256,192,15923,1,0,0:0:0:0:
256,192,16252,1,0,0:0:0:0:
256,192,16417,1,8,0:0:0:0:
256,192,16582,1,8,0:0:0:0:
256,192,16747,1,0,0:0:0:0:
256,192,16829,1,0,0:0:0:0:
256,192,16912,1,0,0:0:0:0:
256,192,17076,1,0,0:0:0:0:
256,192,17241,1,8,0:0:0:0:
256,192,17571,1,8,0:0:0:0:
256,192,17901,1,0,0:0:0:0:
256,192,18065,1,0,0:0:0:0:
256,192,18230,1,0,0:0:0:0:
256,192,18395,1,8,0:0:0:0:
256,192,18725,1,0,0:0:0:0:
256,192,18890,1,10,0:0:0:0:
256,192,19219,1,10,0:0:0:0:
256,192,19549,1,0,0:0:0:0:
256,192,19631,1,0,0:0:0:0:
256,192,19714,1,0,0:0:0:0:
256,192,19879,1,8,0:0:0:0:
256,192,20044,1,0,0:0:0:0:
256,192,20208,1,0,0:0:0:0:
256,192,20291,1,0,0:0:0:0:
256,192,20373,1,0,0:0:0:0:
256,192,20538,1,0,0:0:0:0:
256,192,20703,1,0,0:0:0:0:
256,192,20868,1,4,0:0:0:0:
256,192,21362,1,8,0:0:0:0:
256,192,21527,1,0,0:0:0:0:
256,192,21692,1,8,0:0:0:0:
256,192,21857,1,8,0:0:0:0:
256,192,22186,1,0,0:0:0:0:
256,192,22516,1,0,0:0:0:0:
256,192,22681,1,0,0:0:0:0:
256,192,22846,1,8,0:0:0:0:
256,192,23175,1,8,0:0:0:0:
256,192,23505,1,8,0:0:0:0:
256,192,23835,1,0,0:0:0:0:
256,192,24164,1,0,0:0:0:0:
256,192,24329,1,0,0:0:0:0:
256,192,24494,1,8,0:0:0:0:
256,192,24576,1,8,0:0:0:0:
256,192,24659,1,8,0:0:0:0:
256,192,24824,1,8,0:0:0:0:
256,192,25153,1,0,0:0:0:0:
256,192,25318,1,8,0:0:0:0:
256,192,25483,1,8,0:0:0:0:
256,192,25648,1,0,0:0:0:0:
256,192,25813,1,8,0:0:0:0:
256,192,26142,1,8,0:0:0:0:
256,192,26307,1,0,0:0:0:0:
256,192,26472,1,8,0:0:0:0:
256,192,26637,1,8,0:0:0:0:
256,192,26720,1,8,0:0:0:0:
256,192,26802,1,8,0:0:0:0:
256,192,26967,1,8,0:0:0:0:
256,192,27131,1,0,0:0:0:0:
256,192,27461,1,0,0:0:0:0:
256,192,27791,1,8,0:0:0:0:
256,192,28285,1,0,0:0:0:0:
256,192,28450,1,0,0:0:0:0:
256,192,28532,1,0,0:0:0:0:
256,192,28615,1,0,0:0:0:0:
256,192,28780,1,0,0:0:0:0:
256,192,28945,1,8,0:0:0:0:
256,192,29109,1,0,0:0:0:0:
256,192,29439,1,8,0:0:0:0:
256,192,29769,1,0,0:0:0:0:
256,192,30098,1,8,0:0:0:0:
256,192,30428,1,0,0:0:0:0:
256,192,30593,1,0,0:0:0:0:
256,192,30758,1,8,0:0:0:0:
256,192,31087,1,8,0:0:0:0:
256,192,31252,1,0,0:0:0:0:
256,192,31417,1,8,0:0:0:0:
256,192,31582,1,0,0:0:0:0:
256,192,31747,1,0,0:0:0:0:
256,192,32076,1,8,0:0:0:0:
256,192,32406,1,0,0:0:0:0:
256,192,32736,1,8,0:0:0:0:
256,192,33065,1,0,0:0:0:0:
256,192,33230,1,0,0:0:0:0:
256,192,33395,1,8,0:0:0:0:
256,192,33560,1,0,0:0:0:0:
256,192,33725,1,8,0:0:0:0:
256,192,34055,1,0,0:0:0:0:
256,192,34219,1,8,0:0:0:0:
256,192,34384,1,0,0:0:0:0:
256,192,34549,1,8,0:0:0:0:
256,192,34713,1,0,0:0:0:0:
256,192,34796,1,0,0:0:0:0:
256,192,34879,1,0,0:0:0:0:
256,192,35044,1,8,0:0:0:0:
256,192,35208,1,0,0:0:0:0:
256,192,35291,1,0,0:0:0:0:
256,192,35373,1,0,0:0:0:0:
256,192,35538,1,8,0:0:0:0:
256,192,35703,1,4,0:0:0:0:
256,192,36033,1,4,0:0:0:0:
256,192,36362,1,0,0:0:0:0:
256,192,36445,1,0,0:0:0:0:
256,192,36527,1,0,0:0:0:0:
256,192,36692,1,8,0:0:0:0:
256,192,37022,1,0,0:0:0:0:
256,192,37186,1,8,0:0:0:0:
256,192,37516,1,8,0:0:0:0:
256,192,37681,1,0,0:0:0:0:
256,192,38011,1,8,0:0:0:0:
256,192,38340,1,8,0:0:0:0:
256,192,38670,1,0,0:0:0:0:
256,192,39329,1,0,0:0:0:0:
256,192,39494,1,0,0:0:0:0:
256,192,39659,1,8,0:0:0:0:
256,192,39989,1,8,0:0:0:0:
256,192,40153,1,0,0:0:0:0:
256,192,40235,1,0,0:0:0:0:
256,192,40318,1,8,0:0:0:0:
256,192,40483,1,0,0:0:0:0:
256,192,40648,1,12,0:0:0:0:
256,192,40978,1,0,0:0:0:0:
256,192,41142,1,8,0:0:0:0:
256,192,41472,1,8,0:0:0:0:
256,192,41637,1,0,0:0:0:0:
256,192,41967,1,8,0:0:0:0:
256,192,42296,1,0,0:0:0:0:
256,192,42461,1,8,0:0:0:0:
256,192,42544,1,8,0:0:0:0:
256,192,42626,1,8,0:0:0:0:
256,192,42956,1,8,0:0:0:0:
256,192,43120,1,0,0:0:0:0:
256,192,43285,1,8,0:0:0:0:
256,192,43614,1,0,0:0:0:0:
256,192,43779,1,8,0:0:0:0:
256,192,43944,1,8,0:0:0:0:
256,192,44109,1,0,0:0:0:0:
256,192,44274,1,0,0:0:0:0:
256,192,44604,1,12,0:0:0:0:
256,192,44934,1,8,0:0:0:0:
256,192,45098,1,0,0:0:0:0:
256,192,45263,1,0,0:0:0:0:
256,192,45428,1,8,0:0:0:0:
256,192,45593,1,0,0:0:0:0:
256,192,45923,1,0,0:0:0:0:
256,192,46252,1,8,0:0:0:0:
256,192,46582,1,6,0:0:0:0:
256,192,47241,1,8,0:0:0:0:
256,192,47405,1,0,0:0:0:0:
256,192,47570,1,8,0:0:0:0:
256,192,47900,1,0,0:0:0:0:
256,192,48065,1,8,0:0:0:0:
256,192,48229,1,0,0:0:0:0:
256,192,48394,1,0,0:0:0:0:
256,192,48560,1,6,0:0:0:0:
256,192,48890,1,8,0:0:0:0:
256,192,49055,1,0,0:0:0:0:
256,192,49384,1,8,0:0:0:0:
256,192,49549,1,0,0:0:0:0:
256,192,49714,1,8,0:0:0:0:
256,192,49879,1,0,0:0:0:0:
256,192,50044,1,0,0:0:0:0:
256,192,50208,1,8,0:0:0:0:
256,192,50538,1,0,0:0:0:0:
256,192,50620,1,0,0:0:0:0:
256,192,50703,1,0,0:0:0:0:
256,192,50868,1,8,0:0:0:0:
256,192,51033,1,0,0:0:0:0:
256,192,51115,1,0,0:0:0:0:
256,192,51197,1,0,0:0:0:0:
256,192,51362,1,8,0:0:0:0:
256,192,51527,1,6,0:0:0:0:
256,192,51857,1,0,0:0:0:0:
256,192,52186,1,8,0:0:0:0:
256,192,52516,1,4,0:0:0:0:
256,192,52846,1,0,0:0:0:0:
256,192,53011,1,0,0:0:0:0:
256,192,53175,1,8,0:0:0:0:
256,192,53340,1,0,0:0:0:0:
256,192,53505,1,8,0:0:0:0:
256,192,53670,1,8,0:0:0:0:
256,192,53835,1,0,0:0:0:0:
256,192,54000,1,8,0:0:0:0:
256,192,54164,1,0,0:0:0:0:
256,192,54329,1,0,0:0:0:0:
256,192,54494,1,8,0:0:0:0:
256,192,54824,1,0,0:0:0:0:
256,192,55318,1,8,0:0:0:0:
256,192,55483,1,0,0:0:0:0:
256,192,55565,1,0,0:0:0:0:
256,192,55648,1,0,0:0:0:0:
256,192,55813,1,8,0:0:0:0:
256,192,55978,1,0,0:0:0:0:
256,192,56142,1,8,0:0:0:0:
256,192,56472,1,4,0:0:0:0:
256,192,56802,1,8,0:0:0:0:
256,192,57296,1,8,0:0:0:0:
256,192,57461,1,0,0:0:0:0:
256,192,57544,1,0,0:0:0:0:
256,192,57626,1,0,0:0:0:0:
256,192,57791,1,0,0:0:0:0:
256,192,58285,1,8,0:0:0:0:
256,192,58450,1,0,0:0:0:0:
256,192,58780,1,8,0:0:0:0:
256,192,58945,1,8,0:0:0:0:
256,192,59109,1,0,0:0:0:0:
256,192,59274,1,8,0:0:0:0:
256,192,59439,1,0,0:0:0:0:
256,192,59522,1,0,0:0:0:0:
256,192,59604,1,0,0:0:0:0:
256,192,59769,1,8,0:0:0:0:
256,192,60098,1,8,0:0:0:0:
256,192,60428,1,4,0:0:0:0:
256,192,60758,1,0,0:0:0:0:
256,192,60923,1,0,0:0:0:0:
256,192,61087,1,8,0:0:0:0:
256,192,61252,1,0,0:0:0:0:
256,192,61417,1,8,0:0:0:0:
256,192,61582,1,0,0:0:0:0:
256,192,61747,1,8,0:0:0:0:
256,192,61912,1,0,0:0:0:0:
256,192,62076,1,8,0:0:0:0:
256,192,62241,1,0,0:0:0:0:
256,192,62406,1,0,0:0:0:0:
256,192,62736,1,8,0:0:0:0:
256,192,63230,1,8,0:0:0:0:
256,192,63395,1,8,0:0:0:0:
256,192,63477,1,8,0:0:0:0:
256,192,63560,1,8,0:0:0:0:
256,192,63725,1,0,0:0:0:0:
256,192,63890,1,0,0:0:0:0:
256,192,64055,1,8,0:0:0:0:
256,192,64384,1,4,0:0:0:0:
256,192,64714,1,0,0:0:0:0:
256,192,65044,1,8,0:0:0:0:
256,192,65373,1,0,0:0:0:0:
256,192,65703,1,0,0:0:0:0:
256,192,65868,1,0,0:0:0:0:
256,192,66033,1,8,0:0:0:0:
256,192,66362,1,8,0:0:0:0:
256,192,66692,1,0,0:0:0:0:
256,192,66857,1,8,0:0:0:0:
256,192,67022,1,0,0:0:0:0:
256,192,67186,1,0,0:0:0:0:
256,192,67351,1,12,0:0:0:0:
256,192,67598,1,12,0:0:0:0:
256,192,67846,1,12,0:0:0:0:
256,192,68175,1,12,0:0:0:0:
256,192,68340,1,4,0:0:0:0:
256,192,68670,1,0,0:0:0:0:
256,192,68835,1,0,0:0:0:0:
256,192,69000,1,8,0:0:0:0:
256,192,69164,1,8,0:0:0:0:
256,192,69329,1,0,0:0:0:0:
256,192,69989,1,8,0:0:0:0:
256,192,70318,1,0,0:0:0:0:
256,192,71307,1,8,0:0:0:0:
256,192,71967,1,8,0:0:0:0:
256,192,72296,1,0,0:0:0:0:
256,192,72791,1,8,0:0:0:0:
256,192,72956,1,0,0:0:0:0:
256,192,73120,1,0,0:0:0:0:
256,192,73285,1,8,0:0:0:0:
256,192,73945,1,0,0:0:0:0:
256,192,74274,1,8,0:0:0:0:
256,192,74357,1,8,0:0:0:0:
256,192,74439,1,8,0:0:0:0:
256,192,74604,1,8,0:0:0:0:
256,192,75098,1,8,0:0:0:0:
256,192,75263,1,0,0:0:0:0:
256,192,75346,1,0,0:0:0:0:
256,192,75428,1,0,0:0:0:0:
256,192,75593,1,0,0:0:0:0:
256,192,76252,1,4,0:0:0:0:
256,192,76912,1,0,0:0:0:0:
256,192,77076,1,0,0:0:0:0:
256,192,77241,1,8,0:0:0:0:
256,192,77901,1,8,0:0:0:0:
256,192,78230,1,0,0:0:0:0:
256,192,78560,1,0,0:0:0:0:
256,192,79055,1,0,0:0:0:0:
256,192,79219,1,8,0:0:0:0:
256,192,79549,1,0,0:0:0:0:
256,192,79879,1,8,0:0:0:0:
256,192,80208,1,8,0:0:0:0:
256,192,80538,1,0,0:0:0:0:
256,192,80868,1,8,0:0:0:0:
256,192,81197,1,0,0:0:0:0:
256,192,81527,1,8,0:0:0:0:
256,192,81857,1,8,0:0:0:0:
256,192,82186,1,0,0:0:0:0:
256,192,82516,1,0,0:0:0:0:
256,192,82846,1,8,0:0:0:0:
256,192,83175,12,0,84000,0:0:0:0:
256,192,84164,5,6,0:0:0:0:
256,192,84494,1,0,0:0:0:0:
256,192,84824,1,8,0:0:0:0:
256,192,85153,1,0,0:0:0:0:
256,192,85813,1,8,0:0:0:0:
256,192,86142,1,8,0:0:0:0:
256,192,86472,1,0,0:0:0:0:
256,192,86802,1,0,0:0:0:0:
256,192,87131,1,8,0:0:0:0:
256,192,87791,1,0,0:0:0:0:
256,192,88120,1,8,0:0:0:0:
256,192,88450,1,8,0:0:0:0:
256,192,88780,1,0,0:0:0:0:
256,192,89109,1,8,0:0:0:0:
256,192,89769,1,0,0:0:0:0:
256,192,90098,1,8,0:0:0:0:
256,192,90758,1,8,0:0:0:0:
256,192,90923,1,8,0:0:0:0:
256,192,91087,1,8,0:0:0:0:
256,192,91417,1,8,0:0:0:0:
256,192,91747,1,0,0:0:0:0:
256,192,92076,1,8,0:0:0:0:
256,192,92736,1,0,0:0:0:0:
256,192,93065,1,8,0:0:0:0:
256,192,93725,1,8,0:0:0:0:
256,192,94055,1,0,0:0:0:0:
256,192,94384,1,0,0:0:0:0:
256,192,94714,1,8,0:0:0:0:
256,192,95044,1,8,0:0:0:0:
256,192,95703,1,8,0:0:0:0:
256,192,96033,1,4,0:0:0:0:
256,192,96362,1,8,0:0:0:0:
256,192,96692,1,8,0:0:0:0:
256,192,97022,1,0,0:0:0:0:
256,192,97516,1,8,0:0:0:0:
256,192,98011,1,8,0:0:0:0:
256,192,98670,1,0,0:0:0:0:
256,192,98835,1,0,0:0:0:0:
256,192,99000,1,8,0:0:0:0:
256,192,99329,1,0,0:0:0:0:
256,192,99659,1,8,0:0:0:0:
256,192,99989,1,4,0:0:0:0:
256,192,100318,1,8,0:0:0:0:
256,192,100483,1,0,0:0:0:0:
256,192,100813,1,8,0:0:0:0:
256,192,101142,1,0,0:0:0:0:
256,192,101307,1,8,0:0:0:0:
256,192,101472,1,0,0:0:0:0:
256,192,101637,1,8,0:0:0:0:
256,192,101802,1,8,0:0:0:0:
256,192,101967,1,0,0:0:0:0:
256,192,102296,1,0,0:0:0:0:
256,192,102626,1,8,0:0:0:0:
256,192,102791,1,0,0:0:0:0:
256,192,102956,1,8,0:0:0:0:
256,192,103120,1,8,0:0:0:0:
256,192,103285,1,0,0:0:0:0:
256,192,103615,1,0,0:0:0:0:
256,192,103945,1,8,0:0:0:0:
256,192,104604,1,0,0:0:0:0:
256,192,104687,1,0,0:0:0:0:
256,192,104769,1,0,0:0:0:0:
256,192,104934,1,8,0:0:0:0:
256,192,105593,1,8,0:0:0:0:
256,192,105923,1,0,0:0:0:0:
256,192,106747,1,0,0:0:0:0:
256,192,106830,1,0,0:0:0:0:
256,192,106912,1,8,0:0:0:0:
256,192,107571,1,8,0:0:0:0:
256,192,107901,1,6,0:0:0:0:
256,192,108560,1,8,0:0:0:0:
256,192,108725,1,0,0:0:0:0:
256,192,108807,1,0,0:0:0:0:
256,192,108890,1,0,0:0:0:0:
256,192,109219,1,0,0:0:0:0:
256,192,109549,1,8,0:0:0:0:
256,192,109879,1,0,0:0:0:0:
256,192,110538,1,8,0:0:0:0:
256,192,110703,1,0,0:0:0:0:
256,192,110868,1,8,0:0:0:0:
256,192,110950,1,0,0:0:0:0:
256,192,111033,1,0,0:0:0:0:
256,192,111197,1,0,0:0:0:0:
256,192,111527,1,8,0:0:0:0:
256,192,111857,1,12,0:0:0:0:
256,192,112516,1,0,0:0:0:0:
256,192,112846,1,8,0:0:0:0:
256,192,113175,1,8,0:0:0:0:
256,192,113505,1,0,0:0:0:0:
256,192,113835,1,8,0:0:0:0:
256,192,114164,1,0,0:0:0:0:
256,192,114494,1,8,0:0:0:0:
256,192,114824,1,8,0:0:0:0:
256,192,115483,1,8,0:0:0:0:
256,192,115813,1,12,0:0:0:0:
256,192,116472,1,0,0:0:0:0:
256,192,116802,1,0,0:0:0:0:
256,192,117296,1,0,0:0:0:0:
256,192,117461,1,8,0:0:0:0:
256,192,117791,1,0,0:0:0:0:
256,192,118120,1,0,0:0:0:0:
256,192,118450,1,8,0:0:0:0:
256,192,118780,1,8,0:0:0:0:
256,192,119769,1,4,0:0:0:0:
256,192,120428,1,0,0:0:0:0:
256,192,120593,1,0,0:0:0:0:
256,192,120675,1,0,0:0:0:0:
256,192,120758,1,8,0:0:0:0:
256,192,121417,1,8,0:0:0:0:
256,192,121747,1,0,0:0:0:0:
256,192,122571,1,0,0:0:0:0:
256,192,122653,1,0,0:0:0:0:
256,192,122735,1,0,0:0:0:0:
256,192,123395,1,8,0:0:0:0:
256,192,123725,1,8,0:0:0:0:
256,192,124384,1,8,0:0:0:0:
256,192,124549,1,0,0:0:0:0:
256,192,124632,1,0,0:0:0:0:
256,192,124714,1,0,0:0:0:0:
256,192,125043,1,8,0:0:0:0:
256,192,125373,1,0,0:0:0:0:
256,192,125703,1,0,0:0:0:0:
256,192,126362,1,0,0:0:0:0:
256,192,126692,1,8,0:0:0:0:
256,192,126857,1,0,0:0:0:0:
256,192,127022,1,8,0:0:0:0:
256,192,127351,1,8,0:0:0:0:
256,192,127681,1,0,0:0:0:0:
256,192,128340,1,0,0:0:0:0:
256,192,128505,1,8,0:0:0:0:
256,192,128587,1,8,0:0:0:0:
256,192,128670,1,8,0:0:0:0:
256,192,129329,1,8,0:0:0:0:
256,192,129659,1,0,0:0:0:0:
256,192,130483,1,8,0:0:0:0:
256,192,130565,1,8,0:0:0:0:
256,192,130648,1,8,0:0:0:0:
256,192,131307,1,8,0:0:0:0:
256,192,131637,1,0,0:0:0:0:
256,192,132296,1,0,0:0:0:0:
256,192,132626,2,0,L|128:96,3,140
256,192,133945,1,0,0:0:0:0:
256,192,134109,1,8,0:0:0:0:
256,192,134274,1,8,0:0:0:0:
256,192,134439,1,0,0:0:0:0:
256,192,134604,1,8,0:0:0:0:
256,192,134686,1,8,0:0:0:0:
256,192,134769,1,8,0:0:0:0:
256,192,134934,1,0,0:0:0:0:
256,192,135263,1,8,0:0:0:0:
256,192,135593,1,12,0:0:0:0:
256,192,135758,1,0,0:0:0:0:
256,192,135923,1,0,0:0:0:0:
256,192,136087,1,8,0:0:0:0:
256,192,136252,1,0,0:0:0:0:
256,192,136582,1,0,0:0:0:0:
256,192,136912,1,8,0:0:0:0:
256,192,137241,1,8,0:0:0:0:
256,192,137406,1,8,0:0:0:0:
256,192,137571,1,0,0:0:0:0:
256,192,137901,1,0,0:0:0:0:
256,192,138065,1,0,0:0:0:0:
256,192,138230,1,8,0:0:0:0:
256,192,138395,1,0,0:0:0:0:
256,192,138560,1,8,0:0:0:0:
256,192,138890,1,0,0:0:0:0:
256,192,139219,1,8,0:0:0:0:
256,192,139549,1,8,0:0:0:0:
256,192,139879,1,8,0:0:0:0:
256,192,140044,1,0,0:0:0:0:
256,192,140208,1,0,0:0:0:0:
256,192,140373,1,8,0:0:0:0:
256,192,140538,1,0,0:0:0:0:
256,192,141197,1,0,0:0:0:0:
256,192,141527,1,8,0:0:0:0:
256,192,141857,1,0,0:0:0:0:
256,192,142186,1,0,0:0:0:0:
256,192,142516,1,8,0:0:0:0:
256,192,142846,1,8,0:0:0:0:
256,192,143175,1,0,0:0:0:0:
256,192,143505,1,8,0:0:0:0:
256,192,144164,1,0,0:0:0:0:
256,192,144247,1,0,0:0:0:0:
256,192,144329,1,0,0:0:0:0:
256,192,144494,1,8,0:0:0:0:
256,192,145153,1,0,0:0:0:0:
256,192,145483,1,8,0:0:0:0:
256,192,145978,1,0,0:0:0:0:
256,192,146142,1,0,0:0:0:0:
256,192,146307,1,8,0:0:0:0:
256,192,146472,1,4,0:0:0:0:
256,192,146802,1,4,0:0:0:0:
256,192,147131,1,12,0:0:0:0:
256,192,147296,1,12,0:0:0:0:
256,192,147461,1,4,0:0:0:0:
256,192,148120,1,8,0:0:0:0:
256,192,148450,1,0,0:0:0:0:
256,192,149109,1,8,0:0:0:0:
256,192,149439,1,8,0:0:0:0:
256,192,149769,1,8,0:0:0:0:
256,192,149934,1,0,0:0:0:0:
256,192,150098,1,0,0:0:0:0:
256,192,150263,1,8,0:0:0:0:
256,192,150428,1,0,0:0:0:0:
256,192,150758,1,0,0:0:0:0:
256,192,151087,1,8,0:0:0:0:
256,192,151417,1,4,0:0:0:0:
256,192,152076,1,0,0:0:0:0:
256,192,152406,1,12,0:0:0:0:
256,192,152736,1,12,0:0:0:0:
256,192,153065,1,0,0:0:0:0:
256,192,153395,1,8,0:0:0:0:
256,192,153725,1,0,0:0:0:0:
256,192,153890,1,8,0:0:0:0:
256,192,154055,1,0,0:0:0:0:
256,192,154384,12,0,155208,0:0:0:0:
256,192,155373,5,6,0:0:0:0:
