osu file format v14

[General]
AudioFilename: Musica de Aves.mp3
AudioLeadIn: 0
PreviewTime: 36692
Countdown: 0
SampleSet: Normal
StackLeniency: 0.7
Mode: 1
LetterboxInBreaks: 0
WidescreenStoryboard: 0

[Editor]
DistanceSpacing: 2
BeatDivisor: 2
GridSize: 32
TimelineZoom: 3.120001

[Metadata]
Title:Musica de Aves
TitleUnicode:Musica de Aves
Artist:Chitose
ArtistUnicode:Chitose
Creator:Kunieda
Version:Kantan
Source:BMS
Tags:galician spain instrumental g2r2014 go back 2 your roots
BeatmapID:634971
BeatmapSetID:278119

[Difficulty]
HPDrainRate:2
CircleSize:5
OverallDifficulty:4
ApproachRate:5
SliderMultiplier:1.4
SliderTickRate:1

[Events]
//Background and Video events
0,0,"22920563.jpg",0,0
//Break Periods
2,84364,95162
//Storyboard Layer 0 (Background)
//Storyboard Layer 1 (Fail)
//Storyboard Layer 2 (Pass)
//Storyboard Layer 3 (Foreground)
//Storyboard Sound Samples

[TimingPoints]
4055,329.67032967033,6,1,0,100,1,0
36692,-100,6,1,0,100,0,1
52516,-100,6,1,0,100,0,0
96362,-100,6,2,0,20,0,0
99989,-100,6,1,0,100,0,0
135593,-100,6,1,0,100,0,1
155373,-100,6,1,0,100,0,0

[HitObjects]
256,192,4055,5,6,0:0:0:0:
256,192,5044,1,0,0:0:0:0:
256,192,6033,1,8,0:0:0:0:
256,192,7022,1,0,0:0:0:0:
256,192,7351,1,8,0:0:0:0:
256,192,8011,1,8,0:0:0:0:
256,192,9000,1,0,0:0:0:0:
256,192,9989,1,8,0:0:0:0:
256,192,10978,1,8,0:0:0:0:
256,192,11967,1,4,0:0:0:0:
256,192,12956,1,8,0:0:0:0:
256,192,13945,1,8,0:0:0:0:
256,192,14934,1,0,0:0:0:0:
256,192,15263,1,0,0:0:0:0:
256,192,15923,1,8,0:0:0:0:
256,192,18395,1,8,0:0:0:0:
256,192,18890,1,4,0:0:0:0:
256,192,19219,1,4,0:0:0:0:
256,192,19549,2,0,L|128:96,1,140
256,192,20208,1,8,0:0:0:0:
256,192,20538,2,0,L|128:128,1,140
256,192,22846,1,8,0:0:0:0:
256,192,23835,1,0,0:0:0:0:
256,192,24824,1,8,0:0:0:0:
256,192,26802,1,0,0:0:0:0:
256,192,27791,1,8,0:0:0:0:
256,192,28780,1,0,0:0:0:0:
256,192,30758,1,8,0:0:0:0:
256,192,31747,1,8,0:0:0:0:
256,192,32736,1,4,0:0:0:0:
256,192,34714,2,0,L|128:128,2,140
256,192,35703,5,4,0:0:0:0:
256,192,36033,1,12,0:0:0:0:
256,192,36692,1,8,0:0:0:0:
256,192,38340,1,0,0:0:0:0:
256,192,38670,1,8,0:0:0:0:
256,192,39659,1,8,0:0:0:0:
256,192,40648,1,0,0:0:0:0:
256,192,41637,1,8,0:0:0:0:
256,192,42626,1,4,0:0:0:0:
256,192,43615,1,0,0:0:0:0:
256,192,43945,1,8,0:0:0:0:
256,192,44274,1,0,0:0:0:0:
256,192,44604,1,8,0:0:0:0:
256,192,46582,1,8,0:0:0:0:
256,192,47571,1,0,0:0:0:0:
256,192,47901,1,0,0:0:0:0:
256,192,48230,1,8,0:0:0:0:
256,192,48560,1,0,0:0:0:0:
256,192,50208,1,0,0:0:0:0:
256,192,50538,12,0,51527,0:0:0:0:
256,192,52516,5,8,0:0:0:0:
256,192,54494,1,0,0:0:0:0:
256,192,55483,1,0,0:0:0:0:
256,192,56472,1,4,0:0:0:0:
256,192,58450,1,8,0:0:0:0:
256,192,59439,1,0,0:0:0:0:
256,192,60098,1,8,0:0:0:0:
256,192,60428,1,6,0:0:0:0:
256,192,61417,1,0,0:0:0:0:
256,192,62406,1,8,0:0:0:0:
256,192,63395,1,0,0:0:0:0:
256,192,63725,1,8,0:0:0:0:
256,192,64384,1,4,0:0:0:0:
256,192,65373,1,0,0:0:0:0:
256,192,66033,1,8,0:0:0:0:
256,192,66362,1,8,0:0:0:0:
256,192,67351,2,4,L|160:128,2,105
256,192,68340,1,4,0:0:0:0:
256,192,69329,1,8,0:0:0:0:
256,192,70318,1,0,0:0:0:0:
256,192,71307,1,8,0:0:0:0:
256,192,72296,1,8,0:0:0:0:
256,192,73285,1,0,0:0:0:0:
256,192,74274,2,8,L|160:64,1,140
256,192,75263,2,8,L|160:64,1,140
256,192,76252,1,4,0:0:0:0:
256,192,77241,1,8,0:0:0:0:
256,192,78230,1,0,0:0:0:0:
256,192,78560,1,8,0:0:0:0:
256,192,79219,1,0,0:0:0:0:
256,192,80208,1,8,0:0:0:0:
256,192,81197,1,0,0:0:0:0:
256,192,82186,1,8,0:0:0:0:
256,192,83175,12,0,84164,0:0:0:0:
256,192,96362,5,0,0:0:0:0:
256,192,98011,1,8,0:0:0:0:
256,192,99989,1,4,0:0:0:0:
256,192,101967,12,0,103615,0:0:0:0:
256,192,103945,5,8,0:0:0:0:
256,192,104934,1,8,0:0:0:0:
256,192,105923,1,0,0:0:0:0:
256,192,106912,1,8,0:0:0:0:
256,192,107901,1,6,0:0:0:0:
256,192,108890,1,0,0:0:0:0:
256,192,109879,1,8,0:0:0:0:
256,192,110868,1,0,0:0:0:0:
256,192,111197,1,0,0:0:0:0:
256,192,111857,1,8,0:0:0:0:
256,192,112846,1,8,0:0:0:0:
256,192,113505,1,8,0:0:0:0:
256,192,113835,1,8,0:0:0:0:
256,192,114824,1,8,0:0:0:0:
256,192,115813,1,6,0:0:0:0:
256,192,116802,1,0,0:0:0:0:
256,192,117791,1,0,0:0:0:0:
256,192,118450,1,8,0:0:0:0:
256,192,118780,1,8,0:0:0:0:
256,192,119769,1,4,0:0:0:0:
256,192,120758,5,8,0:0:0:0:
256,192,121747,1,8,0:0:0:0:
256,192,122736,1,0,0:0:0:0:
256,192,123725,1,8,0:0:0:0:
256,192,124714,1,8,0:0:0:0:
256,192,125703,1,0,0:0:0:0:
256,192,126692,1,0,0:0:0:0:
256,192,127022,1,0,0:0:0:0:
256,192,127681,1,8,0:0:0:0:
256,192,128670,1,8,0:0:0:0:
256,192,129659,1,0,0:0:0:0:
256,192,130648,1,0,0:0:0:0:
256,192,131637,1,0,0:0:0:0:
256,192,132626,1,8,0:0:0:0:
256,192,134274,1,8,0:0:0:0:
256,192,134604,2,0,L|128:96,2,140
256,192,135593,1,6,0:0:0:0:
256,192,136582,1,0,0:0:0:0:
256,192,137571,1,8,0:0:0:0:
256,192,138560,1,0,0:0:0:0:
256,192,138890,1,8,0:0:0:0:
256,192,139549,1,0,0:0:0:0:
256,192,140538,1,8,0:0:0:0:
256,192,141527,1,0,0:0:0:0:
256,192,141857,1,0,0:0:0:0:
256,192,142516,1,8,0:0:0:0:
256,192,143505,1,8,0:0:0:0:
256,192,144494,1,0,0:0:0:0:
256,192,145153,1,0,0:0:0:0:
256,192,145483,1,0,0:0:0:0:
256,192,146472,2,4,L|128:96,1,140
256,192,147461,1,6,0:0:0:0:
256,192,149439,1,8,0:0:0:0:
256,192,150428,1,8,0:0:0:0:
256,192,151417,1,6,0:0:0:0:
256,192,152406,1,4,0:0:0:0:
256,192,152736,1,4,0:0:0:0:
256,192,153395,1,0,0:0:0:0:
256,192,154384,12,0,155373,0:0:0:0:
