osu file format v14

[General]
AudioFilename: Musica de Aves.mp3
AudioLeadIn: 0
PreviewTime: 36692
Countdown: 0
SampleSet: Normal
StackLeniency: 0.7
Mode: 1
LetterboxInBreaks: 0
WidescreenStoryboard: 0

[Editor]
DistanceSpacing: 2
BeatDivisor: 2
GridSize: 32
TimelineZoom: 3.120001

[Metadata]
Title:Musica de Aves
TitleUnicode:Musica de Aves
Artist:Chitose
ArtistUnicode:Chitose
Creator:Kunieda
Version:Futsuu
Source:BMS
Tags:galician spain instrumental g2r2014 go back 2 your roots
BeatmapID:631603
BeatmapSetID:278119

[Difficulty]
HPDrainRate:3
CircleSize:5
OverallDifficulty:5
ApproachRate:5
SliderMultiplier:1.4
SliderTickRate:1

[Events]
//Background and Video events
0,0,"22920563.jpg",0,0
//Break Periods
2,84364,95162
//Storyboard Layer 0 (Background)
//Storyboard Layer 1 (Fail)
//Storyboard Layer 2 (Pass)
//Storyboard Layer 3 (Foreground)
//Storyboard Sound Samples

[TimingPoints]
4055,329.67032967033,6,1,0,75,1,0
36692,-100,6,1,0,75,0,1
52516,-100,6,1,0,75,0,0
96362,-100,6,2,0,20,0,0
99989,-100,6,1,0,75,0,0
135593,-100,6,1,0,75,0,1
155373,-100,6,1,0,75,0,0

[HitObjects]
256,192,4055,5,4,0:0:0:0:
256,192,4714,1,0,0:0:0:0:
256,192,5043,1,8,0:0:0:0:
256,192,5208,1,8,0:0:0:0:
256,192,5373,1,0,0:0:0:0:
256,192,5868,1,0,0:0:0:0:
256,192,6033,1,8,0:0:0:0:
256,192,7022,1,0,0:0:0:0:
256,192,7351,1,8,0:0:0:0:
256,192,7681,1,8,0:0:0:0:
256,192,8011,1,0,0:0:0:0:
256,192,9659,1,8,0:0:0:0:
256,192,9824,1,8,0:0:0:0:
256,192,9989,1,8,0:0:0:0:
256,192,10318,1,0,0:0:0:0:
256,192,10648,1,8,0:0:0:0:
256,192,11967,1,6,0:0:0:0:
256,192,12296,1,6,0:0:0:0:
256,192,12626,1,0,0:0:0:0:
256,192,12791,1,0,0:0:0:0:
256,192,12956,1,8,0:0:0:0:
256,192,13285,1,8,0:0:0:0:
256,192,13780,1,8,0:0:0:0:
256,192,13945,1,0,0:0:0:0:
256,192,14439,1,6,0:0:0:0:
256,192,14934,1,0,0:0:0:0:
256,192,15098,1,0,0:0:0:0:
256,192,15263,1,8,0:0:0:0:
256,192,15593,1,8,0:0:0:0:
256,192,15923,1,0,0:0:0:0:
256,192,16417,1,8,0:0:0:0:
256,192,17241,1,8,0:0:0:0:
256,192,17571,1,8,0:0:0:0:
256,192,18395,1,8,0:0:0:0:
256,192,18890,1,8,0:0:0:0:
256,192,19219,1,0,0:0:0:0:
256,192,19549,2,0,L|128:128,1,140
256,192,20208,1,8,0:0:0:0:
256,192,20538,2,0,L|128:96,1,140
256,192,21197,1,8,0:0:0:0:
256,192,21527,1,0,0:0:0:0:
256,192,21857,1,8,0:0:0:0:
256,192,22186,1,0,0:0:0:0:
256,192,22846,1,8,0:0:0:0:
256,192,23175,1,8,0:0:0:0:
256,192,23505,1,0,0:0:0:0:
256,192,23835,1,8,0:0:0:0:
256,192,24164,1,0,0:0:0:0:
256,192,24494,1,8,0:0:0:0:
256,192,24824,1,0,0:0:0:0:
256,192,26802,1,8,0:0:0:0:
256,192,27131,1,0,0:0:0:0:
256,192,27461,1,0,0:0:0:0:
256,192,27791,1,8,0:0:0:0:
256,192,28285,1,8,0:0:0:0:
256,192,28450,1,8,0:0:0:0:
256,192,28780,1,0,0:0:0:0:
256,192,29109,1,8,0:0:0:0:
256,192,30428,1,8,0:0:0:0:
256,192,30593,1,8,0:0:0:0:
256,192,30758,1,8,0:0:0:0:
256,192,31252,1,8,0:0:0:0:
256,192,31417,1,0,0:0:0:0:
256,192,31747,1,8,0:0:0:0:
256,192,32076,1,8,0:0:0:0:
256,192,32406,1,0,0:0:0:0:
256,192,32736,1,8,0:0:0:0:
256,192,32901,2,0,L|192:128,11,70
256,192,35703,5,4,0:0:0:0:
256,192,36033,1,4,0:0:0:0:
256,192,36692,1,8,0:0:0:0:
256,192,37351,1,0,0:0:0:0:
256,192,37681,1,0,0:0:0:0:
256,192,38340,1,8,0:0:0:0:
256,192,38670,1,8,0:0:0:0:
256,192,39329,1,0,0:0:0:0:
256,192,39494,1,0,0:0:0:0:
256,192,39659,1,8,0:0:0:0:
256,192,40318,1,8,0:0:0:0:
256,192,40648,1,4,0:0:0:0:
256,192,41307,1,0,0:0:0:0:
256,192,41637,1,8,0:0:0:0:
256,192,42296,1,0,0:0:0:0:
256,192,42626,1,8,0:0:0:0:
224,192,43615,2,0,L|128:64,2,140
256,192,44604,1,14,0:0:0:0:
256,192,45263,1,0,0:0:0:0:
256,192,45593,1,0,0:0:0:0:
256,192,45923,1,8,0:0:0:0:
256,192,46252,1,0,0:0:0:0:
256,192,46582,1,8,0:0:0:0:
256,192,47241,1,8,0:0:0:0:
256,192,47406,1,8,0:0:0:0:
256,192,47571,1,0,0:0:0:0:
256,192,47901,1,0,0:0:0:0:
256,192,48230,1,8,0:0:0:0:
256,192,48560,1,0,0:0:0:0:
256,192,49549,1,0,0:0:0:0:
256,192,50456,12,0,51527,0:0:0:0:
256,192,51857,5,8,0:0:0:0:
256,192,52186,1,0,0:0:0:0:
256,192,52516,1,12,0:0:0:0:
256,192,53176,1,0,0:0:0:0:
256,192,53505,1,8,0:0:0:0:
256,192,53670,1,8,0:0:0:0:
256,192,53835,1,0,0:0:0:0:
256,192,54330,1,0,0:0:0:0:
256,192,54495,1,8,0:0:0:0:
256,192,55483,1,8,0:0:0:0:
256,192,55813,1,8,0:0:0:0:
256,192,56142,1,8,0:0:0:0:
256,192,56472,1,4,0:0:0:0:
256,192,58285,1,8,0:0:0:0:
256,192,58450,1,0,0:0:0:0:
256,192,58780,1,0,0:0:0:0:
256,192,58945,1,0,0:0:0:0:
256,192,59109,1,0,0:0:0:0:
256,192,59439,1,0,0:0:0:0:
256,192,59769,1,8,0:0:0:0:
256,192,60428,1,6,0:0:0:0:
256,192,60758,1,0,0:0:0:0:
256,192,60923,1,8,0:0:0:0:
256,192,61088,1,0,0:0:0:0:
256,192,61417,1,8,0:0:0:0:
256,192,61582,1,8,0:0:0:0:
256,192,61747,1,0,0:0:0:0:
256,192,62242,1,0,0:0:0:0:
256,192,62407,1,8,0:0:0:0:
256,192,62736,1,0,0:0:0:0:
256,192,63395,1,8,0:0:0:0:
256,192,63725,1,0,0:0:0:0:
256,192,64384,1,6,0:0:0:0:
256,192,65373,1,0,0:0:0:0:
256,192,65703,1,0,0:0:0:0:
256,192,66033,1,8,0:0:0:0:
256,192,66362,1,0,0:0:0:0:
256,192,67351,2,4,L|160:96,2,105
256,192,68340,1,4,0:0:0:0:
256,192,69329,1,8,0:0:0:0:
256,192,69989,1,8,0:0:0:0:
256,192,70318,1,8,0:0:0:0:
256,192,71307,1,8,0:0:0:0:
256,192,71967,1,0,0:0:0:0:
256,192,72296,1,8,0:0:0:0:
256,192,72956,1,8,0:0:0:0:
256,192,73285,1,0,0:0:0:0:
256,192,73945,1,0,0:0:0:0:
256,192,74274,1,8,0:0:0:0:
256,192,75098,1,8,0:0:0:0:
256,192,75263,1,0,0:0:0:0:
256,192,76252,1,4,0:0:0:0:
256,192,77241,1,8,0:0:0:0:
256,192,77901,1,8,0:0:0:0:
256,192,78230,1,8,0:0:0:0:
256,192,78560,1,0,0:0:0:0:
256,192,79219,1,8,0:0:0:0:
256,192,79879,1,8,0:0:0:0:
256,192,80208,1,0,0:0:0:0:
256,192,80538,1,0,0:0:0:0:
256,192,80868,1,8,0:0:0:0:
256,192,81197,1,8,0:0:0:0:
256,192,81527,1,8,0:0:0:0:
256,192,81857,1,0,0:0:0:0:
256,192,82186,1,8,0:0:0:0:
256,192,82516,1,0,0:0:0:0:
256,192,82846,1,0,0:0:0:0:
256,192,83175,12,0,84164,0:0:0:0:
256,192,96362,5,8,0:0:0:0:
256,192,97022,1,0,0:0:0:0:
256,192,97516,1,0,0:0:0:0:
256,192,98011,1,8,0:0:0:0:
256,192,99989,1,4,0:0:0:0:
256,192,100483,1,4,0:0:0:0:
256,192,101967,12,0,103615,0:0:0:0:
256,192,103945,5,8,0:0:0:0:
256,192,104934,1,8,0:0:0:0:
256,192,105593,1,8,0:0:0:0:
256,192,105923,1,0,0:0:0:0:
256,192,106912,1,8,0:0:0:0:
256,192,107571,1,8,0:0:0:0:
256,192,107901,1,8,0:0:0:0:
256,192,108890,1,8,0:0:0:0:
256,192,109219,1,0,0:0:0:0:
256,192,109549,1,8,0:0:0:0:
256,192,109879,1,0,0:0:0:0:
256,192,110868,1,8,0:0:0:0:
256,192,111197,1,8,0:0:0:0:
256,192,111362,1,0,0:0:0:0:
256,192,111857,1,6,0:0:0:0:
256,192,112846,1,0,0:0:0:0:
256,192,113175,1,0,0:0:0:0:
256,192,113505,1,8,0:0:0:0:
256,192,114164,1,8,0:0:0:0:
256,192,114494,1,8,0:0:0:0:
256,192,114824,1,0,0:0:0:0:
256,192,115483,1,0,0:0:0:0:
256,192,115813,1,6,0:0:0:0:
256,192,116802,1,8,0:0:0:0:
256,192,117461,1,8,0:0:0:0:
256,192,117791,2,8,L|128:96,3,140
256,192,119769,1,6,0:0:0:0:
256,192,120758,1,0,0:0:0:0:
256,192,121417,1,0,0:0:0:0:
256,192,121747,1,8,0:0:0:0:
256,192,122736,1,8,0:0:0:0:
256,192,123395,1,0,0:0:0:0:
256,192,123725,1,8,0:0:0:0:
256,192,124714,1,0,0:0:0:0:
256,192,125044,1,0,0:0:0:0:
256,192,125373,1,8,0:0:0:0:
256,192,125703,1,0,0:0:0:0:
256,192,126692,1,8,0:0:0:0:
256,192,127681,1,0,0:0:0:0:
256,192,128670,1,8,0:0:0:0:
256,192,129329,1,8,0:0:0:0:
256,192,129659,1,0,0:0:0:0:
256,192,130648,1,8,0:0:0:0:
256,192,131307,1,0,0:0:0:0:
256,192,131637,1,0,0:0:0:0:
256,192,132626,1,8,0:0:0:0:
256,192,133615,2,0,L|128:96,2,140
256,192,134604,1,8,0:0:0:0:
256,192,135593,1,4,0:0:0:0:
256,192,136582,1,8,0:0:0:0:
256,192,137571,1,8,0:0:0:0:
256,192,138560,2,8,L|160:64,2,140
256,192,139549,1,8,0:0:0:0:
256,192,140538,1,8,0:0:0:0:
256,192,141527,1,8,0:0:0:0:
256,192,141857,1,8,0:0:0:0:
256,192,142186,1,0,0:0:0:0:
256,192,142516,1,8,0:0:0:0:
256,192,143505,1,4,0:0:0:0:
256,192,144494,1,0,0:0:0:0:
256,192,145483,1,8,0:0:0:0:
256,192,146472,2,12,L|160:64,3,140
256,192,148450,1,8,0:0:0:0:
256,192,149439,1,8,0:0:0:0:
256,192,150428,1,0,0:0:0:0:
256,192,151417,1,6,0:0:0:0:
256,192,152406,1,4,0:0:0:0:
256,192,152736,1,4,0:0:0:0:
256,192,153395,1,0,0:0:0:0:
256,192,154055,1,8,0:0:0:0:
256,192,154384,12,0,155373,0:0:0:0:
